osu file format v14

[General]
AudioFilename: audio.mp3
AudioLeadIn: 0
PreviewTime: 44542
Countdown: 1
SampleSet: Soft
StackLeniency: 0.7
Mode: 2
LetterboxInBreaks: 0
WidescreenStoryboard: 1

[Editor]
Bookmarks: 34209,41875,66209,74709,80292,82375,84292,84875,108875,117875,119542
DistanceSpacing: 2
BeatDivisor: 4
GridSize: 8
TimelineZoom: 2.099999

[Metadata]
Title:Anhedonia
TitleUnicode:Ανηεδονια
Artist:Silent Spica
ArtistUnicode:Silent Spica
Creator:Fisicia
Version:Cera's Breeze
Source:BMS
Tags:FRENZ2012 bof2012 a_hisa Kazetoki Spiritual Core Kazuyo Cera- Kamisama-
BeatmapID:1159480
BeatmapSetID:539776

[Difficulty]
HPDrainRate:6
CircleSize:4
OverallDifficulty:9.3
ApproachRate:9.3
SliderMultiplier:1.8
SliderTickRate:1

[Events]
//Background and Video events
0,0,"59719307_p0.jpg",0,0
//Break Periods
//Storyboard Layer 0 (Background)
//Storyboard Layer 1 (Fail)
//Storyboard Layer 2 (Pass)
//Storyboard Layer 3 (Foreground)
//Storyboard Layer 4 (Overlay)
//Storyboard Sound Samples

[TimingPoints]
1559,666.666666666667,4,2,0,40,1,0
2670,-100,4,2,0,5,0,0
2781,-100,4,2,0,40,0,0
5336,-100,4,2,0,5,0,0
5447,-100,4,2,0,40,0,0
11892,333.333333333333,4,2,0,40,1,0
12225,-100,4,2,0,40,0,0
12392,-100,4,2,0,30,0,0
12558,-100,4,2,0,20,0,0
12725,-100,4,2,0,10,0,0
12876,333.333333333333,4,2,0,40,1,0
34598,-100,4,2,0,5,0,0
34653,-100,4,2,0,40,0,0
35264,-100,4,2,0,5,0,0
35320,-100,4,2,0,40,0,0
36931,-100,4,2,0,5,0,0
36987,-100,4,2,0,40,0,0
37264,-100,4,2,0,5,0,0
37320,-100,4,2,0,40,0,0
39598,-100,4,2,0,5,0,0
39653,-100,4,2,0,40,0,0
39931,-100,4,2,0,5,0,0
39987,-100,4,2,0,40,0,0
42209,-200,4,2,0,40,0,0
42542,-100,4,2,0,40,0,0
43209,-83.3333333333333,4,2,0,40,0,0
50264,-100,4,2,0,5,0,0
50320,-100,4,2,0,40,0,0
50542,-100,4,2,0,5,0,0
50542,-100,4,2,0,5,0,0
50542,-100,4,2,0,5,0,0
50542,-100,4,2,0,5,0,0
50542,-100,4,2,0,5,0,0
50598,-100,4,2,0,40,0,0
88264,-100,4,2,0,5,0,0
88320,-100,4,2,0,40,0,0
88598,-100,4,2,0,5,0,0
88653,-100,4,2,0,40,0,0
104264,-100,4,2,0,5,0,0
104320,-100,4,2,0,40,0,0
106209,-83.3333333333333,4,2,0,40,0,0
108875,-100,4,2,0,40,0,0

[Colours]
Combo1 : 0,0,255
Combo2 : 255,0,0

[HitObjects]
344,320,1559,6,0,B|480:320|480:320|400:320|400:320|512:320|512:320,1,315
376,248,2892,2,0,B|352:248|352:248|332:248|332:248|308:248|308:248|284:248|284:248|384:248,1,180
112,312,4225,6,0,B|252:312|252:312|172:312|172:312|280:312,1,315
160,240,5559,2,0,B|80:240|80:240|124:240|124:240|36:240,1,180
296,168,6892,6,0,L|88:168,1,180
328,96,8225,6,0,L|120:96,1,180
376,256,9559,6,0,B|308:256|308:256|316:256|316:256|292:256|292:256|404:256|404:256|424:256|424:256|396:256|396:256|420:256,1,270
328,192,10725,1,0,0:0:0:0:
240,192,10892,6,0,L|72:192,1,135
208,144,11559,2,0,L|40:144,1,135
448,280,12226,1,0,0:0:0:0:
459,260,12267,1,0,0:0:0:0:
466,239,12309,1,0,0:0:0:0:
463,217,12350,1,0,0:0:0:0:
450,199,12392,1,0,0:0:0:0:
429,191,12434,1,0,0:0:0:0:
407,188,12475,1,0,0:0:0:0:
384,186,12517,1,0,0:0:0:0:
362,183,12559,1,0,0:0:0:0:
341,176,12600,1,0,0:0:0:0:
323,163,12642,1,0,0:0:0:0:
313,143,12684,1,0,0:0:0:0:
312,120,12725,1,0,0:0:0:0:
318,98,12767,1,0,0:0:0:0:
327,78,12809,1,0,0:0:0:0:
327,78,12877,1,4,0:0:0:0:
327,78,13210,5,0,0:0:0:0:
160,80,13709,6,0,L|260:80,2,90
296,144,14209,2,0,L|200:144,1,90
304,208,14542,2,0,L|394:208,1,90
160,216,14792,5,0,0:0:0:0:
116,206,14875,1,0,0:0:0:0:
87,174,14958,1,0,0:0:0:0:
90,129,15042,1,0,0:0:0:0:
120,97,15125,1,0,0:0:0:0:
160,88,15208,1,0,0:0:0:0:
400,88,15542,5,0,0:0:0:0:
256,136,15875,6,0,L|256:324,1,180
384,304,16375,6,0,L|474:304,2,90
256,232,16875,2,0,L|346:232,2,90
384,304,17375,5,0,0:0:0:0:
436,288,17458,1,0,0:0:0:0:
476,252,17541,1,0,0:0:0:0:
492,200,17625,1,0,0:0:0:0:
480,148,17708,1,0,0:0:0:0:
456,100,17791,1,0,0:0:0:0:
240,96,17875,6,0,L|88:0,2,180,0|0|0,2:3|2:3|2:3,2:3:0:0:
24,208,19042,6,0,L|144:208,2,90
114,208,19542,1,0,0:0:0:0:
204,208,19709,2,0,L|100:208,1,90
344,208,20042,5,0,0:0:0:0:
360,168,20125,1,0,0:0:0:0:
336,128,20208,1,0,0:0:0:0:
296,128,20291,1,0,0:0:0:0:
248,128,20375,1,0,0:0:0:0:
208,128,20458,1,0,0:0:0:0:
376,128,20542,2,0,L|504:280,1,180
288,160,21209,6,0,L|408:296,1,180
264,288,21709,2,0,L|144:288,2,90
376,288,22209,1,0,0:0:0:0:
480,288,22375,1,0,0:0:0:0:
376,288,22542,1,0,0:0:0:0:
144,240,22709,6,0,L|104:208,2,45
184,240,22959,2,0,L|232:208,2,45
144,240,23209,2,0,B|104:240|80:232|56:216|56:216|32:184|32:184|32:120,1,180
256,128,23709,5,0,0:0:0:0:
360,128,23875,1,0,0:0:0:0:
256,128,24042,1,0,0:0:0:0:
144,128,24209,5,0,0:0:0:0:
256,128,24375,2,0,L|360:128,1,90
40,176,24709,5,0,0:0:0:0:
176,172,24875,1,0,0:0:0:0:
40,176,25042,1,0,0:0:0:0:
176,172,25209,1,0,0:0:0:0:
325,172,25375,5,0,0:0:0:0:
221,172,25542,2,0,L|165:172,2,45
360,224,25875,2,0,L|176:224,2,180
248,224,26709,1,0,0:0:0:0:
144,224,26875,1,0,0:0:0:0:
392,176,27042,6,0,L|292:176,1,90
431,176,27375,2,0,L|335:176,1,90
232,174,27709,2,0,B|144:174|144:174|256:174,1,180
472,192,28209,5,0,0:0:0:0:
488,208,28292,1,0,0:0:0:0:
504,232,28375,1,0,0:0:0:0:
496,248,28458,1,0,0:0:0:0:
480,264,28542,2,0,B|376:264|376:264|320:176,1,180
71,192,29042,2,0,L|179:192,2,90
183,192,29542,5,0,0:0:0:0:
295,192,29709,1,0,0:0:0:0:
183,192,29875,1,0,0:0:0:0:
448,112,30042,6,0,L|264:112,1,180
408,264,30542,2,0,L|280:264,1,90
72,256,30875,1,0,0:0:0:0:
56,248,30958,1,0,0:0:0:0:
40,232,31042,1,0,0:0:0:0:
40,216,31124,1,0,0:0:0:0:
324,208,31209,2,0,L|160:96,1,180
280,104,31709,5,0,0:0:0:0:
384,104,31875,1,0,0:0:0:0:
142,175,32042,1,0,0:0:0:0:
247,173,32209,5,0,0:0:0:0:
351,173,32375,1,0,0:0:0:0:
120,240,32542,1,0,0:0:0:0:
232,240,32709,2,0,B|226:240|322:240,1,90
96,232,33042,2,0,B|102:232|6:232,1,90
416,232,33375,6,0,L|472:232,1,45
240,232,33542,2,0,L|184:232,1,45
416,232,33709,2,0,L|472:232,1,45
240,232,33875,2,0,L|184:232,1,45
408,232,34042,2,0,L|464:232,1,45
200,144,34209,6,0,B|112:144|112:144|16:144,1,180
312,298,34625,1,0,0:0:0:0:
349,298,34709,6,0,B|428:296|428:296|480:296|480:296|323:297,1,270
160,128,35292,6,0,B|24:128|24:128|280:132|280:132|120:128|120:128|228:132|228:132|0:128,1,855
312,264,36959,2,0,L|463:264,1,135
264,208,37292,1,0,0:0:0:0:
224,208,37375,2,0,L|408:208,1,180
160,128,37875,6,0,B|23:127|23:127|168:128|168:128|55:127|55:127|240:128|240:128|111:127|111:127|311:127,1,900
114,275,39625,6,0,L|-7:199,1,135
384,264,39959,1,0,0:0:0:0:
432,256,40042,2,0,B|480:232|504:192|480:136|408:112,1,180
171,120,40542,2,0,B|56:120|56:120|264:120|264:120|148:120|148:120|344:120,1,630
104,240,41875,1,0,0:0:0:0:
92,236,41917,1,0,0:0:0:0:
80,232,41959,1,0,0:0:0:0:
68,236,42000,1,0,0:0:0:0:
56,244,42042,1,0,0:0:0:0:
48,256,42084,1,0,0:0:0:0:
48,268,42125,1,0,0:0:0:0:
56,276,42167,1,0,0:0:0:0:
64,284,42209,1,0,0:0:0:0:
256,288,42542,5,0,0:0:0:0:
0,189,42709,2,0,L|180:189,1,180
48,112,43209,2,0,B|188:113|188:113|33:112|33:112|176:112,1,431.999986816407
216,112,43958,1,0,0:0:0:0:
264,112,44042,1,0,0:0:0:0:
488,120,44209,2,0,L|392:240,1,107.999996704102
192,240,44542,1,0,0:0:0:0:
336,244,44709,1,0,0:0:0:0:
144,240,44875,5,0,0:0:0:0:
88,240,44958,1,0,0:0:0:0:
60,280,45041,1,0,0:0:0:0:
104,312,45125,1,0,0:0:0:0:
152,312,45208,1,0,0:0:0:0:
200,312,45291,1,0,0:0:0:0:
224,344,45375,1,0,0:0:0:0:
72,168,45459,1,0,0:0:0:0:
48,152,45542,1,0,0:0:0:0:
24,128,45625,1,0,0:0:0:0:
24,96,45709,1,0,0:0:0:0:
216,148,45792,6,0,L|236:96,1,53.9999983520508
144,68,45959,2,0,L|64:64,2,53.9999983520508
400,96,46209,6,0,L|418:46,4,53.9999983520508
208,168,46625,1,0,0:0:0:0:
176,184,46708,1,0,0:0:0:0:
176,216,46791,1,0,0:0:0:0:
344,184,46875,5,0,0:0:0:0:
364,224,46959,1,0,0:0:0:0:
328,256,47042,1,0,0:0:0:0:
296,280,47125,1,0,0:0:0:0:
472,260,47209,1,0,0:0:0:0:
488,304,47292,1,0,0:0:0:0:
456,340,47375,1,0,0:0:0:0:
168,248,47459,6,0,L|108:248,2,53.9999983520508
376,160,47709,2,0,L|436:160,2,53.9999983520508
166,161,47959,6,0,L|102:161,2,53.9999983520508
220,161,48209,1,0,0:0:0:0:
166,161,48292,2,0,L|102:161,1,53.9999983520508
346,159,48542,5,0,0:0:0:0:
220,161,48709,1,0,0:0:0:0:
346,159,48875,6,0,L|414:159,2,53.9999983520508
136,160,49125,6,0,L|80:160,2,53.9999983520508
440,240,49375,6,0,B|504:240|504:240|344:240,1,215.999993408203
224,240,49875,1,0,0:0:0:0:
96,240,50042,1,0,0:0:0:0:
368,160,50209,6,0,L|389:109,1,53.9999983520508
96,160,50459,2,0,L|76:103,1,53.9999983520508
368,272,50709,1,0,0:0:0:0:
136,280,50875,2,0,L|272:120,1,180
120,136,51375,5,0,0:0:0:0:
88,136,51458,1,0,0:0:0:0:
56,160,51541,1,0,0:0:0:0:
56,208,51625,1,0,0:0:0:0:
80,240,51708,1,0,0:0:0:0:
120,240,51791,1,0,0:0:0:0:
160,240,51875,2,0,L|288:240,1,90
48,344,52125,6,0,L|24:288,1,45
296,344,52375,2,0,L|320:288,1,45
80,336,52625,2,0,L|65:289,1,45
384,136,52875,5,0,0:0:0:0:
408,96,52958,1,0,0:0:0:0:
408,56,53041,1,0,0:0:0:0:
368,24,53125,1,0,0:0:0:0:
320,32,53208,1,0,0:0:0:0:
280,56,53291,1,0,0:0:0:0:
272,96,53375,1,0,0:0:0:0:
288,136,53459,1,0,0:0:0:0:
432,344,53542,2,0,L|456:296,1,45
256,336,53709,2,0,L|232:296,1,45
480,248,53875,2,0,L|512:176,1,45
192,240,54042,2,0,L|168:200,1,45
416,144,54209,6,0,B|472:176|472:176|480:224|480:224|472:264|472:264|408:296|408:296,1,225
224,80,54709,2,0,L|160:80,2,45
472,80,55042,2,0,L|368:80,2,90
112,144,55542,6,0,L|287:143,2,135
392,144,56209,6,0,L|217:143,2,135
144,88,56875,1,0,0:0:0:0:
48,80,57042,2,0,P|128:160|72:216,1,180
472,192,57542,5,0,0:0:0:0:
328,192,57709,1,0,0:0:0:0:
472,128,57875,1,0,0:0:0:0:
328,128,58042,1,0,0:0:0:0:
184,184,58209,2,0,B|86:184|86:184|209:183,1,180
360,176,58709,6,0,L|400:152,2,45
112,160,59042,2,0,L|74:99,1,45
328,152,59292,2,0,L|328:72,1,45
480,128,59542,2,0,B|480:320,1,180
176,136,60042,6,0,B|176:320,1,180
480,208,60542,2,0,B|331:308,2,180
184,264,61375,6,0,L|148:200,2,45
368,240,61709,2,0,L|348:188,1,45
80,224,61959,2,0,L|100:172,1,45
320,96,62209,5,0,0:0:0:0:
310,44,62292,1,0,0:3:0:0:
257,32,62375,1,0,0:3:0:0:
209,56,62459,1,0,0:3:0:0:
182,92,62542,1,0,0:3:0:0:
379,162,62625,1,0,0:0:0:0:
388,215,62709,1,0,0:0:0:0:
361,262,62792,1,0,0:0:0:0:
144,304,62875,6,0,L|56:304,1,45
168,256,63042,2,0,L|224:256,1,45
280,208,63209,2,0,L|235:208,1,45
56,208,63375,2,0,L|8:208,1,45
344,96,63542,6,0,L|416:32,1,90
168,96,63792,6,0,L|88:24,1,90
344,208,64042,6,0,L|416:144,1,90
136,288,64375,6,0,L|248:184,1,135
0,192,64709,5,0,0:0:0:0:
224,128,64875,5,0,0:0:0:0:
264,143,64958,1,0,0:0:0:0:
280,184,65041,1,0,0:0:0:0:
259,223,65125,1,0,0:0:0:0:
217,234,65208,1,0,0:0:0:0:
392,240,65292,6,0,L|416:200,1,45
200,328,65459,6,0,L|176:288,1,45
464,129,65709,1,0,0:0:0:0:
328,128,65875,1,0,0:0:0:0:
464,129,66042,1,0,0:0:0:0:
128,80,66209,5,0,0:0:0:0:
72,128,66375,1,0,0:0:0:0:
88,208,66542,1,0,0:0:0:0:
160,240,66709,1,0,0:0:0:0:
392,80,66875,5,0,0:0:0:0:
448,128,67041,1,0,0:0:0:0:
432,208,67208,1,0,0:0:0:0:
360,240,67375,1,0,0:0:0:0:
128,240,67542,5,0,0:0:0:0:
16,240,67709,1,0,0:0:0:0:
128,240,67875,1,0,0:0:0:0:
16,240,68042,1,0,0:0:0:0:
256,240,68209,5,0,0:0:0:0:
368,240,68376,1,0,0:0:0:0:
256,240,68542,1,0,0:0:0:0:
368,240,68709,1,0,0:0:0:0:
144,192,68875,6,0,L|24:192,1,90
144,192,69209,2,0,L|64:120,1,90
144,192,69542,2,0,L|144:96,1,90
368,192,69875,6,0,L|488:192,1,90
368,192,70209,2,0,L|448:120,1,90
368,192,70542,2,0,L|368:96,1,90
128,240,70875,5,0,0:0:0:0:
16,240,71042,1,0,0:0:0:0:
128,240,71208,1,0,0:0:0:0:
16,240,71375,1,0,0:0:0:0:
256,240,71542,5,0,0:0:0:0:
328,240,71709,1,0,0:0:0:0:
256,240,71875,1,0,0:0:0:0:
184,240,72042,1,0,0:0:0:0:
416,184,72209,5,0,0:0:0:0:
488,184,72376,1,0,0:0:0:0:
416,184,72542,1,0,0:0:0:0:
344,184,72709,1,0,0:0:0:0:
88,176,72875,6,0,L|40:96,1,90
200,176,73209,2,0,L|248:88,1,90
88,176,73542,2,0,L|40:88,1,90
304,160,73875,2,0,L|384:102,2,90
192,160,74375,6,0,L|192:63,1,90
80,162,74709,6,0,L|80:72,1,90
336,160,75042,6,0,L|440:160,2,90
93,168,75542,6,0,L|37:168,1,45
256,168,75709,2,0,L|320:168,1,45
96,96,75876,2,0,L|40:96,1,45
256,104,76042,2,0,L|320:104,1,45
96,32,76209,6,0,L|32:32,1,45
419,168,76375,6,0,L|475:168,1,45
256,168,76542,2,0,L|192:168,1,45
416,96,76709,2,0,L|472:96,1,45
96,168,76875,2,0,B|88:248|88:296|104:344|216:344|288:344|288:344|152:344|152:344|416:344,1,720
176,224,78292,6,0,L|144:192,1,45
296,224,78459,2,0,L|328:192,1,45
144,192,78625,2,0,L|112:160,1,45
327,192,78792,2,0,L|359:160,1,45
96,64,78959,5,0,0:0:0:0:
65,96,79042,1,0,0:0:0:0:
62,139,79125,1,0,0:0:0:0:
94,170,79208,1,0,0:0:0:0:
136,176,79292,1,0,0:0:0:0:
166,208,79375,1,0,0:0:0:0:
169,251,79458,1,0,0:0:0:0:
137,282,79541,1,0,0:0:0:0:
416,328,79625,5,0,0:0:0:0:
447,296,79708,1,0,0:0:0:0:
465,255,79791,1,0,0:0:0:0:
472,208,79874,1,0,0:0:0:0:
448,176,79958,1,0,0:0:0:0:
416,160,80041,1,0,0:0:0:0:
384,152,80124,1,0,0:0:0:0:
352,144,80208,1,0,0:0:0:0:
168,40,80292,5,0,0:0:0:0:
137,72,80375,1,0,0:0:0:0:
119,113,80458,1,0,0:0:0:0:
112,160,80541,1,0,0:0:0:0:
136,192,80625,1,0,0:0:0:0:
168,208,80708,1,0,0:0:0:0:
200,216,80791,1,0,0:0:0:0:
232,224,80875,1,0,0:0:0:0:
56,312,80959,5,0,0:0:0:0:
13,271,81042,1,0,0:0:0:0:
21,223,81125,1,0,0:0:0:0:
69,207,81209,1,0,0:0:0:0:
109,191,81292,1,0,0:0:0:0:
133,143,81375,1,0,0:0:0:0:
101,119,81459,1,0,0:0:0:0:
61,119,81542,1,0,0:0:0:0:
248,48,81625,5,0,0:0:0:0:
291,89,81708,1,0,0:0:0:0:
283,137,81791,1,0,0:0:0:0:
235,153,81875,1,0,0:0:0:0:
195,169,81958,1,0,0:0:0:0:
171,217,82041,1,0,0:0:0:0:
203,241,82125,1,0,0:0:0:0:
243,241,82208,1,0,0:0:0:0:
480,240,82292,6,0,L|480:184,1,45
320,240,82459,2,0,L|272:184,1,45
480,192,82625,2,0,L|480:136,1,45
288,208,82792,2,0,L|248:160,1,45
480,144,82959,2,0,L|480:80,1,45
259,173,83125,2,0,L|216:120,1,45
32,240,83292,6,0,L|32:184,1,45
192,240,83459,2,0,L|240:184,1,45
32,192,83625,2,0,L|32:136,1,45
224,208,83792,2,0,L|256:160,1,45
72,48,83959,5,0,0:0:0:0:
32,65,84042,1,0,0:0:0:0:
26,108,84125,1,0,0:0:0:0:
60,135,84208,1,0,0:0:0:0:
256,136,84292,5,0,0:0:0:0:
312,152,84375,1,0,0:0:0:0:
248,192,84458,1,0,0:0:0:0:
200,160,84542,1,0,0:0:0:0:
376,128,84625,5,0,0:0:0:0:
432,144,84708,1,0,0:0:0:0:
376,184,84791,1,0,0:0:0:0:
320,152,84875,1,0,0:0:0:0:
256,96,85042,5,0,0:0:0:0:
256,96,85209,1,0,0:0:0:0:
256,96,85375,1,0,0:0:0:0:
512,88,85709,1,0,0:0:0:0:
0,96,86042,1,0,0:0:0:0:
256,192,86375,12,0,87209,0:0:0:0:
368,72,87542,6,0,P|472:216|368:344,1,360
135,319,88292,2,0,P|95:271|143:223,1,135
328,320,88625,2,0,P|366:279|320:224,1,135
72,224,89042,2,0,L|136:48,1,180
384,232,89542,2,0,L|446:62,1,180
192,64,90042,5,0,0:0:0:0:
152,64,90125,1,0,0:0:0:0:
112,64,90209,2,0,L|280:64,2,135
408,72,90875,2,0,P|464:160|392:232,1,180
192,216,91375,5,0,0:0:0:0:
144,216,91458,1,0,0:0:0:0:
112,216,91542,2,0,L|256:216,2,135
400,120,92209,6,0,L|265:120,2,135
128,208,92875,2,0,B|264:208|264:208|112:208,1,270
408,296,93542,5,0,0:0:0:0:
288,296,93708,1,0,0:0:0:0:
176,296,93875,2,0,L|384:296,1,180
128,192,94375,5,0,0:0:0:0:
241,193,94542,1,0,0:0:0:0:
120,192,94709,2,0,B|24:192|24:192|120:192,1,180
216,192,95209,1,0,0:0:0:0:
320,192,95375,1,0,0:0:0:0:
88,32,95542,5,0,0:0:0:0:
48,49,95625,1,0,0:0:0:0:
32,88,95708,1,0,0:0:0:0:
48,128,95792,1,0,0:0:0:0:
224,128,95875,5,0,0:0:0:0:
296,128,95958,1,0,0:0:0:0:
360,128,96041,1,0,0:0:0:0:
152,128,96125,5,0,0:0:0:0:
112,145,96208,1,0,0:0:0:0:
96,184,96291,1,0,0:0:0:0:
112,224,96375,1,0,0:0:0:0:
288,224,96458,5,0,0:0:0:0:
360,224,96541,1,0,0:0:0:0:
424,224,96624,1,0,0:0:0:0:
176,336,96709,5,0,0:0:0:0:
104,336,96792,1,0,0:0:0:0:
40,336,96875,1,0,0:0:0:0:
288,296,96959,5,0,0:0:0:0:
360,296,97042,1,0,0:0:0:0:
424,296,97125,1,0,0:0:0:0:
168,232,97209,6,0,L|96:232,1,45
344,232,97375,6,0,L|416:232,1,45
168,232,97542,6,0,L|96:232,1,45
344,232,97709,6,0,L|416:232,1,45
160,168,97875,2,0,L|-16:168,1,135
312,240,98209,6,0,B|472:240|472:240|312:240,1,315
24,136,98875,2,0,L|208:136,2,180
344,136,99709,6,0,L|160:136,1,180
395,220,100209,2,0,B|466:262|466:262|460:327|460:327|349:353,1,225
352,344,100709,1,0,0:0:0:0:
320,344,100792,1,0,0:0:0:0:
96,336,100875,2,0,L|242:336,2,135
357,259,101542,2,0,B|428:257|428:257|471:225|471:225|387:205|387:205|354:205,1,225
208,208,102042,5,0,0:0:0:0:
176,208,102125,1,0,0:0:0:0:
138,209,102209,2,0,L|-6:209,2,135
384,208,102875,6,0,L|249:208,2,135
152,80,103542,2,0,P|48:208|152:344,1,360
416,328,104292,2,0,L|480:176,1,135
256,200,104875,5,0,0:0:0:0:
128,200,105042,1,0,0:0:0:0:
256,200,105209,1,0,0:0:0:0:
32,224,105375,2,0,P|32:136|88:64,1,180
475,228,105875,2,0,L|520:112,1,90
160,104,106209,6,0,B|40:176|40:176|34:304|34:304|99:368|99:368|225:363|225:363|292:293|292:293|288:168|288:168|160:104|160:104|96:368|96:368|267:240|267:240|51:240|51:240|259:240,1,1727.99994726563
464,240,108959,5,0,0:0:0:0:
480,232,109042,1,0,0:0:0:0:
480,208,109125,1,0,0:0:0:0:
464,200,109209,1,0,0:0:0:0:
208,192,109292,6,0,L|144:192,2,45
368,192,109542,2,0,L|432:192,2,45
160,72,109792,2,0,L|96:72,2,45
328,80,110042,5,0,0:0:0:0:
376,80,110125,1,0,0:0:0:0:
424,80,110209,1,0,0:0:0:0:
208,144,110292,1,0,0:0:0:0:
160,144,110375,1,0,0:0:0:0:
112,144,110459,1,0,0:0:0:0:
368,192,110542,5,0,0:0:0:0:
424,232,110625,1,0,0:0:0:0:
424,304,110709,1,0,0:0:0:0:
368,328,110792,1,0,0:0:0:0:
168,264,110875,6,0,L|88:264,1,45
280,264,111042,2,0,L|344:264,1,45
123,264,111209,2,0,L|75:264,1,45
325,264,111375,2,0,L|389:264,1,45
78,264,111542,2,0,L|12:265,1,45
424,64,111709,5,0,0:0:0:0:
456,95,111792,1,0,0:0:0:0:
478,134,111875,1,0,0:0:0:0:
477,173,111958,1,0,0:0:0:0:
448,207,112042,1,0,0:0:0:0:
232,120,112125,5,0,0:0:0:0:
200,151,112208,1,0,0:0:0:0:
178,190,112291,1,0,0:0:0:0:
179,229,112374,1,0,0:0:0:0:
208,263,112458,1,0,0:0:0:0:
256,304,112542,1,0,0:0:0:0:
72,304,112625,5,0,0:0:0:0:
32,256,112709,1,0,0:0:0:0:
80,224,112792,2,0,L|136:200,1,45
320,160,112959,6,0,L|400:160,1,45
200,160,113125,2,0,L|120:160,1,45
400,152,113292,2,0,L|480:152,1,45
120,160,113459,2,0,L|64:160,1,45
299,104,113625,2,0,L|344:104,1,45
64,96,113792,6,0,L|16:96,1,45
352,72,113959,2,0,L|397:72,1,45
168,240,114125,1,0,0:0:0:0:
120,288,114209,2,0,P|64:208|136:152,1,180
176,168,114625,5,0,0:0:0:0:
240,200,114708,1,0,0:0:0:0:
240,272,114791,1,0,0:0:0:0:
184,312,114874,1,0,0:0:0:0:
112,312,114959,5,0,0:0:0:0:
74,289,115042,1,0,0:0:0:0:
56,248,115125,1,0,0:0:0:0:
65,205,115208,1,0,0:0:0:0:
97,175,115292,1,0,0:0:0:0:
368,184,115375,5,0,0:0:0:0:
406,203,115458,1,0,0:0:0:0:
413,246,115541,1,0,0:0:0:0:
383,277,115624,1,0,0:0:0:0:
110,116,115709,6,0,L|56:75,1,45
306,124,115875,2,0,L|360:83,1,45
110,116,116042,2,0,L|56:75,1,45
400,232,116209,5,0,0:0:0:0:
428,265,116292,1,0,0:0:0:0:
427,309,116375,1,0,0:0:0:0:
397,341,116458,1,0,0:0:0:0:
160,328,116542,5,0,0:0:0:0:
117,312,116625,1,0,0:0:0:0:
75,297,116708,1,0,0:0:0:0:
56,264,116791,1,0,0:0:0:0:
288,200,116875,5,0,0:0:0:0:
232,200,116958,1,0,0:0:0:0:
176,200,117041,1,0,0:0:0:0:
408,112,117125,5,0,0:0:0:0:
433,149,117208,1,0,0:0:0:0:
440,192,117291,1,0,0:0:0:0:
411,225,117374,1,0,0:0:0:0:
108,88,117458,5,0,0:0:0:0:
92,123,117541,1,0,0:0:0:0:
124,156,117624,1,0,0:0:0:0:
168,168,117709,1,0,0:0:0:0:
208,164,117792,1,0,0:0:0:0:
416,280,117875,6,0,L|488:272,1,45
212,304,118042,2,0,L|168:308,1,45
416,280,118209,2,0,L|488:272,1,45
212,304,118375,2,0,L|168:308,1,45
360,236,118542,2,0,L|432:212,1,45
113,146,118709,6,0,L|40:99,1,45
260,134,118875,2,0,L|323:108,1,45
79,189,119042,2,0,L|23:160,1,45
289,212,119209,2,0,L|350:168,1,45
77,297,119375,2,0,L|18:269,1,45
328,320,119542,6,0,B|443:300|481:222|481:222|418:128|306:124,1,360
184,312,120875,2,0,B|69:292|31:214|31:214|94:120|206:116,1,360
480,208,122209,6,0,L|113:208,2,360
195,312,124209,6,0,B|80:292|42:214|42:214|105:120|217:116,1,360
320,144,125209,5,0,0:0:0:0:
459,143,125542,1,0,0:0:0:0:
304,208,125875,1,0,0:0:0:0:
160,224,126209,2,0,L|432:224,2,270
24,320,127542,6,0,B|208:320|208:320|64:320|64:320|304:320,1,540
392,320,128709,1,0,0:0:0:0:
512,312,128875,1,0,0:0:0:0:
392,312,129042,1,0,0:0:0:0:
272,320,129209,1,0,0:0:0:0:
400,240,129375,5,0,0:0:0:0:
288,240,129542,1,0,0:0:0:0:
168,232,129709,1,0,0:0:0:0:
400,240,129875,1,0,0:0:0:0:
168,320,130042,1,0,0:0:0:0:
168,320,130875,1,0,0:0:0:0:
