osu file format v14

[General]
AudioFilename: audio.mp3
AudioLeadIn: 0
PreviewTime: 44375
Countdown: 0
SampleSet: Soft
StackLeniency: 0.7
Mode: 3
LetterboxInBreaks: 0
SpecialStyle: 0
WidescreenStoryboard: 1

[Editor]
Bookmarks: 23542,34209,42209,44875,66209,84875,87542,98209,108875,119542,130209
DistanceSpacing: 0.8
BeatDivisor: 4
GridSize: 32
TimelineZoom: 2.4

[Metadata]
Title:Anhedonia
TitleUnicode:Anhedonia
Artist:Silent Spica
ArtistUnicode:Silent Spica
Creator:Arzenvald
Version:Hard
Source:BMS
Tags:a_hisa Spiritual Core BOF2012
BeatmapID:1789447
BeatmapSetID:851158

[Difficulty]
HPDrainRate:8
CircleSize:7
OverallDifficulty:8
ApproachRate:5
SliderMultiplier:1.4
SliderTickRate:1

[Events]
//Background and Video events
0,0,"BG.jpg",0,0
//Break Periods
//Storyboard Layer 0 (Background)
//Storyboard Layer 1 (Fail)
//Storyboard Layer 2 (Pass)
//Storyboard Layer 3 (Foreground)
//Storyboard Sound Samples

[TimingPoints]
12876,333.333333333333,4,2,1,50,1,0
85375,-111.111111111111,4,2,1,50,0,0
85709,-125,4,2,1,50,0,0
86042,-142.857142857143,4,2,1,50,0,0
86209,-166.666666666667,4,2,1,50,0,0
86375,-83.3333333333333,4,2,1,50,0,0
86417,-66.6666666666667,4,2,1,50,0,0
86459,-55.5555555555556,4,2,1,50,0,0
86500,-47.6190476190476,4,2,1,50,0,0
86542,-142.857142857143,4,2,1,50,0,0
86875,-166.666666666667,4,2,1,50,0,0
86917,-200,4,2,1,50,0,0
86959,-250.000000000001,4,2,1,50,0,0
87000,-333.333333333334,4,2,1,50,0,0
87209,-25,4,2,1,50,0,0
87292,-200,4,2,1,50,0,0
87542,-100,4,2,1,50,0,1
108875,-100,4,2,1,50,0,0

[HitObjects]
329,192,1542,128,0,2876:0:0:0:0:
475,192,1542,128,0,3542:0:0:0:0:
256,192,2876,128,0,3542:0:0:0:0:
182,192,3542,128,0,4209:0:0:0:0:
256,192,4209,128,0,5542:0:0:0:0:
402,192,4209,128,0,6209:0:0:0:0:
182,192,5542,128,0,6209:0:0:0:0:
109,192,6209,128,0,6876:0:0:0:0:
256,192,6876,128,0,7542:0:0:0:0:
36,192,6876,128,0,8209:0:0:0:0:
329,192,7542,128,0,8209:0:0:0:0:
402,192,8209,128,0,8876:0:0:0:0:
109,192,8209,128,0,9542:0:0:0:0:
475,192,8876,128,0,9542:0:0:0:0:
182,192,9542,128,0,10542:0:0:0:0:
329,192,9542,128,0,10876:0:0:0:0:
36,192,10542,128,0,12209:0:0:0:0:
182,192,10876,128,0,12209:0:0:0:0:
329,192,11542,128,0,12209:0:0:0:0:
402,192,12876,1,0,0:0:0:0:
256,192,12876,1,0,0:0:0:0:
402,192,13209,1,0,0:0:0:0:
256,192,13709,1,0,0:0:0:0:
256,192,14042,1,0,0:0:0:0:
109,192,14376,1,0,0:0:0:0:
109,192,14709,1,0,0:0:0:0:
402,192,14876,1,0,0:0:0:0:
256,192,14959,1,0,0:0:0:0:
109,192,15042,1,0,0:0:0:0:
402,192,15209,128,0,15542:0:0:0:0:
109,192,15542,1,0,0:0:0:0:
109,192,15876,1,0,0:0:0:0:
256,192,16376,1,0,0:0:0:0:
256,192,16709,1,0,0:0:0:0:
402,192,17042,1,0,0:0:0:0:
402,192,17376,1,0,0:0:0:0:
182,192,17542,1,0,0:0:0:0:
36,192,17626,1,0,0:0:0:0:
475,192,17709,1,0,0:0:0:0:
329,192,17792,1,0,0:0:0:0:
256,192,17876,128,0,18209:0:0:0:0:
402,192,18209,1,0,0:0:0:0:
402,192,18542,1,0,0:0:0:0:
256,192,19042,1,0,0:0:0:0:
256,192,19376,1,0,0:0:0:0:
109,192,19709,1,0,0:0:0:0:
109,192,20042,1,0,0:0:0:0:
402,192,20209,1,0,0:0:0:0:
256,192,20292,1,0,0:0:0:0:
109,192,20376,1,0,0:0:0:0:
402,192,20542,128,0,20876:0:0:0:0:
109,192,20876,1,0,0:0:0:0:
109,192,21209,1,0,0:0:0:0:
256,192,21709,1,0,0:0:0:0:
256,192,22042,1,0,0:0:0:0:
402,192,22376,1,0,0:0:0:0:
402,192,22709,1,0,0:0:0:0:
36,192,22876,1,0,0:0:0:0:
182,192,22959,1,0,0:0:0:0:
475,192,23042,1,0,0:0:0:0:
329,192,23126,1,0,0:0:0:0:
256,192,23209,128,0,23542:0:0:0:0:
36,192,23542,1,0,0:0:0:0:
475,192,23542,1,0,0:0:0:0:
36,192,23876,1,0,0:0:0:0:
475,192,23876,1,0,0:0:0:0:
109,192,24376,1,0,0:0:0:0:
329,192,24376,1,0,0:0:0:0:
329,192,24709,1,0,0:0:0:0:
109,192,24709,1,0,0:0:0:0:
402,192,25042,1,0,0:0:0:0:
182,192,25042,1,0,0:0:0:0:
182,192,25375,1,0,0:0:0:0:
402,192,25375,1,0,0:0:0:0:
475,192,25542,1,0,0:0:0:0:
36,192,25542,1,0,0:0:0:0:
402,192,25625,1,0,0:0:0:0:
329,192,25709,1,0,0:0:0:0:
36,192,25875,1,0,0:0:0:0:
475,192,25875,128,0,26209:0:0:0:0:
182,192,26209,1,0,0:0:0:0:
402,192,26209,1,0,0:0:0:0:
182,192,26542,1,0,0:0:0:0:
402,192,26542,1,0,0:0:0:0:
109,192,27042,1,0,0:0:0:0:
329,192,27042,1,0,0:0:0:0:
329,192,27375,1,0,0:0:0:0:
109,192,27375,1,0,0:0:0:0:
36,192,27709,1,0,0:0:0:0:
182,192,27709,1,0,0:0:0:0:
182,192,28042,1,0,0:0:0:0:
36,192,28042,1,0,0:0:0:0:
475,192,28209,128,0,28375:0:0:0:0:
109,192,28209,1,0,0:0:0:0:
402,192,28375,128,0,28542:0:0:0:0:
329,192,28542,128,0,28709:0:0:0:0:
36,192,28542,1,0,0:0:0:0:
256,192,28709,128,0,28875:0:0:0:0:
182,192,28875,128,0,29042:0:0:0:0:
36,192,28875,1,0,0:0:0:0:
256,192,29042,128,0,29209:0:0:0:0:
329,192,29209,128,0,29375:0:0:0:0:
475,192,29209,1,0,0:0:0:0:
109,192,29375,128,0,29542:0:0:0:0:
256,192,29542,128,0,29709:0:0:0:0:
402,192,29709,128,0,29875:0:0:0:0:
109,192,29709,1,0,0:0:0:0:
402,192,30042,128,0,30209:0:0:0:0:
109,192,30042,1,0,0:0:0:0:
256,192,30375,1,0,0:0:0:0:
182,192,30375,128,0,30709:0:0:0:0:
109,192,30542,128,0,30709:0:0:0:0:
402,192,30709,128,0,31042:0:0:0:0:
329,192,30875,128,0,31042:0:0:0:0:
36,192,31042,128,0,31375:0:0:0:0:
182,192,31209,128,0,31375:0:0:0:0:
256,192,31209,1,0,0:0:0:0:
475,192,31375,128,0,31542:0:0:0:0:
36,192,31542,1,0,0:0:0:0:
182,192,31542,1,0,0:0:0:0:
256,192,31709,1,0,0:0:0:0:
329,192,31875,128,0,32042:0:0:0:0:
182,192,31875,128,0,32042:0:0:0:0:
109,192,32042,128,0,32375:0:0:0:0:
402,192,32042,128,0,32375:0:0:0:0:
475,192,32209,128,0,32375:0:0:0:0:
36,192,32209,128,0,32375:0:0:0:0:
329,192,32542,128,0,32709:0:0:0:0:
256,192,32542,1,0,0:0:0:0:
182,192,32709,128,0,32875:0:0:0:0:
402,192,32875,128,0,33042:0:0:0:0:
329,192,32875,1,0,0:0:0:0:
109,192,33042,128,0,33209:0:0:0:0:
475,192,33209,128,0,33375:0:0:0:0:
402,192,33209,1,0,0:0:0:0:
36,192,33375,128,0,33542:0:0:0:0:
329,192,33542,1,0,0:0:0:0:
402,192,33542,128,0,33709:0:0:0:0:
109,192,33709,128,0,33875:0:0:0:0:
256,192,33875,1,0,0:0:0:0:
329,192,33875,128,0,34042:0:0:0:0:
182,192,34042,128,0,34209:0:0:0:0:
475,192,34209,1,0,0:0:0:0:
329,192,34209,1,0,0:0:0:0:
36,192,34209,128,0,34709:0:0:0:0:
475,192,34542,128,0,34709:0:0:0:0:
182,192,34709,128,0,35209:0:0:0:0:
256,192,34709,1,0,0:0:0:0:
402,192,35042,128,0,35542:0:0:0:0:
109,192,35209,128,0,35542:0:0:0:0:
36,192,35209,1,0,0:0:0:0:
182,192,35542,1,0,0:0:0:0:
329,192,35542,1,0,0:0:0:0:
36,192,35709,128,0,35875:0:0:0:0:
109,192,35875,128,0,36042:0:0:0:0:
182,192,36042,128,0,36209:0:0:0:0:
475,192,36209,128,0,36375:0:0:0:0:
402,192,36375,128,0,36542:0:0:0:0:
36,192,36375,1,0,0:0:0:0:
329,192,36542,128,0,36709:0:0:0:0:
109,192,36542,1,0,0:0:0:0:
256,192,36709,128,0,36875:0:0:0:0:
182,192,36875,1,0,0:0:0:0:
36,192,36875,128,0,37209:0:0:0:0:
329,192,37209,128,0,37709:0:0:0:0:
36,192,37375,128,0,37709:0:0:0:0:
109,192,37375,1,0,0:0:0:0:
182,192,37709,128,0,38209:0:0:0:0:
475,192,37875,128,0,38209:0:0:0:0:
329,192,37875,1,0,0:0:0:0:
109,192,38209,1,0,0:0:0:0:
36,192,38209,1,0,0:0:0:0:
256,192,38375,128,0,38542:0:0:0:0:
329,192,38542,128,0,38709:0:0:0:0:
402,192,38709,128,0,38875:0:0:0:0:
475,192,38875,128,0,39042:0:0:0:0:
182,192,39042,128,0,39542:0:0:0:0:
109,192,39209,128,0,39542:0:0:0:0:
36,192,39375,128,0,39542:0:0:0:0:
329,192,39542,128,0,40042:0:0:0:0:
475,192,39875,128,0,40375:0:0:0:0:
256,192,40042,1,0,0:0:0:0:
182,192,40042,128,0,40542:0:0:0:0:
402,192,40375,128,0,40875:0:0:0:0:
36,192,40542,128,0,40875:0:0:0:0:
109,192,40542,1,0,0:0:0:0:
329,192,40875,1,0,0:0:0:0:
182,192,40875,1,0,0:0:0:0:
256,192,41209,128,0,41375:0:0:0:0:
329,192,41375,128,0,41542:0:0:0:0:
402,192,41542,128,0,41875:0:0:0:0:
36,192,41542,1,0,0:0:0:0:
256,192,41875,1,0,0:0:0:0:
182,192,41959,1,0,0:0:0:0:
256,192,42042,1,0,0:0:0:0:
182,192,42125,1,0,0:0:0:0:
109,192,42209,1,0,0:0:0:0:
36,192,42209,1,0,0:0:0:0:
475,192,42542,1,0,0:0:0:0:
36,192,42709,1,0,0:0:0:0:
109,192,43042,1,0,0:0:0:0:
475,192,43209,1,0,0:0:0:0:
182,192,43875,1,0,0:0:0:0:
256,192,43959,1,0,0:0:0:0:
329,192,44042,1,0,0:0:0:0:
182,192,44209,1,0,0:0:0:0:
329,192,44375,1,0,0:0:0:0:
182,192,44542,1,0,0:0:0:0:
329,192,44709,1,0,0:0:0:0:
36,192,44875,1,0,0:0:0:0:
182,192,44875,1,0,0:0:0:0:
475,192,44875,1,0,0:0:0:0:
402,192,45042,1,0,0:0:0:0:
329,192,45125,1,0,0:0:0:0:
256,192,45209,1,0,0:0:0:0:
182,192,45292,1,0,0:0:0:0:
109,192,45375,1,0,0:0:0:0:
256,192,45542,1,0,0:0:0:0:
329,192,45709,1,0,0:0:0:0:
402,192,45875,1,0,0:0:0:0:
182,192,46042,1,0,0:0:0:0:
109,192,46209,1,0,0:0:0:0:
36,192,46209,1,0,0:0:0:0:
475,192,46375,1,0,0:0:0:0:
402,192,46459,1,0,0:0:0:0:
329,192,46542,1,0,0:0:0:0:
256,192,46709,1,0,0:0:0:0:
36,192,46875,1,0,0:0:0:0:
109,192,46959,1,0,0:0:0:0:
182,192,47042,1,0,0:0:0:0:
36,192,47209,1,0,0:0:0:0:
256,192,47375,1,0,0:0:0:0:
329,192,47431,1,0,0:0:0:0:
402,192,47487,1,0,0:0:0:0:
36,192,47542,1,0,0:0:0:0:
182,192,47542,1,0,0:0:0:0:
256,192,47709,1,0,0:0:0:0:
329,192,47792,1,0,0:0:0:0:
402,192,47875,1,0,0:0:0:0:
36,192,48042,1,0,0:0:0:0:
182,192,48042,1,0,0:0:0:0:
256,192,48209,1,0,0:0:0:0:
329,192,48292,1,0,0:0:0:0:
402,192,48375,1,0,0:0:0:0:
329,192,48542,1,0,0:0:0:0:
182,192,48542,1,0,0:0:0:0:
402,192,48709,1,0,0:0:0:0:
256,192,48709,1,0,0:0:0:0:
475,192,48875,1,0,0:0:0:0:
329,192,48875,1,0,0:0:0:0:
182,192,49042,1,0,0:0:0:0:
109,192,49125,1,0,0:0:0:0:
36,192,49209,1,0,0:0:0:0:
475,192,49292,1,0,0:0:0:0:
402,192,49375,1,0,0:0:0:0:
329,192,49459,1,0,0:0:0:0:
109,192,49709,1,0,0:0:0:0:
182,192,49875,1,0,0:0:0:0:
475,192,50042,1,0,0:0:0:0:
402,192,50209,1,0,0:0:0:0:
256,192,50209,128,0,50459:0:0:0:0:
109,192,50459,128,0,50709:0:0:0:0:
329,192,50709,128,0,50875:0:0:0:0:
475,192,50875,128,0,51209:0:0:0:0:
402,192,51375,1,0,0:0:0:0:
329,192,51459,1,0,0:0:0:0:
256,192,51542,1,0,0:0:0:0:
182,192,51625,1,0,0:0:0:0:
109,192,51709,1,0,0:0:0:0:
36,192,51792,1,0,0:0:0:0:
475,192,51959,1,0,0:0:0:0:
402,192,52042,1,0,0:0:0:0:
329,192,52125,1,0,0:0:0:0:
402,192,52209,1,0,0:0:0:0:
182,192,52375,1,0,0:0:0:0:
256,192,52459,1,0,0:0:0:0:
36,192,52625,1,0,0:0:0:0:
109,192,52709,1,0,0:0:0:0:
475,192,52875,128,0,53209:0:0:0:0:
36,192,53209,1,0,0:0:0:0:
182,192,53375,1,0,0:0:0:0:
256,192,53459,1,0,0:0:0:0:
329,192,53542,1,0,0:0:0:0:
475,192,53709,1,0,0:0:0:0:
402,192,53792,1,0,0:0:0:0:
329,192,53875,1,0,0:0:0:0:
36,192,53959,1,0,0:0:0:0:
109,192,54042,1,0,0:0:0:0:
182,192,54125,1,0,0:0:0:0:
256,192,54209,1,0,0:0:0:0:
182,192,54709,1,0,0:0:0:0:
329,192,54792,1,0,0:0:0:0:
182,192,54875,1,0,0:0:0:0:
256,192,55125,1,0,0:0:0:0:
329,192,55375,1,0,0:0:0:0:
36,192,55542,1,0,0:0:0:0:
475,192,55542,1,0,0:0:0:0:
109,192,55792,1,0,0:0:0:0:
256,192,55792,1,0,0:0:0:0:
256,192,56042,1,0,0:0:0:0:
402,192,56042,1,0,0:0:0:0:
402,192,56209,1,0,0:0:0:0:
109,192,56209,1,0,0:0:0:0:
109,192,56459,1,0,0:0:0:0:
256,192,56459,1,0,0:0:0:0:
329,192,56709,1,0,0:0:0:0:
475,192,56709,1,0,0:0:0:0:
36,192,56875,1,0,0:0:0:0:
475,192,56875,1,0,0:0:0:0:
329,192,57125,1,0,0:0:0:0:
475,192,57125,1,0,0:0:0:0:
36,192,57375,1,0,0:0:0:0:
182,192,57375,1,0,0:0:0:0:
36,192,57542,1,0,0:0:0:0:
329,192,57542,1,0,0:0:0:0:
36,192,57709,1,0,0:0:0:0:
182,192,57709,1,0,0:0:0:0:
475,192,57875,1,0,0:0:0:0:
329,192,57875,1,0,0:0:0:0:
182,192,58042,1,0,0:0:0:0:
329,192,58042,1,0,0:0:0:0:
182,192,58209,1,0,0:0:0:0:
36,192,58209,1,0,0:0:0:0:
402,192,58625,1,0,0:0:0:0:
329,192,58709,1,0,0:0:0:0:
109,192,58792,1,0,0:0:0:0:
182,192,58875,1,0,0:0:0:0:
256,192,58875,1,0,0:0:0:0:
329,192,59042,1,0,0:0:0:0:
402,192,59125,1,0,0:0:0:0:
475,192,59125,1,0,0:0:0:0:
36,192,59292,1,0,0:0:0:0:
109,192,59375,1,0,0:0:0:0:
182,192,59375,1,0,0:0:0:0:
475,192,59542,1,0,0:0:0:0:
402,192,59542,1,0,0:0:0:0:
256,192,59709,1,0,0:0:0:0:
182,192,59875,1,0,0:0:0:0:
109,192,59875,1,0,0:0:0:0:
402,192,60042,1,0,0:0:0:0:
329,192,60209,1,0,0:0:0:0:
256,192,60209,1,0,0:0:0:0:
36,192,60375,1,0,0:0:0:0:
109,192,60542,1,0,0:0:0:0:
182,192,60542,1,0,0:0:0:0:
402,192,60875,1,0,0:0:0:0:
256,192,60875,1,0,0:0:0:0:
36,192,61042,1,0,0:0:0:0:
109,192,61125,1,0,0:0:0:0:
182,192,61209,1,0,0:0:0:0:
256,192,61292,1,0,0:0:0:0:
329,192,61375,1,0,0:0:0:0:
402,192,61459,1,0,0:0:0:0:
475,192,61542,1,0,0:0:0:0:
402,192,61792,1,0,0:0:0:0:
329,192,62042,1,0,0:0:0:0:
182,192,62209,1,0,0:0:0:0:
256,192,62292,1,0,0:0:0:0:
182,192,62375,1,0,0:0:0:0:
109,192,62459,1,0,0:0:0:0:
402,192,62542,1,0,0:0:0:0:
256,192,62709,1,0,0:0:0:0:
109,192,62875,1,0,0:0:0:0:
182,192,62959,1,0,0:0:0:0:
256,192,63042,1,0,0:0:0:0:
329,192,63125,1,0,0:0:0:0:
402,192,63209,1,0,0:0:0:0:
256,192,63375,1,0,0:0:0:0:
109,192,63542,1,0,0:0:0:0:
109,192,63709,1,0,0:0:0:0:
256,192,63792,1,0,0:0:0:0:
256,192,63959,1,0,0:0:0:0:
402,192,64042,1,0,0:0:0:0:
256,192,64125,1,0,0:0:0:0:
182,192,64209,1,0,0:0:0:0:
182,192,64375,1,0,0:0:0:0:
329,192,64459,1,0,0:0:0:0:
329,192,64625,1,0,0:0:0:0:
475,192,64709,1,0,0:0:0:0:
36,192,64875,1,0,0:0:0:0:
475,192,64875,1,0,0:0:0:0:
402,192,65042,1,0,0:0:0:0:
329,192,65125,1,0,0:0:0:0:
109,192,65209,1,0,0:0:0:0:
182,192,65292,1,0,0:0:0:0:
402,192,65375,1,0,0:0:0:0:
329,192,65459,1,0,0:0:0:0:
256,192,65542,1,0,0:0:0:0:
182,192,65709,1,0,0:0:0:0:
109,192,65875,1,0,0:0:0:0:
36,192,66042,1,0,0:0:0:0:
402,192,66209,128,0,66875:0:0:0:0:
109,192,66375,1,0,0:0:0:0:
182,192,66542,1,0,0:0:0:0:
36,192,66709,1,0,0:0:0:0:
109,192,66875,128,0,67542:0:0:0:0:
329,192,67042,1,0,0:0:0:0:
402,192,67209,1,0,0:0:0:0:
256,192,67375,1,0,0:0:0:0:
329,192,67542,128,0,68209:0:0:0:0:
36,192,67709,1,0,0:0:0:0:
182,192,67875,1,0,0:0:0:0:
475,192,68209,128,0,68875:0:0:0:0:
36,192,68375,1,0,0:0:0:0:
182,192,68542,1,0,0:0:0:0:
36,192,68875,128,0,70209:0:0:0:0:
256,192,68875,1,0,0:0:0:0:
329,192,69042,1,0,0:0:0:0:
475,192,69209,1,0,0:0:0:0:
329,192,69375,1,0,0:0:0:0:
256,192,69542,1,0,0:0:0:0:
329,192,69709,1,0,0:0:0:0:
475,192,69875,1,0,0:0:0:0:
329,192,70042,1,0,0:0:0:0:
256,192,70209,128,0,71542:0:0:0:0:
329,192,70375,1,0,0:0:0:0:
475,192,70542,1,0,0:0:0:0:
329,192,70875,1,0,0:0:0:0:
475,192,71209,1,0,0:0:0:0:
109,192,71542,128,0,72875:0:0:0:0:
475,192,71709,1,0,0:0:0:0:
402,192,71875,1,0,0:0:0:0:
329,192,72042,1,0,0:0:0:0:
402,192,72209,1,0,0:0:0:0:
329,192,72375,1,0,0:0:0:0:
256,192,72542,1,0,0:0:0:0:
402,192,72875,128,0,74209:0:0:0:0:
36,192,73042,1,0,0:0:0:0:
109,192,73209,1,0,0:0:0:0:
182,192,73375,1,0,0:0:0:0:
109,192,73542,1,0,0:0:0:0:
182,192,73709,1,0,0:0:0:0:
256,192,73875,1,0,0:0:0:0:
182,192,74209,128,0,75542:0:0:0:0:
329,192,74375,1,0,0:0:0:0:
402,192,74542,1,0,0:0:0:0:
475,192,74709,1,0,0:0:0:0:
402,192,75042,1,0,0:0:0:0:
256,192,75209,1,0,0:0:0:0:
329,192,75542,128,0,76875:0:0:0:0:
256,192,75709,1,0,0:0:0:0:
109,192,75875,1,0,0:0:0:0:
256,192,76042,1,0,0:0:0:0:
182,192,76209,1,0,0:0:0:0:
109,192,76375,1,0,0:0:0:0:
36,192,76542,1,0,0:0:0:0:
109,192,76709,1,0,0:0:0:0:
182,192,76875,1,0,0:0:0:0:
256,192,76875,128,0,78209:0:0:0:0:
109,192,77375,1,0,0:0:0:0:
182,192,77375,1,0,0:0:0:0:
109,192,77542,1,0,0:0:0:0:
182,192,77542,1,0,0:0:0:0:
329,192,77542,1,0,0:0:0:0:
402,192,77542,1,0,0:0:0:0:
475,192,78209,1,0,0:0:0:0:
402,192,78292,1,0,0:0:0:0:
329,192,78375,1,0,0:0:0:0:
256,192,78459,1,0,0:0:0:0:
182,192,78542,1,0,0:0:0:0:
109,192,78625,1,0,0:0:0:0:
402,192,78709,1,0,0:0:0:0:
329,192,78792,1,0,0:0:0:0:
256,192,78875,1,0,0:0:0:0:
182,192,78959,1,0,0:0:0:0:
109,192,79042,1,0,0:0:0:0:
36,192,79125,1,0,0:0:0:0:
329,192,79209,1,0,0:0:0:0:
256,192,79292,1,0,0:0:0:0:
182,192,79375,1,0,0:0:0:0:
109,192,79459,1,0,0:0:0:0:
36,192,79542,128,0,80875:0:0:0:0:
109,192,80042,1,0,0:0:0:0:
182,192,80042,1,0,0:0:0:0:
109,192,80209,1,0,0:0:0:0:
182,192,80209,1,0,0:0:0:0:
329,192,80209,1,0,0:0:0:0:
402,192,80209,1,0,0:0:0:0:
475,192,80209,128,0,80875:0:0:0:0:
256,192,80875,1,0,0:0:0:0:
329,192,80959,1,0,0:0:0:0:
402,192,81042,1,0,0:0:0:0:
329,192,81125,1,0,0:0:0:0:
109,192,81209,1,0,0:0:0:0:
182,192,81292,1,0,0:0:0:0:
109,192,81375,1,0,0:0:0:0:
36,192,81459,1,0,0:0:0:0:
402,192,81542,1,0,0:0:0:0:
329,192,81625,1,0,0:0:0:0:
402,192,81709,1,0,0:0:0:0:
475,192,81792,1,0,0:0:0:0:
256,192,81875,1,0,0:0:0:0:
182,192,81959,1,0,0:0:0:0:
109,192,82042,1,0,0:0:0:0:
182,192,82125,1,0,0:0:0:0:
329,192,82209,1,0,0:0:0:0:
36,192,82375,1,0,0:0:0:0:
109,192,82459,1,0,0:0:0:0:
182,192,82542,1,0,0:0:0:0:
256,192,82625,1,0,0:0:0:0:
329,192,82709,1,0,0:0:0:0:
402,192,82792,1,0,0:0:0:0:
475,192,82875,1,0,0:0:0:0:
329,192,82959,1,0,0:0:0:0:
182,192,83042,1,0,0:0:0:0:
36,192,83125,1,0,0:0:0:0:
475,192,83209,1,0,0:0:0:0:
329,192,83292,1,0,0:0:0:0:
182,192,83375,1,0,0:0:0:0:
36,192,83459,1,0,0:0:0:0:
475,192,83542,1,0,0:0:0:0:
256,192,83792,1,0,0:0:0:0:
36,192,84042,1,0,0:0:0:0:
402,192,84209,1,0,0:0:0:0:
256,192,84459,1,0,0:0:0:0:
109,192,84709,1,0,0:0:0:0:
329,192,84875,128,0,84959:0:0:0:0:
256,192,85042,128,0,85125:0:0:0:0:
182,192,85209,128,0,85292:0:0:0:0:
329,192,85375,128,0,85709:0:0:0:0:
256,192,85709,128,0,86042:0:0:0:0:
182,192,86042,1,0,0:0:0:0:
182,192,87209,1,0,0:0:0:0:
256,192,87209,1,0,0:0:0:0:
329,192,87209,1,0,0:0:0:0:
36,192,87542,1,0,0:0:0:0:
109,192,87542,1,0,0:0:0:0:
402,192,87542,1,0,0:0:0:0:
475,192,87542,1,0,0:0:0:0:
256,192,87542,1,0,0:0:0:0:
475,192,87875,1,0,0:0:0:0:
329,192,87875,1,0,0:0:0:0:
256,192,88042,1,0,0:0:0:0:
182,192,88209,128,0,88542:0:0:0:0:
475,192,88375,1,0,0:0:0:0:
329,192,88375,1,0,0:0:0:0:
109,192,88542,128,0,88875:0:0:0:0:
256,192,88542,1,0,0:0:0:0:
36,192,88875,128,0,89125:0:0:0:0:
329,192,88875,128,0,89125:0:0:0:0:
109,192,89125,128,0,89375:0:0:0:0:
402,192,89125,128,0,89375:0:0:0:0:
182,192,89375,1,0,0:0:0:0:
475,192,89375,1,0,0:0:0:0:
182,192,89542,128,0,89875:0:0:0:0:
475,192,89542,128,0,89875:0:0:0:0:
329,192,89709,1,0,0:0:0:0:
256,192,89875,1,0,0:0:0:0:
109,192,90042,1,0,0:0:0:0:
256,192,90125,1,0,0:0:0:0:
402,192,90209,1,0,0:0:0:0:
475,192,90209,128,0,90459:0:0:0:0:
256,192,90459,1,0,0:0:0:0:
329,192,90459,128,0,90709:0:0:0:0:
109,192,90709,1,0,0:0:0:0:
182,192,90709,128,0,91209:0:0:0:0:
36,192,90875,128,0,91209:0:0:0:0:
402,192,91042,1,0,0:0:0:0:
329,192,91209,1,0,0:0:0:0:
36,192,91375,1,0,0:0:0:0:
109,192,91459,1,0,0:0:0:0:
182,192,91542,1,0,0:0:0:0:
475,192,91542,128,0,91792:0:0:0:0:
36,192,91792,1,0,0:0:0:0:
402,192,91792,128,0,92042:0:0:0:0:
329,192,92042,1,0,0:0:0:0:
109,192,92042,128,0,92209:0:0:0:0:
182,192,92209,1,0,0:0:0:0:
402,192,92209,128,0,92459:0:0:0:0:
109,192,92459,128,0,92709:0:0:0:0:
475,192,92459,1,0,0:0:0:0:
36,192,92709,128,0,92875:0:0:0:0:
329,192,92709,1,0,0:0:0:0:
109,192,92875,128,0,93542:0:0:0:0:
475,192,92875,1,0,0:0:0:0:
402,192,93209,1,0,0:0:0:0:
256,192,93375,1,0,0:0:0:0:
402,192,93542,128,0,93875:0:0:0:0:
182,192,93709,1,0,0:0:0:0:
329,192,93875,128,0,94209:0:0:0:0:
36,192,93875,1,0,0:0:0:0:
256,192,94209,128,0,94375:0:0:0:0:
402,192,94375,128,0,94875:0:0:0:0:
256,192,94542,128,0,94875:0:0:0:0:
109,192,94709,128,0,94875:0:0:0:0:
36,192,95042,128,0,97875:0:0:0:0:
182,192,95209,128,0,97875:0:0:0:0:
475,192,95375,128,0,97875:0:0:0:0:
329,192,95542,128,0,97875:0:0:0:0:
402,192,95875,1,0,0:0:0:0:
256,192,96042,1,0,0:0:0:0:
402,192,96375,1,0,0:0:0:0:
256,192,96542,1,0,0:0:0:0:
109,192,96875,1,0,0:0:0:0:
402,192,97209,1,0,0:0:0:0:
256,192,97375,1,0,0:0:0:0:
402,192,97709,1,0,0:0:0:0:
256,192,97875,1,0,0:0:0:0:
109,192,98209,1,0,0:0:0:0:
402,192,98209,1,0,0:0:0:0:
475,192,98209,128,0,98875:0:0:0:0:
329,192,98542,1,0,0:0:0:0:
36,192,98709,1,0,0:0:0:0:
402,192,98875,128,0,99209:0:0:0:0:
329,192,99042,1,0,0:0:0:0:
36,192,99209,1,0,0:0:0:0:
475,192,99209,128,0,99542:0:0:0:0:
109,192,99542,1,0,0:0:0:0:
256,192,99542,1,0,0:0:0:0:
182,192,99792,1,0,0:0:0:0:
329,192,99792,1,0,0:0:0:0:
329,192,100042,1,0,0:0:0:0:
475,192,100042,1,0,0:0:0:0:
329,192,100209,128,0,100542:0:0:0:0:
475,192,100209,128,0,100542:0:0:0:0:
182,192,100375,1,0,0:0:0:0:
36,192,100542,1,0,0:0:0:0:
329,192,100709,1,0,0:0:0:0:
402,192,100792,1,0,0:0:0:0:
475,192,100875,1,0,0:0:0:0:
256,192,100875,128,0,101125:0:0:0:0:
182,192,101125,128,0,101375:0:0:0:0:
475,192,101209,1,0,0:0:0:0:
109,192,101375,128,0,101542:0:0:0:0:
329,192,101375,1,0,0:0:0:0:
36,192,101542,128,0,101875:0:0:0:0:
475,192,101709,1,0,0:0:0:0:
329,192,101875,1,0,0:0:0:0:
36,192,102042,1,0,0:0:0:0:
109,192,102125,1,0,0:0:0:0:
182,192,102209,1,0,0:0:0:0:
256,192,102209,128,0,102459:0:0:0:0:
329,192,102459,128,0,102709:0:0:0:0:
475,192,102542,1,0,0:0:0:0:
256,192,102709,128,0,102875:0:0:0:0:
36,192,102709,1,0,0:0:0:0:
182,192,102875,128,0,103125:0:0:0:0:
475,192,103042,1,0,0:0:0:0:
256,192,103125,128,0,103375:0:0:0:0:
36,192,103209,1,0,0:0:0:0:
182,192,103375,128,0,103542:0:0:0:0:
402,192,103542,1,0,0:0:0:0:
109,192,103542,128,0,104209:0:0:0:0:
475,192,103875,1,0,0:0:0:0:
256,192,104042,1,0,0:0:0:0:
36,192,104209,128,0,104542:0:0:0:0:
475,192,104375,1,0,0:0:0:0:
256,192,104542,1,0,0:0:0:0:
109,192,104542,128,0,104875:0:0:0:0:
182,192,104875,1,0,0:0:0:0:
329,192,104875,1,0,0:0:0:0:
402,192,105042,1,0,0:0:0:0:
256,192,105042,1,0,0:0:0:0:
182,192,105209,1,0,0:0:0:0:
329,192,105209,1,0,0:0:0:0:
256,192,105375,1,0,0:0:0:0:
109,192,105375,128,0,105709:0:0:0:0:
36,192,105709,1,0,0:0:0:0:
182,192,105709,1,0,0:0:0:0:
256,192,105875,1,0,0:0:0:0:
109,192,105875,1,0,0:0:0:0:
329,192,106042,1,0,0:0:0:0:
475,192,106042,1,0,0:0:0:0:
256,192,106209,1,0,0:0:0:0:
402,192,106209,128,0,108875:0:0:0:0:
182,192,106542,1,0,0:0:0:0:
36,192,106542,1,0,0:0:0:0:
109,192,106709,1,0,0:0:0:0:
182,192,107042,1,0,0:0:0:0:
36,192,107042,1,0,0:0:0:0:
109,192,107209,1,0,0:0:0:0:
182,192,107292,1,0,0:0:0:0:
256,192,107375,1,0,0:0:0:0:
182,192,107459,1,0,0:0:0:0:
109,192,107542,1,0,0:0:0:0:
36,192,107709,1,0,0:0:0:0:
109,192,107792,1,0,0:0:0:0:
182,192,107875,1,0,0:0:0:0:
109,192,108042,1,0,0:0:0:0:
36,192,108209,1,0,0:0:0:0:
109,192,108292,1,0,0:0:0:0:
182,192,108375,1,0,0:0:0:0:
329,192,108542,128,0,108875:0:0:0:0:
36,192,108875,128,0,109042:0:0:0:0:
109,192,109042,128,0,109209:0:0:0:0:
182,192,109209,128,0,109375:0:0:0:0:
256,192,109375,1,0,0:0:0:0:
329,192,109459,1,0,0:0:0:0:
475,192,109542,1,0,0:0:0:0:
402,192,109625,1,0,0:0:0:0:
329,192,109709,1,0,0:0:0:0:
256,192,109792,1,0,0:0:0:0:
36,192,109875,1,0,0:0:0:0:
109,192,109959,1,0,0:0:0:0:
182,192,110042,1,0,0:0:0:0:
256,192,110125,1,0,0:0:0:0:
329,192,110209,128,0,110375:0:0:0:0:
256,192,110375,128,0,110542:0:0:0:0:
109,192,110542,128,0,110709:0:0:0:0:
182,192,110709,1,0,0:0:0:0:
256,192,110792,1,0,0:0:0:0:
475,192,110875,1,0,0:0:0:0:
402,192,110959,1,0,0:0:0:0:
329,192,111042,1,0,0:0:0:0:
36,192,111125,1,0,0:0:0:0:
109,192,111209,1,0,0:0:0:0:
182,192,111292,1,0,0:0:0:0:
329,192,111375,1,0,0:0:0:0:
402,192,111459,1,0,0:0:0:0:
475,192,111542,128,0,111709:0:0:0:0:
329,192,111709,128,0,111875:0:0:0:0:
182,192,111875,128,0,112042:0:0:0:0:
475,192,112042,1,0,0:0:0:0:
402,192,112125,1,0,0:0:0:0:
329,192,112209,1,0,0:0:0:0:
256,192,112292,1,0,0:0:0:0:
182,192,112375,1,0,0:0:0:0:
109,192,112459,1,0,0:0:0:0:
182,192,112542,1,0,0:0:0:0:
256,192,112625,1,0,0:0:0:0:
329,192,112709,1,0,0:0:0:0:
402,192,112792,1,0,0:0:0:0:
475,192,112875,128,0,112959:0:0:0:0:
402,192,113042,128,0,113125:0:0:0:0:
329,192,113209,128,0,113292:0:0:0:0:
256,192,113375,128,0,113459:0:0:0:0:
182,192,113542,128,0,113625:0:0:0:0:
109,192,113709,128,0,113792:0:0:0:0:
182,192,113875,128,0,113959:0:0:0:0:
109,192,114042,128,0,114125:0:0:0:0:
36,192,114209,128,0,114375:0:0:0:0:
109,192,114375,128,0,114542:0:0:0:0:
182,192,114542,1,0,0:0:0:0:
256,192,114625,1,0,0:0:0:0:
329,192,114709,1,0,0:0:0:0:
402,192,114792,1,0,0:0:0:0:
109,192,114875,128,0,115042:0:0:0:0:
182,192,115042,128,0,115209:0:0:0:0:
256,192,115209,1,0,0:0:0:0:
329,192,115292,1,0,0:0:0:0:
402,192,115375,1,0,0:0:0:0:
475,192,115459,1,0,0:0:0:0:
256,192,115542,1,0,0:0:0:0:
182,192,115625,1,0,0:0:0:0:
109,192,115709,1,0,0:0:0:0:
36,192,115792,1,0,0:0:0:0:
329,192,115875,1,0,0:0:0:0:
256,192,115959,1,0,0:0:0:0:
182,192,116042,1,0,0:0:0:0:
109,192,116125,1,0,0:0:0:0:
402,192,116209,1,0,0:0:0:0:
329,192,116292,1,0,0:0:0:0:
256,192,116375,1,0,0:0:0:0:
182,192,116459,1,0,0:0:0:0:
475,192,116542,1,0,0:0:0:0:
402,192,116625,1,0,0:0:0:0:
329,192,116709,1,0,0:0:0:0:
256,192,116792,1,0,0:0:0:0:
36,192,116875,128,0,117042:0:0:0:0:
109,192,117042,128,0,117209:0:0:0:0:
182,192,117209,128,0,117375:0:0:0:0:
256,192,117375,128,0,117542:0:0:0:0:
402,192,117542,1,0,0:0:0:0:
475,192,117625,1,0,0:0:0:0:
402,192,117709,1,0,0:0:0:0:
329,192,117792,1,0,0:0:0:0:
256,192,117875,1,0,0:0:0:0:
182,192,117959,1,0,0:0:0:0:
109,192,118042,1,0,0:0:0:0:
36,192,118125,1,0,0:0:0:0:
109,192,118209,1,0,0:0:0:0:
475,192,118375,1,0,0:0:0:0:
402,192,118459,1,0,0:0:0:0:
329,192,118542,1,0,0:0:0:0:
329,192,118709,1,0,0:0:0:0:
256,192,118792,1,0,0:0:0:0:
182,192,118875,1,0,0:0:0:0:
182,192,119042,1,0,0:0:0:0:
109,192,119125,1,0,0:0:0:0:
36,192,119209,1,0,0:0:0:0:
36,192,119542,1,0,0:0:0:0:
182,192,119542,1,0,0:0:0:0:
329,192,119542,1,0,0:0:0:0:
475,192,119542,1,0,0:0:0:0:
109,192,120375,128,0,120542:0:0:0:0:
182,192,120542,128,0,120709:0:0:0:0:
256,192,120709,128,0,120875:0:0:0:0:
329,192,120875,128,0,121042:0:0:0:0:
182,192,121542,128,0,121709:0:0:0:0:
256,192,121709,128,0,121875:0:0:0:0:
329,192,121875,128,0,122042:0:0:0:0:
402,192,122042,128,0,122209:0:0:0:0:
182,192,122209,128,0,122375:0:0:0:0:
109,192,123042,128,0,123209:0:0:0:0:
182,192,123209,128,0,123375:0:0:0:0:
475,192,123542,128,0,123709:0:0:0:0:
256,192,123709,128,0,123875:0:0:0:0:
402,192,123875,128,0,124042:0:0:0:0:
182,192,124042,128,0,124209:0:0:0:0:
329,192,124209,128,0,124375:0:0:0:0:
109,192,124375,128,0,124542:0:0:0:0:
256,192,124542,128,0,124709:0:0:0:0:
36,192,124709,128,0,124875:0:0:0:0:
256,192,124875,128,0,126209:0:0:0:0:
109,192,125709,1,0,0:0:0:0:
182,192,125875,1,0,0:0:0:0:
329,192,126042,1,0,0:0:0:0:
402,192,126209,128,0,126709:0:0:0:0:
329,192,126709,128,0,127209:0:0:0:0:
256,192,127209,128,0,130209:0:0:0:0:
36,192,127542,128,0,130209:0:0:0:0:
475,192,127542,128,0,130209:0:0:0:0:
109,192,128542,1,0,0:0:0:0:
182,192,128709,1,0,0:0:0:0:
402,192,128875,1,0,0:0:0:0:
329,192,129042,1,0,0:0:0:0:
182,192,129209,1,0,0:0:0:0:
109,192,129375,1,0,0:0:0:0:
402,192,129542,1,0,0:0:0:0:
329,192,129709,1,0,0:0:0:0:
109,192,129875,1,0,0:0:0:0:
182,192,130042,1,0,0:0:0:0:
256,192,130875,1,0,0:0:0:0:
