osu file format v14

[General]
AudioFilename: audio.mp3
AudioLeadIn: 0
PreviewTime: 80226
Countdown: 0
SampleSet: Soft
StackLeniency: 0.7
Mode: 0
LetterboxInBreaks: 0
WidescreenStoryboard: 0

[Editor]
Bookmarks: 131302,136202
DistanceSpacing: 1.4
BeatDivisor: 4
GridSize: 32
TimelineZoom: 1.1

[Metadata]
Title:stella*
TitleUnicode:stella☆
Artist:Silent Siren
ArtistUnicode:サイレントサイレン
Creator:[ Arika ]
Version:Insane
Source:
Tags:start O-Moei ekafjr Mako Sakata
BeatmapID:1075226
BeatmapSetID:505444

[Difficulty]
HPDrainRate:5
CircleSize:4
OverallDifficulty:7
ApproachRate:8.5
SliderMultiplier:1.6
SliderTickRate:1

[Events]
//Background and Video events
0,0,"699743.jpg",0,0
//Break Periods
2,131313,135527
//Storyboard Layer 0 (Background)
//Storyboard Layer 1 (Fail)
//Storyboard Layer 2 (Pass)
//Storyboard Layer 3 (Foreground)
//Storyboard Sound Samples

[TimingPoints]
2189,379.746835443038,4,2,0,70,1,0
8264,-90.9090909090909,4,2,0,70,0,0
14340,-100,4,2,0,70,0,0
20416,-90.9090909090909,4,2,0,70,0,0
26492,-100,4,2,0,70,0,0
44720,-90.9090909090909,4,2,0,70,0,0
56872,-133.333333333333,4,2,0,70,0,0
69024,-100,4,2,0,70,0,0
80226,-133.333333333333,4,2,0,70,0,0
80606,-117.647058823529,4,2,0,70,0,0
81176,-86.9565217391302,4,2,0,70,0,1
92948,-86.9565217391302,4,2,0,70,0,0
93328,-86.9565217391302,4,2,0,70,0,1
102442,-86.9565217391302,4,2,0,70,0,0
113075,-100,4,2,0,70,0,0
125226,-133.333333333333,4,2,0,70,0,0
136202,379.746835443038,4,2,1,70,1,0
136202,-90.9090909090909,4,2,1,70,0,0

[HitObjects]
201,94,2189,6,0,P|162:101|131:135,2,80
349,154,2948,2,0,P|271:186|182:156,1,160
129,206,3518,6,0,L|135:308,1,80
188,353,3897,2,0,P|215:320|218:277,1,80
129,206,4277,2,0,P|89:211|59:237,1,80
134,287,4657,2,0,L|121:109,1,160
153,53,5226,6,0,P|110:47|73:62,1,80
10,141,5606,1,0,0:0:0:0:
222,109,5986,2,0,B|252:71|237:16|237:16|268:21|296:56,1,160
312,124,6556,6,0,P|286:164|248:193,1,80
181,179,6935,1,0,0:0:0:0:
153,53,7125,1,0,0:0:0:0:
188,208,7315,2,0,P|244:260|328:230,1,160
390,161,7886,1,0,0:0:0:0:
398,135,7980,1,0,0:0:0:0:
397,107,8075,1,0,0:0:0:0:
388,81,8170,1,0,0:0:0:0:
371,58,8264,6,0,P|415:57|468:26,1,88.000002685547
312,124,8644,1,0,0:0:0:0:
487,143,8834,1,0,0:0:0:0:
418,254,9024,2,0,B|426:300|426:300|412:363,1,88.000002685547
306,375,9404,1,0,0:0:0:0:
342,299,9594,2,0,B|258:275|259:337|158:295,1,176.000005371094
96,251,10163,5,0,0:0:0:0:
214,226,10353,1,0,0:0:0:0:
193,141,10543,2,0,P|207:181|214:241,1,88.000002685547
96,251,10923,2,0,P|82:211|75:151,1,88.000002685547
119,89,11302,6,0,P|192:49|271:89,1,176.000005371094
311,164,11872,1,0,0:0:0:0:
193,141,12062,1,0,0:0:0:0:
269,86,12252,2,0,L|369:75,1,88.000002685547
475,115,12632,2,0,B|418:123|418:123|374:154|374:154|296:165,1,176.000005371094
217,246,13201,5,0,0:0:0:0:
193,141,13391,1,0,0:0:0:0:
283,324,13581,1,0,0:0:0:0:
316,235,13771,1,0,0:0:0:0:
217,246,13961,1,0,0:0:0:0:
186,248,14055,1,0,0:0:0:0:
155,251,14150,1,0,0:0:0:0:
125,254,14245,1,0,0:0:0:0:
94,257,14340,6,0,P|58:226|45:169,2,80
113,22,15100,2,0,B|145:104|95:105|135:191,1,160
194,131,15670,6,0,P|229:121|271:82,1,80
113,22,16049,2,0,P|78:32|36:71,1,80
37,165,16429,2,0,P|61:240|132:279,1,160
220,323,16999,1,0,0:0:0:0:
129,178,17189,1,0,0:0:0:0:
225,222,17378,6,0,L|295:183,2,80
48,138,18138,2,0,P|110:92|185:111,1,160
145,256,18707,6,0,L|128:176,1,80
101,50,19087,1,0,0:0:0:0:
245,39,19277,1,0,0:0:0:0:
128,177,19467,2,0,B|84:200|84:200|55:198|55:198|6:236,1,120
23,263,19847,1,0,0:0:0:0:
220,323,20037,1,0,0:0:0:0:
220,323,20416,6,0,P|243:282|248:231,1,88.000002685547
221,139,20796,1,0,0:0:0:0:
152,213,20986,2,0,L|121:168,2,44.0000013427735
257,220,21366,1,0,0:0:0:0:
243,115,21556,2,0,P|235:65|212:16,1,88.000002685547
104,92,21935,6,0,P|112:142|135:191,1,88.000002685547
75,269,22315,1,0,0:0:0:0:
179,252,22505,2,0,P|201:227|216:191,2,44.0000013427735
130,346,22885,1,0,0:0:0:0:
231,316,23075,2,0,P|261:285|291:228,1,88.000002685547
256,144,23454,6,0,B|339:128|338:181|451:131,1,176.000005371094
373,59,24024,1,0,0:0:0:0:
373,59,24214,1,0,0:0:0:0:
295,225,24404,1,0,0:0:0:0:
256,144,24594,1,0,0:0:0:0:
220,64,24783,1,0,0:0:0:0:
220,64,24878,1,0,0:0:0:0:
220,64,24973,6,0,P|188:93|172:138,1,88.000002685547
154,229,25353,2,0,P|101:277|19:289,1,132.00000402832
1,276,25733,5,0,0:0:0:0:
46,144,25923,1,0,0:0:0:0:
166,182,26113,1,0,0:0:0:0:
196,179,26207,1,0,0:0:0:0:
227,183,26302,1,0,0:0:0:0:
256,194,26397,1,0,0:0:0:0:
282,209,26492,6,0,P|321:212|363:188,2,80
393,93,27252,2,0,P|450:132|465:223,1,160
398,273,27821,6,0,P|395:315|408:370,1,80
505,361,28201,2,0,P|465:367|425:364,1,80
312,316,28581,1,0,0:0:0:0:
216,172,28771,1,0,0:0:0:0:
226,342,28961,1,0,0:0:0:0:
314,223,29151,1,0,0:0:0:0:
161,271,29340,1,0,0:0:0:0:
161,271,29530,6,0,P|120:279|83:272,1,80
137,172,29910,2,0,P|178:164|215:171,1,80
54,186,30290,2,0,P|75:116|153:82,1,160
137,172,30859,6,0,L|159:253,1,80
217,330,31239,2,0,P|256:342|295:328,1,80
354,249,31619,2,0,L|375:172,1,80
450,146,31999,1,0,0:0:0:0:
403,67,32189,1,0,0:0:0:0:
319,112,32378,1,0,0:0:0:0:
309,102,32473,1,0,0:0:0:0:
299,93,32568,6,0,P|247:117|174:109,1,120
152,98,32948,1,0,0:0:0:0:
103,195,33138,1,0,0:0:0:0:
68,62,33328,2,0,P|93:29|137:12,2,80
35,143,33897,1,0,0:0:0:0:
103,195,34087,6,0,B|89:281|89:281|68:315,1,120
47,336,34467,1,0,0:0:0:0:
143,367,34657,1,0,0:0:0:0:
169,269,34847,2,0,L|184:164,2,80
256,308,35416,1,0,0:0:0:0:
339,260,35606,6,0,B|325:174|325:174|304:140,1,120
283,119,35986,1,0,0:0:0:0:
355,56,36176,2,0,P|395:47|438:53,1,80
402,142,36556,1,0,0:0:0:0:
495,186,36745,2,0,P|499:146|490:107,1,80
402,142,37125,6,0,B|390:202|416:253|416:253|394:271|383:304,1,160
477,328,37695,1,0,0:0:0:0:
388,365,37885,2,0,P|347:352|317:317,1,80
309,230,38264,1,0,0:0:0:0:
297,345,38454,1,0,0:0:0:0:
294,206,38644,6,0,P|294:162|299:122,2,80
230,278,39214,2,0,P|166:254|149:328,1,160
229,374,39783,1,0,0:0:0:0:
395,298,39973,6,0,P|356:303|317:295,1,80
215,203,40353,2,0,P|255:197|294:206,1,80
412,175,40733,2,0,P|441:108|421:14,1,160
355,126,41302,2,0,P|363:165|399:214,1,80
331,100,41682,6,0,P|255:105|192:166,1,160
132,232,42252,1,0,0:0:0:0:
53,176,42442,2,0,B|46:131|46:131|58:68|58:68|45:14,1,160
137,47,43011,2,0,L|119:143,1,80
160,205,43391,5,0,0:0:0:0:
247,131,43581,1,0,0:0:0:0:
263,245,43771,1,0,0:0:0:0:
278,110,43961,1,0,0:0:0:0:
132,232,44151,2,0,P|129:302|217:355,1,160
216,266,44720,6,0,P|285:270|339:220,1,132.00000402832
348,196,45100,1,0,0:0:0:0:
176,192,45290,2,0,P|143:229|134:272,2,88.000002685547
289,308,45859,2,0,P|257:277|215:265,1,88.000002685547
53,369,46239,6,0,B|115:337|115:381|182:363,1,132.00000402832
212,350,46619,1,0,0:0:0:0:
199,179,46809,2,0,L|215:265,2,88.000002685547
140,101,47378,2,0,P|181:79|229:88,1,88.000002685547
302,139,47758,6,0,B|366:151|366:151|432:126,1,132.00000402832
460,112,48138,1,0,0:0:0:0:
378,269,48328,2,0,L|368:182,2,88.000002685547
318,345,48897,1,0,0:0:0:0:
413,361,49087,1,0,0:0:0:0:
298,264,49277,6,0,B|230:281|230:240|157:276,1,132.00000402832
142,294,49657,1,0,0:0:0:0:
257,185,49847,2,0,P|254:141|237:101,2,88.000002685547
213,337,50416,1,0,0:0:0:0:
124,206,50606,1,0,0:0:0:0:
124,206,50701,1,0,0:0:0:0:
124,206,50796,6,0,P|81:224|54:267,1,88.000002685547
142,294,51176,1,0,0:0:0:0:
110,119,51366,2,0,L|92:26,1,88.000002685547
237,101,51745,2,0,L|219:194,1,88.000002685547
141,293,52125,2,0,P|199:324|263:317,1,132.00000402832
296,302,52505,5,0,0:0:0:0:
220,187,52695,1,0,0:0:0:0:
119,266,52885,1,0,0:0:0:0:
194,357,53075,1,0,0:0:0:0:
220,187,53264,1,0,0:0:0:0:
170,110,53454,1,0,0:0:0:0:
208,269,53643,1,0,0:0:0:0:
290,132,53834,6,0,P|230:99|166:113,1,132.00000402832
140,128,54214,1,0,0:0:0:0:
116,251,54404,1,0,0:0:0:0:
243,280,54594,2,0,P|309:261|344:206,1,132.00000402832
352,176,54974,1,0,0:0:0:0:
240,54,55163,1,0,0:0:0:0:
347,136,55353,6,0,P|390:123|440:131,1,88.000002685547
248,189,55733,2,0,P|205:202|155:194,1,88.000002685547
194,105,56113,1,0,0:0:0:0:
99,124,56302,1,0,0:0:0:0:
212,252,56492,1,0,0:0:0:0:
212,252,56872,6,0,P|212:284|206:314,2,60.0000022888184
130,272,57442,1,0,0:0:0:0:
149,190,57632,2,0,P|204:163|267:180,1,120.000004577637
302,247,58201,1,0,0:0:0:0:
302,247,58391,6,0,P|329:222|340:193,1,60.0000022888184
295,129,58771,2,0,P|268:154|257:183,1,60.0000022888184
213,246,59151,2,0,B|211:295|242:325|242:325|232:350|210:370,1,120.000004577637
144,330,59720,1,0,0:0:0:0:
302,247,59910,6,0,P|309:220|323:190,1,60.0000022888184
342,322,60290,2,0,P|335:349|320:378,1,60.0000022888184
239,324,60670,2,0,P|210:273|203:206,1,120.000004577637
252,145,61239,1,0,0:0:0:0:
252,145,61429,6,0,B|256:114|256:114|245:84,1,60.0000022888184
326,22,61809,2,0,B|322:53|322:53|333:83,1,60.0000022888184
334,164,62189,2,0,B|326:204|326:204|330:242|330:242|317:296,1,120.000004577637
365,352,62758,1,0,0:0:0:0:
419,147,62948,6,0,L|400:222,1,60.0000022888184
444,320,63328,2,0,L|463:245,1,60.0000022888184
324,253,63707,2,0,P|312:193|336:139,1,120.000004577637
383,71,64277,1,0,0:0:0:0:
310,28,64467,6,0,L|234:37,1,60.0000022888184
383,71,64847,2,0,L|442:63,1,60.0000022888184
334,140,65226,2,0,L|341:199,1,60.0000022888184
257,94,65606,2,0,L|249:34,1,60.0000022888184
240,186,65986,6,0,B|184:168|185:205|121:182,1,120.000004577637
153,103,66556,1,0,0:0:0:0:
206,268,66745,2,0,P|206:303|195:341,1,60.0000022888184
98,263,67125,2,0,P|97:227|109:190,1,60.0000022888184
112,353,67505,6,0,P|55:344|14:291,1,120.000004577637
98,263,68075,1,0,0:0:0:0:
9,154,68264,2,0,P|15:190|29:227,1,60.0000022888184
98,263,68644,1,0,0:0:0:0:
127,261,68738,1,0,0:0:0:0:
153,246,68833,1,0,0:0:0:0:
256,290,69024,6,0,B|255:334|255:334|240:373,1,80
113,338,69404,2,0,B|114:294|114:294|129:255,1,80
216,192,69783,2,0,P|290:182|353:240,1,160
417,292,70353,2,0,B|447:246|428:190|428:190|460:178|470:144,1,160
391,107,70923,5,0,0:0:0:0:
391,107,71302,2,0,P|426:75|469:68,1,80
350,234,71682,1,0,0:0:0:0:
176,151,72062,6,0,L|274:137,1,80
251,236,72442,2,0,L|171:247,1,80
96,187,72821,2,0,P|97:107|158:57,1,160
176,151,73391,2,0,L|168:326,1,160
257,348,73961,5,0,0:0:0:0:
257,348,74340,2,0,P|296:347|329:369,1,80
144,325,74720,1,0,0:0:0:0:
156,133,75100,6,0,L|190:235,1,80
260,264,75480,2,0,L|226:366,1,80
148,297,75859,2,0,P|78:293|106:218,1,160
168,170,76429,1,0,0:0:0:0:
79,67,76619,6,0,P|70:147|107:247,1,160
169,279,77189,2,0,B|252:297|251:251|336:283,1,160
286,367,77758,1,0,0:0:0:0:
354,299,77948,1,0,0:0:0:0:
256,160,78138,5,0,0:0:0:0:
383,322,78328,1,0,0:0:0:0:
412,159,78518,1,0,0:0:0:0:
245,198,78707,5,0,0:0:0:0:
439,251,78897,1,0,0:0:0:0:
388,74,79087,1,0,0:0:0:0:
336,195,79277,5,0,0:0:0:0:
304,26,79467,1,0,0:0:0:0:
304,26,79847,5,0,0:0:0:0:
344,235,80037,1,0,0:0:0:0:
209,314,80226,1,0,0:0:0:0:
209,314,80417,2,0,P|226:339|246:361,1,60.0000022888184
147,257,80796,2,0,P|119:275|96:300,1,68.0000012969971
231,228,81176,6,0,P|256:164|297:127,1,92.0000017547608
377,178,81556,1,0,0:0:0:0:
355,343,81745,2,0,B|362:297|362:297|354:248|354:248|364:189,1,138.000002632141
377,178,82125,1,0,0:0:0:0:
460,249,82315,1,0,0:0:0:0:
309,258,82505,2,0,B|289:297|234:308|234:308|189:285|144:305,1,184.000003509522
186,377,83075,5,0,0:0:0:0:
230,227,83264,2,0,P|186:218|140:225,1,92.0000017547608
30,313,83644,2,0,P|74:322|120:315,1,92.0000017547608
36,211,84024,1,0,0:0:0:0:
108,64,84214,6,0,B|141:133|94:129|129:231,1,138.000002632141
140,225,84594,1,0,0:0:0:0:
18,108,84783,1,0,0:0:0:0:
157,133,84973,2,0,P|206:132|262:106,2,92.0000017547608
257,200,85543,2,0,P|339:211|366:300,1,184.000003509522
284,280,86113,5,0,0:0:0:0:
445,319,86302,2,0,P|450:269|443:222,1,92.0000017547608
353,101,86682,2,0,P|348:151|355:198,1,92.0000017547608
458,101,87062,1,0,0:0:0:0:
345,60,87252,6,0,L|254:69,1,92.0000017547608
207,149,87632,1,0,0:0:0:0:
158,71,87821,1,0,0:0:0:0:
133,205,88011,1,0,0:0:0:0:
207,149,88201,1,0,0:0:0:0:
78,127,88391,1,0,0:0:0:0:
223,178,88581,6,0,L|314:169,1,92.0000017547608
444,227,88961,2,0,L|353:236,1,92.0000017547608
256,282,89340,1,0,0:0:0:0:
167,232,89530,2,0,P|147:188|153:143,2,92.0000017547608
256,282,90100,1,0,0:0:0:0:
405,174,90290,6,0,B|344:181|344:181|286:171|286:171|223:178,1,184.000003509522
350,99,90859,1,0,0:0:0:0:
340,257,91049,2,0,P|340:305|315:353,2,92.0000017547608
221,177,91619,2,0,B|196:168|185:139|185:139|117:167|69:109,1,184.000003509522
145,53,92189,5,0,0:0:0:0:
264,103,92378,1,0,0:0:0:0:
188,254,92568,2,0,L|194:309,3,46.0000008773804
167,333,92948,1,0,0:0:0:0:
138,346,93042,1,0,0:0:0:0:
106,347,93137,1,0,0:0:0:0:
76,334,93232,1,0,0:0:0:0:
55,310,93328,6,0,B|32:238|74:235|38:140,1,138.000002632141
25,140,93707,1,0,0:0:0:0:
144,52,93897,2,0,P|99:46|56:61,1,92.0000017547608
196,120,94277,2,0,P|221:84|222:25,1,92.0000017547608
119,132,94657,2,0,P|122:199|196:273,1,138.000002632141
188,254,95037,5,0,0:0:0:0:
295,301,95226,1,0,0:0:0:0:
280,184,95416,2,0,P|317:157|362:152,2,92.0000017547608
355,238,95986,1,0,0:0:0:0:
449,147,96176,1,0,0:0:0:0:
448,327,96366,6,0,B|442:275|442:275|459:211|459:211|448:143,1,184.000003509522
397,69,96935,1,0,0:0:0:0:
306,84,97125,2,0,B|274:88|249:108|249:108|213:52|133:63,1,184.000003509522
162,163,97695,1,0,0:0:0:0:
157,193,98075,5,0,0:0:0:0:
55,118,98264,1,0,0:0:0:0:
149,32,98454,1,0,0:0:0:0:
55,118,98644,1,0,0:0:0:0:
157,193,98834,2,0,L|232:175,2,46.0000008773804
80,193,99214,1,0,0:0:0:0:
80,193,99309,1,0,0:0:0:0:
80,193,99404,6,0,P|105:255|171:274,1,138.000002632141
204,266,99783,1,0,0:0:0:0:
325,230,99973,1,0,0:0:0:0:
157,193,100163,5,0,0:0:0:0:
278,157,100353,1,0,0:0:0:0:
108,120,100543,5,0,0:0:0:0:
229,84,100733,1,0,0:0:0:0:
55,118,100923,6,0,B|32:160|43:211|43:211|69:221|80:251,1,138.000002632141
86,272,101302,1,0,0:0:0:0:
157,193,101492,1,0,0:0:0:0:
240,357,101682,5,0,0:0:0:0:
169,278,101872,1,0,0:0:0:0:
321,190,102062,5,0,0:0:0:0:
250,269,102252,1,0,0:0:0:0:
257,106,102442,5,0,0:0:0:0:
257,106,102632,1,0,0:0:0:0:
375,193,103011,1,0,0:0:0:0:
255,311,103391,5,0,0:0:0:0:
368,307,103581,1,0,0:0:0:0:
375,193,103771,1,0,0:0:0:0:
375,193,105480,5,0,0:0:0:0:
367,313,105670,1,0,0:0:0:0:
452,255,105859,1,0,0:0:0:0:
460,135,106049,1,0,0:0:0:0:
383,73,106239,2,0,L|325:84,1,46.0000008773804
261,50,106429,2,0,L|227:98,1,46.0000008773804
153,82,106619,1,0,0:0:0:0:
146,113,106713,1,0,0:0:0:0:
146,145,106808,1,0,0:0:0:0:
153,177,106903,1,0,0:0:0:0:
166,206,106999,6,0,P|172:249|157:297,1,92.0000017547608
81,243,107378,2,0,L|232:262,1,138.000002632141
254,265,107758,1,0,0:0:0:0:
320,329,107948,1,0,0:0:0:0:
384,263,108138,1,0,0:0:0:0:
319,193,108328,1,0,0:0:0:0:
342,107,108518,2,0,P|354:63|387:31,1,92.0000017547608
490,150,108897,2,0,P|451:175|406:173,1,92.0000017547608
259,131,109277,2,0,P|213:129|175:153,1,92.0000017547608
319,193,109657,1,0,0:0:0:0:
197,81,109847,1,0,0:0:0:0:
235,204,110037,6,0,P|248:276|291:329,1,138.000002632141
317,346,110416,1,0,0:0:0:0:
420,302,110606,1,0,0:0:0:0:
406,182,110796,2,0,P|361:175|319:192,1,92.0000017547608
420,302,111176,1,0,0:0:0:0:
318,192,111366,1,0,0:0:0:0:
491,157,111556,6,0,P|494:205|466:246,1,92.0000017547608
318,192,111935,2,0,P|325:147|357:115,1,92.0000017547608
461,53,112315,1,0,0:0:0:0:
406,182,112505,2,0,L|384:233,3,46.0000008773804
383,270,112885,1,0,0:0:0:0:
402,311,112980,1,0,0:0:0:0:
435,332,113075,6,0,P|475:339|525:325,2,80
198,341,113834,2,0,P|265:298|344:294,1,160
452,263,114404,6,0,P|463:221|461:179,1,80
368,104,114783,2,0,P|357:146|359:188,1,80
343,293,115163,1,0,0:0:0:0:
258,224,115353,1,0,0:0:0:0:
358,182,115543,1,0,0:0:0:0:
274,130,115733,2,0,P|217:135|171:178,1,120
160,210,116113,6,0,P|124:233|73:229,1,80
88,126,116492,1,0,0:0:0:0:
143,282,116872,2,0,B|194:322|254:297|254:297|278:308|279:332,1,160
204,221,117442,1,0,0:0:0:0:
303,231,117632,6,0,P|337:262|361:310,1,80
204,221,118011,2,0,P|170:190|146:142,1,80
92,107,118391,1,0,0:0:0:0:
125,86,118485,1,0,0:0:0:0:
165,83,118581,2,0,P|194:91|220:111,1,40
259,35,118771,1,0,0:0:0:0:
279,68,118865,1,0,0:0:0:0:
282,108,118961,2,0,P|274:136|254:162,1,40
193,181,119151,6,0,P|207:229|212:306,1,120
200,336,119530,1,0,0:0:0:0:
106,254,119720,1,0,0:0:0:0:
106,254,119815,1,0,0:0:0:0:
106,254,119910,1,0,0:0:0:0:
254,233,120100,1,0,0:0:0:0:
154,137,120290,2,0,B|214:105|218:141|279:115,1,120
304,96,120670,6,0,P|345:98|377:129,1,80
423,243,121049,2,0,P|382:241|350:210,1,80
403,111,121429,1,0,0:0:0:0:
321,203,121619,1,0,0:0:0:0:
298,54,121809,2,0,P|263:34|222:44,1,80
197,70,122094,1,0,0:0:0:0:
197,70,122189,6,0,P|138:75|78:49,1,120
48,30,122568,1,0,0:0:0:0:
18,136,122758,1,0,0:0:0:0:
115,192,122948,2,0,P|129:150|129:101,2,80
29,237,123518,1,0,0:0:0:0:
115,278,123707,6,0,L|205:269,1,80
265,159,124087,2,0,L|185:166,1,80
229,347,124467,2,0,P|235:302|217:258,1,80
151,90,124847,2,0,P|145:135|163:179,1,80
279,201,125226,6,0,L|406:191,1,120.000004577637
489,333,125986,2,0,B|500:268|467:272|490:187,1,120.000004577637
456,134,126556,6,0,P|426:114|384:113,1,60.0000022888184
313,171,126935,2,0,P|343:191|385:192,1,60.0000022888184
311,84,127315,1,0,0:0:0:0:
231,126,127505,1,0,0:0:0:0:
235,219,127695,1,0,0:0:0:0:
204,110,127885,2,0,P|160:108|114:129,1,90.0000034332277
100,163,128264,6,0,P|94:198|105:242,1,60.0000022888184
113,305,128644,1,0,0:0:0:0:
188,267,128834,1,0,0:0:0:0:
255,320,129024,2,0,B|318:302|319:339|398:312,1,120.000004577637
343,240,129594,6,0,P|345:211|336:162,1,60.0000022888184
285,117,129973,2,0,P|256:115|207:124,1,60.0000022888184
257,203,130353,1,0,0:0:0:0:
113,285,130543,1,0,0:0:0:0:
239,228,130733,1,0,0:0:0:0:
206,363,130923,1,0,0:0:0:0:
223,251,131113,1,0,0:0:0:0:
257,193,136202,5,0,0:0:0:0:
330,290,136391,2,0,P|256:329|180:289,1,176.000005371094
156,195,136961,1,0,0:0:0:0:
