osu file format v14

[General]
AudioFilename: audio.mp3
AudioLeadIn: 0
PreviewTime: 80226
Countdown: 0
SampleSet: Soft
StackLeniency: 0.7
Mode: 0
LetterboxInBreaks: 0
WidescreenStoryboard: 0

[Editor]
Bookmarks: 131302,136202
DistanceSpacing: 1.2
BeatDivisor: 2
GridSize: 32
TimelineZoom: 1.1

[Metadata]
Title:stella*
TitleUnicode:stella☆
Artist:Silent Siren
ArtistUnicode:サイレントサイレン
Creator:[ Arika ]
Version:Hard
Source:
Tags:start O-Moei ekafjr Mako Sakata
BeatmapID:1075225
BeatmapSetID:505444

[Difficulty]
HPDrainRate:5
CircleSize:4
OverallDifficulty:6
ApproachRate:7
SliderMultiplier:1.5
SliderTickRate:1

[Events]
//Background and Video events
0,0,"699743.jpg",0,0
//Break Periods
2,131312,135302
//Storyboard Layer 0 (Background)
//Storyboard Layer 1 (Fail)
//Storyboard Layer 2 (Pass)
//Storyboard Layer 3 (Foreground)
//Storyboard Sound Samples

[TimingPoints]
2189,379.746835443038,4,2,0,70,1,0
8264,-90.9090909090909,4,2,0,70,0,0
14340,-100,4,2,0,70,0,0
20416,-90.9090909090909,4,2,0,70,0,0
26492,-100,4,2,0,70,0,0
44720,-90.9090909090909,4,2,0,70,0,0
56872,-133.333333333333,4,2,0,70,0,0
69024,-100,4,2,0,70,0,0
81176,-86.9565217391302,4,2,0,70,0,1
92948,-86.9565217391302,4,2,0,70,0,0
93328,-86.9565217391302,4,2,0,70,0,1
102442,-86.9565217391302,4,2,0,70,0,0
106999,-100,4,2,0,70,0,0
113075,-100,4,2,0,70,0,0
125226,-133.333333333333,4,2,0,70,0,0
136202,379.746835443038,4,2,1,70,1,0
136202,-90.9090909090909,4,2,1,70,0,0

[HitObjects]
420,259,2189,6,0,P|392:286|352:296,2,75
391,87,2948,2,0,P|350:143|355:226,1,150
281,263,3518,1,0,0:0:0:0:
206,229,3707,6,0,B|158:219|113:233|113:233|89:219|59:218,1,150
32,296,4277,2,0,L|14:128,1,150
65,79,4847,1,0,0:0:0:0:
120,140,5037,2,0,L|179:122,1,37.5
196,123,5226,6,0,P|232:133|288:120,2,75
342,46,5986,2,0,P|375:104|364:191,1,150
291,219,6556,1,0,0:0:0:0:
356,268,6745,6,0,P|393:263|427:248,1,75
452,169,7125,1,0,0:0:0:0:
367,184,7315,2,0,L|421:349,1,150
342,369,7885,2,0,P|301:361|271:325,1,75
255,303,8170,1,0,0:0:0:0:
255,303,8264,6,0,P|213:305|175:320,1,82.5000025177003
347,264,8644,2,0,P|389:262|427:247,1,82.5000025177003
471,167,9024,1,0,0:0:0:0:
380,168,9214,1,0,0:0:0:0:
426,247,9404,2,0,L|441:337,1,82.5000025177003
351,351,9783,6,0,P|281:320|270:238,1,165.000005035401
287,149,10353,1,0,0:0:0:0:
256,63,10543,2,0,L|153:53,2,82.5000025177003
347,67,11113,1,0,0:0:0:0:
380,150,11302,6,0,P|351:219|253:233,1,165.000005035401
202,176,11872,1,0,0:0:0:0:
137,239,12062,2,0,P|118:280|117:333,2,82.5000025177003
205,299,12632,1,0,0:0:0:0:
269,238,12821,6,0,B|304:184|274:126|274:126|306:118|325:84,1,165.000005035401
247,37,13391,1,0,0:0:0:0:
178,96,13581,2,0,L|79:76,2,82.5000025177003
383,140,14340,6,0,P|385:68|328:25,2,150
311,289,15480,1,0,0:0:0:0:
284,204,15670,2,0,L|276:100,1,75
206,170,16049,6,0,B|210:216|210:216|227:259|227:259|219:295|234:332,1,150
297,360,16619,1,0,0:0:0:0:
297,360,16809,2,0,P|355:347|380:265,1,150
367,228,17283,1,0,0:0:0:0:
367,228,17378,6,0,P|406:228|445:194,1,75
408,130,17758,2,0,P|369:130|330:164,1,75
284,211,18138,2,0,P|262:138|308:70,1,150
374,50,18707,1,0,0:0:0:0:
291,41,18897,6,0,P|255:53|212:49,1,75
105,41,19277,1,0,0:0:0:0:
81,144,19467,2,0,B|155:159|155:112|238:148,1,150
339,149,20037,1,0,0:0:0:0:
339,149,20226,2,0,L|401:140,1,37.5
416,164,20416,6,0,B|358:177|358:177|329:198|329:198|250:213,1,165.000005035401
173,239,20986,1,0,0:0:0:0:
83,225,21176,2,0,P|41:215|3:177,1,82.5000025177003
172,267,21556,2,0,P|214:277|265:340,1,82.5000025177003
160,357,21935,6,0,B|237:338|295:358|295:358|352:338,1,165.000005035401
366,269,22505,1,0,0:0:0:0:
452,241,22695,2,0,P|456:281|442:320,1,82.5000025177003
366,269,23075,2,0,P|371:189|466:152,1,165.000005035401
410,62,23644,5,0,0:0:0:0:
332,109,23834,2,0,P|299:146|282:187,1,82.5000025177003
255,261,24214,2,0,P|254:300|277:368,2,82.5000025177003
189,197,24783,2,0,B|106:226|106:181|11:205,1,165.000005035401
69,282,25353,5,0,0:0:0:0:
111,171,25543,1,0,0:0:0:0:
28,96,25733,1,0,0:0:0:0:
139,68,25923,2,0,L|222:60,2,82.5000025177003
111,171,26492,6,0,B|139:236|139:236|158:279|140:329,1,150
69,282,27062,1,0,0:0:0:0:
176,232,27252,2,0,P|249:238|301:180,1,150
301,103,27821,1,0,0:0:0:0:
299,186,28011,6,0,B|359:174|359:174|382:196|382:196|439:188,1,150
454,106,28581,2,0,P|446:65|423:29,1,75
346,43,28961,2,0,P|272:36|225:95,1,150
184,160,29530,6,0,B|186:249|186:249|170:311,1,150
107,253,30100,1,0,0:0:0:0:
228,231,30290,2,0,B|276:250|314:235|314:235|325:275|371:291,1,150
396,212,30859,1,0,0:0:0:0:
432,285,31049,6,0,P|423:323|385:353,1,75
351,282,31429,2,0,L|336:121,1,150
384,64,31999,2,0,L|421:47,2,37.5
301,60,32378,1,0,0:0:0:0:
301,60,32568,6,0,P|229:94|157:65,1,150
83,66,33138,1,0,0:0:0:0:
122,138,33328,2,0,B|118:188|118:188|141:237|114:308,1,150
38,289,33897,1,0,0:0:0:0:
82,358,34087,6,0,B|161:384|161:326|258:369,1,150
299,314,34657,1,0,0:0:0:0:
382,326,34847,2,0,P|403:256|330:191,1,150
306,136,35416,1,0,0:0:0:0:
306,136,35511,1,0,0:0:0:0:
306,136,35606,6,0,B|372:128|372:128|394:138|394:138|476:125,1,150
411,56,36176,1,0,0:0:0:0:
328,59,36366,2,0,B|272:65|272:65|225:91|228:147,1,150
274,209,36935,1,0,0:0:0:0:
191,216,37125,6,0,B|157:193|136:144|161:81,1,150
211,14,37695,1,0,0:0:0:0:
139,55,37885,2,0,B|97:38|74:77|74:77|25:81|34:137,1,150
72,198,38454,1,0,0:0:0:0:
72,198,38549,1,0,0:0:0:0:
72,198,38644,6,0,B|68:253|68:253|79:285|79:285|73:351,1,150
152,370,39214,2,0,L|159:273,1,75
235,234,39594,2,0,L|229:308,1,75
297,355,39973,2,0,P|354:362|412:317,1,112.5
424,301,40353,5,0,0:0:0:0:
349,210,40543,2,0,P|336:245|336:283,2,75
458,179,41113,1,0,0:0:0:0:
375,97,41302,2,0,L|285:112,1,75
240,52,41682,6,0,P|219:122|265:186,1,150
216,253,42252,1,0,0:0:0:0:
216,253,42442,2,0,P|166:280|133:288,1,75
69,262,42821,1,0,0:0:0:0:
111,190,43011,2,0,P|161:163|194:155,1,75
256,192,43391,12,0,44340,0:0:0:0:
255,258,44720,6,0,P|178:262|130:191,1,165.000005035401
219,174,45290,1,0,0:0:0:0:
285,235,45480,2,0,P|318:257|347:305,2,82.5000025177003
310,147,46049,1,0,0:0:0:0:
238,91,46239,6,0,B|177:100|177:100|126:90|126:90|66:98,1,165.000005035401
46,183,46809,1,0,0:0:0:0:
92,263,46999,2,0,B|153:254|153:254|204:264|204:264|264:256,1,165.000005035401
269,346,47568,1,0,0:0:0:0:
179,359,47758,6,0,B|145:336|145:336|49:348,1,123.75000377655
17,353,48138,1,0,0:0:0:0:
7,262,48328,1,0,0:0:0:0:
92,263,48518,2,0,B|81:168|81:168|98:141|101:113,1,123.75000377655
120,106,48897,1,0,0:0:0:0:
43,57,49087,1,0,0:0:0:0:
148,71,49277,6,0,B|229:47|230:91|310:68,1,165.000005035401
401,61,49847,1,0,0:0:0:0:
373,141,50037,2,0,P|385:214|368:304,1,165.000005035401
287,342,50606,1,0,0:0:0:0:
287,342,50701,1,0,0:0:0:0:
287,342,50796,6,0,P|281:295|290:257,2,82.5000025177003
368,302,51366,2,0,B|288:294|286:334|203:312,1,165.000005035401
123,350,51935,1,0,0:0:0:0:
205,312,52125,2,0,B|182:242|182:242|197:202|186:136,1,165.000005035401
121,90,52695,5,0,0:0:0:0:
121,90,52885,2,0,P|82:105|37:99,2,82.5000025177003
209,68,53454,2,0,P|247:84|274:122,1,82.5000025177003
319,208,53834,6,0,B|386:232|432:186|432:186|454:200|492:197,1,165.000005035401
467,93,54404,1,0,0:0:0:0:
369,134,54594,2,0,L|379:302,1,165.000005035401
451,352,55163,1,0,0:0:0:0:
304,360,55353,6,0,P|337:329|396:315,1,82.5000025177003
208,360,55733,2,0,P|175:329|116:315,1,82.5000025177003
257,195,56113,2,0,L|257:278,2,82.5000025177003
176,100,56872,6,0,P|256:69|347:112,1,168.750006437302
392,145,57632,2,0,P|449:152|501:120,1,112.500004291535
433,77,58201,1,0,0:0:0:0:
433,77,58391,6,0,L|457:204,1,112.500004291535
481,261,58961,1,0,0:0:0:0:
416,305,59151,2,0,B|385:324|385:324|335:338|335:338|308:360,1,112.500004291535
256,302,59720,1,0,0:0:0:0:
195,353,59910,6,0,B|177:338|177:338|127:324|127:324|96:305,2,112.500004291535
256,302,60859,1,0,0:0:0:0:
256,223,61049,2,0,L|256:148,1,56.2500021457673
308,107,61429,6,0,P|256:88|200:111,1,112.500004291535
148,162,61999,1,0,0:0:0:0:
148,162,62189,2,0,P|96:180|44:162,1,112.500004291535
97,104,62758,1,0,0:0:0:0:
97,104,62948,6,0,B|96:231,1,112.500004291535
68,290,63518,1,0,0:0:0:0:
68,290,63707,2,0,B|98:296|98:296|137:287,1,56.2500021457673
229,231,64087,2,0,B|199:225|199:225|175:231,1,56.2500021457673
293,296,64467,6,0,P|318:247|301:184,1,112.500004291535
258,130,65037,1,0,0:0:0:0:
205,192,65226,2,0,P|193:246|219:296,1,112.500004291535
257,365,65796,1,0,0:0:0:0:
316,313,65986,6,0,B|334:324|354:322|354:322|383:296|428:300|428:300|445:273|439:238,1,168.750006437302
364,230,66745,2,0,B|371:211|361:186|361:186|380:162|380:162|358:125|374:61,1,168.750006437302
443,105,67505,6,0,L|269:102,1,168.750006437302
195,102,68264,1,0,0:0:0:0:
99,227,68644,2,0,L|90:150,1,56.2500021457673
177,235,69024,6,0,P|165:277|117:306,1,75
217,351,69404,2,0,P|255:359|301:346,1,75
369,297,69783,2,0,P|343:271|364:154,1,150
411,223,70353,1,0,0:0:0:0:
431,145,70543,6,0,L|512:157,2,75
310,31,71302,2,0,B|271:40|271:40|236:76,1,75
164,77,71682,2,0,B|173:116|173:116|209:151,1,75
219,220,72062,6,0,P|256:211|298:224,1,75
316,298,72442,2,0,P|315:336|291:373,1,75
234,313,72821,2,0,P|168:296|135:215,1,150
109,147,73391,1,0,0:0:0:0:
198,140,73581,6,0,L|270:121,2,75
316,298,74340,2,0,B|355:289|355:289|390:253,1,75
462,252,74720,2,0,B|453:213|453:213|417:178,1,75
352,154,75100,6,0,B|373:83|318:83|355:9,1,150
157,9,75859,2,0,B|194:83|139:83|160:154,1,150
198,315,76619,2,0,P|255:235|305:325,1,225
385,347,77378,1,0,0:0:0:0:
385,347,77568,2,0,P|395:298|391:268,1,75
356,198,77948,1,0,0:0:0:0:
356,198,78138,6,0,L|452:207,1,75
487,134,78518,1,0,0:0:0:0:
393,118,78707,2,0,L|318:110,1,75
252,47,79087,1,0,0:0:0:0:
164,68,79277,2,0,L|195:158,1,75
66,250,79847,2,0,L|41:179,1,75
56,134,81176,6,0,P|125:161|154:262,1,172.500003290176
218,320,81745,2,0,P|304:317|365:248,1,172.500003290176
319,172,82315,1,0,0:0:0:0:
239,232,82505,2,0,B|194:230|156:248|156:248|120:226|54:231,1,172.500003290176
95,322,83075,5,0,0:0:0:0:
14,273,83264,1,0,0:0:0:0:
14,273,83454,2,0,P|0:232|10:191,1,86.2500016450882
76,136,83834,2,0,P|91:95|80:54,1,86.2500016450882
3,95,84214,6,0,B|114:95|114:95|140:120|177:120,1,172.500003290176
198,38,84783,2,0,P|256:98|225:192,1,172.500003290176
155,203,85353,1,0,0:0:0:0:
222,256,85543,2,0,B|310:283|310:217|401:272,1,172.500003290176
337,335,86113,5,0,0:0:0:0:
253,342,86302,2,0,P|210:334|172:315,1,86.2500016450882
105,260,86682,2,0,L|16:271,2,86.2500016450882
105,260,87632,6,0,B|138:180|138:180|116:94,1,172.500003290176
289,95,88391,1,0,0:0:0:0:
289,95,88581,2,0,B|267:178|267:178|300:258,1,172.500003290176
385,240,89151,5,0,0:0:0:0:
359,323,89340,2,0,B|318:309|300:258|300:258|256:248|220:296,1,172.500003290176
154,331,89910,1,0,0:0:0:0:
154,331,90290,6,0,P|81:348|26:242,1,172.500003290176
58,203,90859,2,0,P|131:186|186:292,1,172.500003290176
242,321,91429,1,0,0:0:0:0:
300,259,91619,2,0,B|335:176|261:175|311:65,1,172.500003290176
378,128,92189,5,0,0:0:0:0:
378,128,92568,2,0,L|475:119,2,86.2500016450882
331,54,93138,1,0,0:0:0:0:
256,107,93328,6,0,P|175:113|139:194,1,172.500003290176
188,258,93897,2,0,P|109:275|52:204,1,172.500003290176
17,133,94467,1,0,0:0:0:0:
138,188,94657,2,0,B|185:164|227:184|227:184|310:177,1,172.500003290176
378,128,95226,5,0,0:0:0:0:
452,171,95416,2,0,P|475:207|477:252,1,86.2500016450882
433,324,95796,2,0,P|397:347|352:349,1,86.2500016450882
371,264,96176,1,0,0:0:0:0:
290,294,96366,6,0,B|206:328|206:263|117:309,1,172.500003290176
50,352,96935,2,0,B|43:268|43:268|119:210,1,172.500003290176
46,158,97505,1,0,0:0:0:0:
124,122,97695,2,0,B|175:122|201:169|201:169|247:169|270:128,1,172.500003290176
346,95,98264,6,0,P|320:62|279:48,2,86.2500016450882
331,267,99024,1,0,0:0:0:0:
380,196,99214,2,0,B|434:162|507:184|507:184|474:196|459:225,1,172.500003290176
415,268,99783,6,0,L|425:360,1,86.2500016450882
340,352,100163,2,0,L|331:267,2,86.2500016450882
261,316,100733,1,0,0:0:0:0:
196,373,100923,6,0,P|177:294|245:228,1,172.500003290176
307,186,101492,1,0,0:0:0:0:
227,151,101682,2,0,L|46:162,1,172.500003290176
8,88,102252,1,0,0:0:0:0:
94,85,102442,6,0,P|140:151|104:237,1,172.500003290176
177,286,103011,2,0,B|256:314|256:314|355:282,1,172.500003290176
402,226,103581,1,0,0:0:0:0:
402,226,103771,2,0,P|372:148|418:79,1,172.500003290176
298,218,104530,6,0,P|256:207|204:227,2,86.2500016450882
258,295,105100,1,0,0:0:0:0:
256,192,105290,12,0,106619,0:0:0:0:
199,266,106999,6,0,P|138:230|94:286,1,150
160,352,107568,1,0,0:0:0:0:
254,326,107758,2,0,B|291:318|291:318|336:286,1,75
353,203,108138,2,0,B|316:211|316:211|271:243,1,75
213,165,108518,6,0,L|213:91,2,75
139,229,109087,1,0,0:0:0:0:
74,302,109277,2,0,L|74:376,2,75
47,207,109847,1,0,0:0:0:0:
139,229,110037,6,0,P|206:261|282:242,1,150
370,217,110606,1,0,0:0:0:0:
442,282,110796,2,0,P|443:321|427:353,1,75
331,373,111176,2,0,P|330:334|346:302,1,75
365,206,111556,6,0,L|343:122,2,75
345,302,112125,1,0,0:0:0:0:
273,235,112315,2,0,L|251:151,2,75
98,322,113075,6,0,B|177:352|177:296|283:338,1,150
418,238,113834,2,0,B|349:208|349:264|270:234,1,150
214,155,114404,1,0,0:0:0:0:
311,162,114594,6,0,B|318:126|318:126|308:75,2,75
225,209,115163,1,0,0:0:0:0:
140,257,115353,2,0,B|133:293|133:293|143:344,2,75
51,82,116113,6,0,B|59:183|59:183|42:238,1,150
232,309,116872,2,0,B|224:208|224:208|241:153,1,150
172,88,117442,1,0,0:0:0:0:
269,83,117632,6,0,L|374:75,1,75
395,160,118011,2,0,L|500:152,1,75
451,250,118391,2,0,L|403:254,3,37.5
364,256,118771,2,0,L|316:260,3,37.5
277,262,119151,6,0,B|229:278|183:266|183:266|166:292|119:308,1,150
102,209,119720,1,0,0:0:0:0:
56,295,119910,2,0,P|63:334|89:372,2,75
7,209,120480,1,0,0:0:0:0:
102,209,120670,6,0,B|100:159|68:137|68:137|83:104|133:118,1,150
211,155,121239,1,0,0:0:0:0:
199,58,121429,2,0,B|239:54|239:54|283:80,1,75
280,168,121809,2,0,B|240:172|240:172|196:146,1,75
125,116,122189,6,0,L|142:273,1,150
221,327,122758,1,0,0:0:0:0:
270,242,122948,2,0,B|343:271|343:210|430:262,1,150
480,327,123518,1,0,0:0:0:0:
507,233,123707,2,0,L|498:159,1,75
400,87,124087,2,0,L|409:161,2,75
484,37,124657,1,0,0:0:0:0:
484,37,124752,1,0,0:0:0:0:
484,37,124847,1,0,0:0:0:0:
484,37,125226,6,0,B|441:33|410:64|410:64|384:33,1,112.500004291535
262,84,125986,2,0,L|331:175,1,112.500004291535
376,230,126556,1,0,0:0:0:0:
255,311,126935,1,0,0:0:0:0:
134,227,127315,1,0,0:0:0:0:
134,227,127505,2,0,L|119:137,2,56.2500021457673
255,311,128264,6,0,B|298:315|329:284|329:284|355:315,1,112.500004291535
490,344,129024,2,0,P|492:286|457:228,1,112.500004291535
406,197,129594,1,0,0:0:0:0:
264,232,129973,1,0,0:0:0:0:
302,90,130353,1,0,0:0:0:0:
302,90,130543,2,0,L|382:75,1,56.2500021457673
210,90,130923,2,0,L|130:75,1,56.2500021457673
256,193,136202,5,0,0:0:0:0:
256,193,136391,2,0,L|470:177,1,165.000005035401
494,259,136961,1,0,0:0:0:0:
