osu file format v14

[General]
AudioFilename: audio.mp3
AudioLeadIn: 0
PreviewTime: 80226
Countdown: 0
SampleSet: Soft
StackLeniency: 0.7
Mode: 0
LetterboxInBreaks: 0
WidescreenStoryboard: 0

[Editor]
Bookmarks: 131302,136202
DistanceSpacing: 0.9
BeatDivisor: 4
GridSize: 32
TimelineZoom: 1.3

[Metadata]
Title:stella*
TitleUnicode:stella☆
Artist:Silent Siren
ArtistUnicode:サイレントサイレン
Creator:[ Arika ]
Version:Expert
Source:
Tags:start O-Moei ekafjr Mako Sakata
BeatmapID:1075224
BeatmapSetID:505444

[Difficulty]
HPDrainRate:7
CircleSize:4.3
OverallDifficulty:8
ApproachRate:9
SliderMultiplier:1.8
SliderTickRate:1

[Events]
//Background and Video events
0,0,"699743.jpg",0,0
//Break Periods
2,131313,135602
//Storyboard Layer 0 (Background)
//Storyboard Layer 1 (Fail)
//Storyboard Layer 2 (Pass)
//Storyboard Layer 3 (Foreground)
//Storyboard Sound Samples

[TimingPoints]
2189,379.746835443038,4,2,0,70,1,0
8264,-90.9090909090909,4,2,1,80,0,0
14340,-100,4,2,0,70,0,0
19847,-100,4,2,1,70,0,0
20416,-90.9090909090909,4,2,1,70,0,0
32568,-100,4,2,0,70,0,0
43201,-100,4,2,0,45,0,0
44340,-100,4,2,0,15,0,0
44720,-83.3333333333333,4,2,1,70,0,0
56872,-133.333333333333,4,2,0,70,0,0
57632,-133.333333333333,4,2,1,70,0,0
58391,-133.333333333333,4,2,0,70,0,0
59151,-133.333333333333,4,2,1,70,0,0
59910,-133.333333333333,4,2,0,70,0,0
60670,-133.333333333333,4,2,1,70,0,0
61429,-133.333333333333,4,2,0,70,0,0
62189,-133.333333333333,4,2,1,70,0,0
62948,-133.333333333333,4,2,0,70,0,0
63707,-133.333333333333,4,2,1,70,0,0
64467,-133.333333333333,4,2,0,70,0,0
65226,-133.333333333333,4,2,1,70,0,0
65986,-133.333333333333,4,2,0,70,0,0
66745,-133.333333333333,4,2,1,70,0,0
67505,-133.333333333333,4,2,0,70,0,0
68264,-133.333333333333,4,2,1,70,0,0
69024,-100,4,2,0,70,0,0
70163,-100,4,2,1,70,0,0
70543,-100,4,2,0,70,0,0
71682,-100,4,2,1,70,0,0
72062,-100,4,2,0,70,0,0
73201,-100,4,2,1,70,0,0
73581,-100,4,2,0,70,0,0
74720,-100,4,2,1,70,0,0
75100,-100,4,2,0,70,0,0
76239,-100,4,2,1,70,0,0
76619,-100,4,2,0,70,0,0
77189,-100,4,2,1,70,0,0
80226,-133.333333333333,4,2,0,30,0,0
81176,-79.9999999999999,4,2,1,80,0,1
92948,-79.9999999999999,4,2,0,70,0,0
93328,-79.9999999999999,4,2,1,70,0,1
102442,-79.9999999999999,4,2,0,70,0,0
136202,379.746835443038,4,2,1,70,1,0
136391,-83.3333333333333,4,2,1,70,0,0

[HitObjects]
306,268,2189,6,0,P|353:259|382:224,1,90,2|0,0:0|0:0,0:0:0:0:
386,193,2473,1,0,0:0:0:0:
386,193,2568,2,0,L|499:208,1,90,2|0,0:0|0:0,0:0:0:0:
344,113,2948,2,0,B|287:128|287:128|277:140|277:140|196:161,1,135,2|0,0:0|0:0,0:0:0:0:
183,165,3328,1,0,0:3:0:0:
316,313,3518,6,0,L|295:225,1,90,2|0,3:0|0:0,0:0:0:0:
323,25,3897,2,0,L|343:112,1,90,2|0,0:0|0:0,0:0:0:0:
168,254,4277,2,0,P|104:193|128:97,1,180,2|0,0:0|0:3,0:0:0:0:
90,316,4847,1,2,3:0:0:0:
183,165,5037,1,2,0:0:0:0:
0,136,5226,6,0,P|49:142|93:127,1,90,2|0,0:0|0:0,0:0:0:0:
117,109,5511,1,0,0:0:0:0:
117,109,5606,2,0,L|148:24,1,90,2|0,0:0|0:0,0:0:0:0:
61,216,5986,2,0,L|32:41,1,135,2|0,0:0|0:0,0:0:0:0:
32,47,6366,1,0,0:3:0:0:
201,116,6556,6,0,P|184:162|143:188,1,90,2|0,3:0|0:0,0:0:0:0:
11,285,6935,2,0,P|28:239|69:213,1,90,2|0,0:0|0:0,0:0:0:0:
269,278,7315,2,0,B|182:269|182:317|89:290,1,180,2|0,3:0|0:0,0:0:0:0:
266,193,7885,1,0,0:0:0:0:
309,199,7979,1,0,0:0:0:0:
344,228,8074,1,0,0:0:0:0:
358,270,8169,1,0,0:0:0:0:
349,313,8264,6,0,P|397:297|450:306,1,99.0000030212403,4|0,0:0|0:0,0:0:0:0:
281,371,8644,2,0,P|262:325|272:270,1,99.0000030212403,8|0,0:0|0:0,0:0:0:0:
422,175,9024,1,2,0:0:0:0:
268,277,9214,1,2,0:0:0:0:
288,103,9404,1,8,0:0:0:0:
425,219,9594,6,0,L|433:336,1,99.0000030212403,2|0,0:0|0:0,0:0:0:0:
343,377,9973,1,2,0:0:0:0:
268,277,10163,1,8,0:0:0:0:
428,270,10353,1,0,0:0:0:0:
259,362,10543,1,2,0:0:0:0:
278,191,10733,1,2,0:0:0:0:
366,359,10923,1,8,0:0:0:0:
395,167,11113,1,0,0:0:0:0:
503,123,11302,6,0,L|396:143,1,99.0000030212403,4|0,0:0|0:0,0:0:0:0:
310,55,11682,1,8,0:0:0:0:
395,167,11872,1,0,0:0:0:0:
218,88,12062,1,2,0:0:0:0:
191,257,12252,1,2,0:0:0:0:
265,168,12442,1,8,0:0:0:0:
85,136,12632,1,0,0:0:0:0:
191,257,12821,6,0,P|241:282|304:279,1,99.0000030212403,0|2,0:0|0:0,0:0:0:0:
395,145,13201,1,8,0:0:0:0:
421,306,13391,1,0,0:0:0:0:
265,168,13581,1,2,0:0:0:0:
438,325,13771,1,2,0:0:0:0:
240,307,13961,2,0,L|283:283,1,49.5000015106202,8|8,0:0|0:0,0:0:0:0:
145,201,14151,2,0,L|188:226,1,49.5000015106202,2|0,0:0|0:0,0:0:0:0:
64,319,14340,6,0,B|37:212|37:212|44:172,1,135,6|0,0:0|0:0,0:0:0:0:
57,155,14720,1,2,0:0:0:0:
153,303,14910,1,0,0:0:0:0:
135,100,15100,1,2,0:0:0:0:
155,322,15480,1,2,0:0:0:0:
132,75,15670,2,0,B|183:69|183:69|212:78|212:78|270:70,1,135,2|0,0:3|0:0,0:0:0:0:
284,40,16049,6,0,L|185:50,1,90,2|0,0:0|0:0,0:0:0:0:
352,159,16429,2,0,P|391:102|385:36,1,135,2|0,0:0|0:0,0:0:0:0:
363,10,16809,1,0,0:0:0:0:
352,159,16999,2,0,P|352:209|364:253,1,90,2|2,0:0|3:0,0:0:0:0:
376,280,17283,1,0,0:3:0:0:
403,302,17378,6,0,L|505:286,1,90,2|0,0:0|0:0,0:0:0:0:
288,326,17758,1,2,0:0:0:0:
436,197,17948,1,0,0:0:0:0:
266,346,18138,1,2,0:0:0:0:
455,183,18518,1,2,0:0:0:0:
266,346,18707,2,0,B|256:289|256:289|272:211,1,135,2|0,3:0|0:0,0:0:0:0:
248,185,19087,6,0,L|225:284,1,90,0|2,0:0|0:0,0:0:0:0:
78,303,19467,2,0,B|127:303|121:325|182:327,1,90
266,346,19847,1,2,0:0:0:0:
228,156,20037,1,8,0:0:0:0:
404,220,20226,2,0,L|354:266,1,45
266,346,20416,5,4,0:0:0:0:
237,205,20606,1,0,0:0:0:0:
233,180,20700,1,0,0:0:0:0:
228,156,20796,1,8,0:0:0:0:
164,326,20986,1,0,0:0:0:0:
292,259,21176,1,2,0:0:0:0:
124,237,21366,1,2,0:0:0:0:
256,369,21556,1,8,0:0:0:0:
233,180,21745,1,2,0:0:0:0:
41,191,21935,6,0,P|78:226|138:235,1,99.0000030212403
233,180,22315,2,0,P|196:145|136:136,1,99.0000030212403,8|0,0:0|0:0,0:0:0:0:
55,265,22695,1,2,0:0:0:0:
26,113,22885,1,2,0:0:0:0:
48,290,23075,1,8,0:0:0:0:
150,134,23264,1,0,0:0:0:0:
212,267,23454,6,0,P|286:257|327:188,1,148.50000453186,4|0,0:0|0:0,0:0:0:0:
317,160,23834,1,8,0:0:0:0:
170,110,24024,1,0,0:0:0:0:
212,267,24214,1,2,0:0:0:0:
260,76,24404,1,2,0:0:0:0:
153,197,24594,1,8,0:0:0:0:
99,43,24783,1,0,0:0:0:0:
99,43,24878,1,0,0:0:0:0:
99,43,24973,6,0,P|80:92|83:142,1,99.0000030212403,0|2,0:0|0:0,0:0:0:0:
276,180,25353,1,8,0:0:0:0:
153,197,25543,2,0,L|268:181,1,99.0000030212403
60,227,25923,1,0,0:0:0:0:
52,260,26017,1,0,0:0:0:0:
56,294,26112,1,8,0:0:0:0:
71,325,26207,1,0,0:0:0:0:
97,348,26302,2,0,L|154:337,1,49.5000015106202,2|0,0:0|0:0,0:0:0:0:
272,259,26492,6,0,B|223:268|223:268|175:264|175:264|118:274,1,148.50000453186,2|0,0:0|0:0,0:0:0:0:
125,272,26872,1,0,0:0:0:0:
349,315,27062,2,0,L|251:335,1,99.0000030212403,2|8,0:0|0:0,0:0:0:0:
372,168,27632,1,2,0:0:0:0:
478,355,27821,2,0,P|489:296|442:222,1,148.50000453186
444,223,28201,6,0,L|454:98,1,99.0000030212403
312,69,28581,2,0,P|269:95|260:142,1,99.0000030212403,0|8,0:0|0:0,0:0:0:0:
334,287,28961,1,2,0:0:0:0:
372,168,29151,1,2,0:0:0:0:
322,320,29340,1,0,0:0:0:0:
197,220,29530,6,0,L|87:233,1,99.0000030212403,2|0,0:0|0:0,0:0:0:0:
61,216,29815,1,0,0:0:0:0:
61,216,29910,2,0,P|77:168|122:141,1,99.0000030212403
277,221,30290,2,0,P|261:269|216:296,1,99.0000030212403,8|0,0:0|0:0,0:0:0:0:
92,355,30670,1,2,0:0:0:0:
147,154,30859,1,0,0:0:0:0:
92,355,31049,6,0,L|77:257,1,99.0000030212403,2|0,0:0|0:0,0:0:0:0:
44,233,31334,1,0,0:0:0:0:
44,233,31429,2,0,P|22:188|27:111,1,99.0000030212403
104,29,31809,1,8,0:0:0:0:
258,90,31999,1,2,0:0:0:0:
172,290,32189,1,2,0:0:0:0:
165,256,32283,1,0,0:0:0:0:
159,222,32378,1,0,0:0:0:0:
153,188,32473,1,0,0:0:0:0:
147,154,32568,6,0,L|179:64,1,90,2|0,0:0|0:0,0:0:0:0:
292,175,32948,1,0,0:0:0:0:
302,28,33138,1,0,0:0:0:0:
289,207,33328,2,0,P|290:251|304:307,1,90,2|0,0:0|0:0,0:0:0:0:
438,237,33707,1,0,0:0:0:0:
353,106,33897,1,0,0:0:0:0:
450,212,34087,6,0,P|463:165|463:101,1,90,2|0,0:0|0:0,0:0:0:0:
421,24,34467,1,0,0:0:0:0:
353,106,34657,1,0,0:0:0:0:
251,103,34847,2,0,P|206:115|147:104,1,90,2|0,0:0|0:0,0:0:0:0:
75,46,35226,1,0,0:0:0:0:
201,32,35416,1,0,0:0:0:0:
181,183,35606,6,0,P|224:183|278:167,1,90,2|0,0:0|0:0,0:0:0:0:
303,36,35986,1,0,0:0:0:0:
368,128,36176,1,0,0:0:0:0:
257,259,36366,2,0,P|257:214|269:170,1,90,2|0,0:0|0:0,0:0:0:0:
368,128,36745,1,0,0:0:0:0:
428,238,36935,1,0,0:0:0:0:
333,226,37125,6,0,L|165:207,1,135,2|0,0:0|0:0,0:0:0:0:
162,206,37505,1,0,0:0:0:0:
108,364,37695,2,0,P|99:320|112:278,1,90
81,135,38075,1,0,0:0:0:0:
248,122,38264,1,0,0:0:0:0:
242,116,38359,1,0,0:0:0:0:
235,108,38454,2,0,L|201:72,1,45,2|0,3:0|0:0,0:0:0:0:
104,40,38644,6,0,L|126:187,1,135,2|0,0:0|0:0,0:0:0:0:
116,209,39024,1,0,0:0:0:0:
186,323,39214,2,0,P|230:336|280:321,1,90,0|2,0:0|0:0,0:0:0:0:
333,226,39594,1,0,0:0:0:0:
372,334,39783,1,0,0:0:0:0:
301,209,39973,6,0,L|319:83,1,90,2|2,3:0|0:0,0:0:0:0:
422,254,40353,2,0,L|409:343,1,90,0|2,0:0|0:0,0:0:0:0:
271,325,40733,2,0,P|199:277|190:187,1,180
301,209,41302,1,0,0:0:0:0:
288,350,41492,1,0,0:0:0:0:
310,179,41682,6,0,P|292:121|251:77,1,90,2|0,0:0|0:0,0:0:0:0:
105,103,42062,2,0,P|143:79|187:69,1,90,2|0,0:0|0:0,0:0:0:0:
153,272,42442,2,0,L|189:189,1,90,2|0,0:0|0:0,0:0:0:0:
260,16,42821,1,0,0:0:0:0:
19,88,43011,2,0,P|23:125|48:171,1,90,2|0,3:0|0:0,0:0:0:0:
245,130,43391,5,0,0:0:0:0:
105,103,43581,1,2,0:0:0:0:
278,140,43771,1,0,0:0:0:0:
193,14,43961,1,2,0:0:0:0:
143,182,44151,2,0,L|155:291,1,90
152,271,44720,6,0,L|134:104,1,161.999995056153,4|0,0:0|0:0,0:0:0:0:
128,66,45100,1,8,0:0:0:0:
258,164,45290,1,0,0:0:0:0:
98,164,45480,1,2,0:0:0:0:
212,37,45670,1,2,0:0:0:0:
268,182,45859,2,0,P|271:241|253:296,1,107.999996704102,8|0,0:0|0:0,0:0:0:0:
320,345,46239,6,0,B|400:324|399:369|496:332,1,161.999995056153,2|0,0:0|0:0,0:0:0:0:
508,304,46619,1,8,0:0:0:0:
383,262,46809,2,0,P|325:262|265:284,1,107.999996704102,0|2,0:0|0:0,0:0:0:0:
167,360,47189,1,2,0:0:0:0:
73,260,47378,1,8,0:0:0:0:
167,360,47568,1,0,0:0:0:0:
165,333,47662,1,0,0:0:0:0:
163,306,47758,6,0,P|119:265|56:265,1,107.999996704102,2|0,0:0|0:0,0:0:0:0:
0,369,48138,2,0,B|58:364|58:364|97:324,1,107.999996704102,8|0,0:0|0:0,0:0:0:0:
257,267,48518,1,2,0:0:0:0:
131,175,48707,1,2,0:0:0:0:
92,328,48897,1,8,0:0:0:0:
131,175,49087,1,0,0:0:0:0:
126,149,49181,1,0,0:0:0:0:
122,121,49277,6,0,P|149:75|215:57,1,107.999996704102,2|0,0:0|0:0,0:0:0:0:
306,119,49657,2,0,P|259:134|178:133,1,107.999996704102,8|0,0:0|0:0,0:0:0:0:
329,43,50037,1,2,0:0:0:0:
281,206,50226,1,2,0:0:0:0:
227,45,50416,1,8,0:0:0:0:
281,206,50606,1,0,0:0:0:0:
286,232,50700,1,0,0:0:0:0:
292,258,50796,6,0,B|309:308|309:308|291:363,1,107.999996704102,2|0,0:0|0:0,0:0:0:0:
185,261,51176,2,0,B|168:209|168:209|185:159,1,107.999996704102,8|0,0:0|0:0,0:0:0:0:
387,190,51556,2,0,L|240:211,1,107.999996704102,2|2,0:0|0:0,0:0:0:0:
105,327,51935,2,0,L|252:306,1,107.999996704102,8|0,0:0|0:0,0:0:0:0:
252,327,52220,1,0,0:0:0:0:
252,327,52315,6,0,P|297:304|335:342,1,107.999996704102,2|0,0:0|0:0,0:0:0:0:
469,201,52695,2,0,P|424:224|386:186,1,107.999996704102,8|0,0:0|0:0,0:0:0:0:
306,111,53075,1,2,0:0:0:0:
387,190,53264,1,2,0:0:0:0:
277,280,53454,1,8,0:0:0:0:
293,194,53644,1,0,0:0:0:0:
335,334,53834,6,0,P|259:355|203:300,1,161.999995056153,2|0,0:0|0:0,0:0:0:0:
197,259,54214,1,8,0:0:0:0:
423,335,54404,2,0,P|406:285|355:250,1,107.999996704102,0|2,0:0|0:0,0:0:0:0:
335,334,54783,1,2,0:0:0:0:
392,170,54973,1,8,0:0:0:0:
192,215,55163,6,0,P|245:217|292:192,1,107.999996704102,0|2,0:0|0:0,0:0:0:0:
308,37,55543,1,2,0:0:0:0:
392,170,55733,1,8,0:0:0:0:
251,109,55923,1,0,0:0:0:0:
392,84,56113,1,0,0:0:0:0:
292,192,56302,1,2,0:0:0:0:
494,138,56492,1,8,0:0:0:0:
495,162,56872,6,0,P|486:211|469:253,1,67.5000025749208,2|0,0:0|0:0,0:0:0:0:
365,339,57252,2,0,P|374:290|391:248,1,67.5000025749208,2|0,0:0|0:0,0:0:0:0:
412,169,57632,2,0,P|347:157|285:201,1,135.000005149842,8|2,0:0|0:0,0:0:0:0:
239,289,58201,1,0,0:0:0:0:
291,191,58391,6,0,L|281:105,1,67.5000025749208,2|0,0:0|0:0,0:0:0:0:
191,106,58771,2,0,L|201:20,1,67.5000025749208,2|0,0:0|0:0,0:0:0:0:
175,196,59151,2,0,P|118:166|103:97,1,135.000005149842,8|2,0:0|0:0,0:0:0:0:
175,196,59720,1,0,0:0:0:0:
97,253,59910,6,0,B|106:287|106:287|94:332,1,67.5000025749208,2|0,0:0|0:0,0:0:0:0:
239,354,60290,2,0,B|230:320|230:320|242:275,1,67.5000025749208,2|0,0:0|0:0,0:0:0:0:
438,302,60670,2,0,B|375:307|375:307|360:319|360:319|287:322,1,135.000005149842,8|2,0:0|0:0,0:0:0:0:
250,211,61239,1,0,0:0:0:0:
368,238,61429,6,0,L|445:233,1,67.5000025749208,2|0,0:0|0:0,0:0:0:0:
440,154,61809,2,0,L|517:159,1,67.5000025749208,2|0,0:0|0:0,0:0:0:0:
433,65,62189,2,0,P|374:90|357:178,1,135.000005149842,8|2,0:0|0:0,0:0:0:0:
433,65,62758,1,0,0:0:0:0:
424,218,62948,6,0,P|438:180|437:131,1,67.5000025749208,2|0,0:0|0:0,0:0:0:0:
433,65,63328,2,0,L|282:75,1,135.000005149842,2|8,0:0|0:0,0:0:0:0:
213,138,63897,1,0,0:0:0:0:
203,49,64087,1,2,0:0:0:0:
303,169,64277,6,0,L|290:255,1,67.5000025749208,0|2,0:0|0:0,0:0:0:0:
209,279,64657,2,0,L|222:365,1,67.5000025749208,0|2,0:0|0:0,0:0:0:0:
355,310,65037,1,0,0:0:0:0:
205,244,65226,1,8,0:0:0:0:
301,374,65416,1,0,0:0:0:0:
292,235,65606,2,0,B|307:178|274:178|298:112,1,101.250003862381,2|0,0:0|0:0,0:0:0:0:
308,113,65986,6,0,P|357:95|411:111,1,101.250003862381,2|0,0:0|0:0,0:0:0:0:
424,122,66366,1,2,0:0:0:0:
372,261,66556,1,0,0:0:0:0:
362,167,66745,2,0,L|347:24,1,135.000005149842,8|2,0:0|0:0,0:0:0:0:
455,196,67315,1,0,0:0:0:0:
350,275,67505,6,0,P|306:267|274:240,1,67.5000025749208,2|0,0:0|0:0,0:0:0:0:
266,170,67885,2,0,P|291:133|329:115,1,67.5000025749208,2|0,0:0|0:0,0:0:0:0:
347,196,68264,2,0,L|220:226,1,101.250003862381,8|0,0:0|0:0,0:0:0:0:
221,223,68644,1,2,0:0:0:0:
194,219,68738,1,0,0:0:0:0:
171,206,68833,1,0,0:0:0:0:
154,185,68928,1,0,0:0:0:0:
147,154,69024,6,0,P|104:142|63:160,1,90,4|0,0:0|0:0,0:0:0:0:
227,130,69404,2,0,P|270:142|311:124,1,90,2|0,0:0|0:0,0:0:0:0:
162,45,69783,1,2,0:0:0:0:
159,34,70163,1,2,0:0:0:0:
194,219,70353,1,0,0:0:0:0:
264,68,70543,6,0,L|269:24,2,45,2|0|0,0:0|0:0|0:0,0:0:0:0:
299,291,70923,2,0,L|306:156,1,135,2|0,0:0|0:0,0:0:0:0:
310,124,71302,1,2,0:0:0:0:
109,216,71492,1,0,0:0:0:0:
171,45,71682,2,0,P|187:89|195:133,1,90,8|0,0:0|0:0,0:0:0:0:
191,163,71967,1,0,0:0:0:0:
194,194,72062,6,0,L|207:255,2,45,2|0|0,0:0|0:0|0:0,0:0:0:0:
92,111,72442,1,2,0:0:0:0:
197,16,72632,1,0,0:0:0:0:
310,124,72821,1,2,0:0:0:0:
324,134,73201,1,8,0:0:0:0:
78,101,73391,1,0,0:0:0:0:
277,59,73581,6,0,P|317:52|368:78,1,90,2|0,0:0|0:0,0:0:0:0:
429,164,73961,2,0,P|389:171|338:145,1,90,2|0,0:0|0:0,0:0:0:0:
464,73,74340,1,2,0:0:0:0:
464,73,74435,1,0,0:0:0:0:
464,73,74530,1,0,0:0:0:0:
393,265,74720,1,8,0:0:0:0:
387,287,75100,6,0,P|377:238|386:183,1,90,2|0,0:0|0:0,0:0:0:0:
464,73,75480,2,0,P|474:122|465:177,1,90,2|0,0:0|0:0,0:0:0:0:
297,226,75859,1,2,0:0:0:0:
290,248,76239,1,8,0:0:0:0:
334,71,76429,1,0,0:0:0:0:
334,71,76524,1,0,0:0:0:0:
334,71,76619,6,0,P|277:73|243:93,1,90,2|0,0:0|0:0,0:0:0:0:
381,198,76999,1,0,0:0:0:0:
307,140,77189,2,0,L|156:122,1,135,2|0,0:0|0:0,0:0:0:0:
141,119,77568,1,0,0:0:0:0:
223,213,77758,1,8,0:0:0:0:
173,23,77948,1,2,0:0:0:0:
50,191,78138,5,8,0:0:0:0:
111,325,78328,1,2,0:0:0:0:
166,145,78518,5,8,0:0:0:0:
195,341,78707,1,2,0:0:0:0:
299,151,78897,5,8,0:0:0:0:
262,384,79087,1,2,0:0:0:0:
404,221,79277,6,0,L|443:198,1,45,8|0,0:0|0:0,0:0:0:0:
275,301,79467,1,8,0:0:0:0:
275,301,79847,5,8,0:0:0:0:
322,10,80037,1,8,0:0:0:0:
241,201,80226,5,2,0:0:0:0:
241,201,80417,2,0,P|245:167|257:136,1,67.5000025749208,2|0,0:0|0:0,0:0:0:0:
349,89,80797,2,0,P|345:55|334:24,1,67.5000025749208,2|0,0:0|0:0,0:0:0:0:
423,168,81176,6,0,P|371:195|315:187,1,112.5,4|0,0:0|0:0,0:0:0:0:
198,80,81556,1,8,0:0:0:0:
349,89,81745,1,2,0:0:0:0:
349,89,81840,1,0,0:0:0:0:
349,89,81935,1,2,3:0:0:0:
312,219,82125,1,2,0:0:0:0:
357,52,82315,1,8,0:0:0:0:
178,109,82505,2,0,L|94:100,1,56.25
240,164,82695,5,2,0:0:0:0:
218,45,82885,1,0,0:0:0:0:
142,180,83075,2,0,B|154:230|154:230|166:234|166:234|187:311,1,112.5,8|0,0:0|0:0,0:0:0:0:
243,358,83454,1,2,0:0:0:0:
95,317,83644,1,2,0:0:0:0:
231,188,83834,1,8,0:0:0:0:
76,238,84024,2,0,L|61:183,1,56.25
39,101,84214,6,0,P|94:97|136:135,1,112.5,4|0,0:0|0:0,0:0:0:0:
181,282,84594,1,8,0:0:0:0:
91,358,84783,1,2,0:0:0:0:
91,358,84878,1,0,0:0:0:0:
91,358,84973,1,2,3:0:0:0:
157,207,85163,1,2,0:0:0:0:
206,360,85353,1,8,0:0:0:0:
346,317,85543,6,0,P|314:274|260:291,1,112.5,2|2,0:0|0:0,0:0:0:0:
283,363,85923,1,0,0:0:0:0:
336,206,86113,1,8,0:0:0:0:
181,282,86302,1,0,0:0:0:0:
358,330,86492,2,0,B|412:326|412:326|450:316|465:286,1,112.5,2|2,0:0|0:0,0:0:0:0:
454,178,86872,1,8,0:0:0:0:
336,206,87062,2,0,L|350:280,1,56.25
283,363,87252,6,0,B|271:286|271:286|247:253,1,112.5,4|0,0:0|0:0,0:0:0:0:
124,338,87632,1,8,0:0:0:0:
229,238,87821,1,2,0:0:0:0:
161,122,88011,1,2,3:0:0:0:
161,122,88106,1,0,0:0:0:0:
161,122,88201,1,2,0:0:0:0:
51,207,88391,1,8,0:0:0:0:
186,134,88581,6,0,B|259:154|259:154|285:146|283:119,1,112.5,0|2,0:0|0:0,0:0:0:0:
297,222,88961,2,0,P|343:186|358:125,1,112.5,0|8,0:0|0:0,0:0:0:0:
227,57,89340,2,0,P|155:57|115:182,1,168.75,2|0,0:0|0:0,0:0:0:0:
110,164,89720,1,2,0:0:0:0:
223,309,89910,1,8,0:0:0:0:
207,195,90100,1,0,0:0:0:0:
9,307,90290,6,0,L|135:267,1,112.5,4|0,0:0|0:0,0:0:0:0:
207,195,90670,1,8,0:0:0:0:
330,343,90859,2,0,L|204:302,1,112.5,4|0,0:0|0:0,0:0:0:0:
207,195,91239,1,0,0:0:0:0:
191,81,91429,1,8,0:0:0:0:
50,219,91619,1,4,0:0:0:0:
50,219,91999,5,2,0:0:0:0:
140,136,92189,1,8,0:0:0:0:
131,293,92378,1,0,0:0:0:0:
46,192,92568,1,0,1:0:0:0:
42,164,92662,1,0,1:0:0:0:
39,136,92757,1,0,1:0:0:0:
35,108,92852,1,0,1:0:0:0:
32,80,92948,2,0,L|112:58,1,56.25,0|0,1:0|1:0,0:0:0:0:
226,116,93138,2,0,L|171:130,1,56.25,0|0,1:0|0:0,0:0:0:0:
126,238,93328,6,0,B|241:202|241:202|261:218|290:222,1,168.75,4|0,0:0|0:0,0:0:0:0:
317,230,93707,1,8,0:0:0:0:
278,46,93897,2,0,P|308:94|304:152,1,112.5,2|2,0:0|0:0,0:0:0:0:
264,294,94277,1,2,0:0:0:0:
184,174,94467,1,8,0:0:0:0:
190,375,94657,6,0,P|174:323|171:239,1,112.5
317,230,95037,1,0,0:0:0:0:
144,179,95226,1,8,0:0:0:0:
355,214,95416,2,0,P|379:163|383:97,1,112.5,2|2,0:0|0:0,0:0:0:0:
226,116,95796,1,2,0:0:0:0:
296,255,95986,1,8,0:0:0:0:
368,72,96176,1,0,0:0:0:0:
283,231,96366,6,0,B|197:249|197:206|103:244,1,168.75,4|0,0:0|0:0,0:0:0:0:
88,257,96745,1,8,0:0:0:0:
253,314,96935,2,0,P|316:307|366:271,1,112.5,2|2,0:0|0:0,0:0:0:0:
238,162,97315,1,2,0:0:0:0:
173,302,97505,1,8,0:0:0:0:
123,94,97695,1,4,0:0:0:0:
112,66,98075,5,2,0:0:0:0:
127,226,98264,1,8,0:0:0:0:
200,102,98454,1,2,0:0:0:0:
65,149,98644,2,0,L|-24:171,2,56.25,2|0|0,0:0|0:0|0:0,0:0:0:0:
202,200,99024,1,8,0:0:0:0:
202,200,99119,1,0,0:0:0:0:
202,200,99214,2,0,L|274:183,1,56.25
316,246,99404,6,0,P|331:160|256:104,1,168.75,4|0,0:0|0:0,0:0:0:0:
243,103,99783,1,8,0:0:0:0:
217,315,99973,1,2,0:0:0:0:
169,210,100163,5,8,0:0:0:0:
343,265,100353,1,2,0:0:0:0:
305,349,100543,5,8,0:0:0:0:
256,187,100733,1,2,0:0:0:0:
425,168,100923,6,0,L|410:370,1,168.75,4|0,0:0|0:0,0:0:0:0:
410,370,101302,1,8,0:0:0:0:
339,167,101492,1,2,0:0:0:0:
305,349,101682,5,8,0:0:0:0:
463,261,101872,1,2,0:0:0:0:
265,224,102062,5,8,0:0:0:0:
410,370,102252,1,2,0:0:0:0:
427,139,102442,5,4,0:0:0:0:
427,139,102632,1,4,0:0:0:0:
372,244,103011,1,4,0:0:0:0:
329,98,103391,5,4,0:0:0:0:
278,276,103581,1,4,0:0:0:0:
494,349,103771,1,4,0:0:0:0:
494,349,105480,5,0,0:0:0:0:
399,176,105670,1,0,0:0:0:0:
446,360,105859,1,0,0:0:0:0:
512,221,106049,1,0,0:0:0:0:
405,368,106239,5,0,0:0:0:0:
360,359,106333,1,0,0:0:0:0:
316,350,106428,1,0,0:0:0:0:
272,341,106523,1,0,0:0:0:0:
231,333,106619,2,0,L|207:258,1,56.25
176,140,106809,1,0,0:0:0:0:
176,140,106904,1,0,0:0:0:0:
176,140,106999,6,0,P|108:171|90:211,1,112.5
127,317,107378,2,0,P|197:343|238:327,1,112.5
313,205,107758,1,0,0:0:0:0:
169,243,107948,1,0,0:0:0:0:
169,243,108043,1,0,0:0:0:0:
169,243,108138,1,0,0:0:0:0:
272,341,108328,2,0,P|261:309|260:265,1,56.25
312,204,108518,5,0,0:0:0:0:
272,341,108708,1,0,0:0:0:0:
226,149,108897,2,0,B|269:97|336:109|336:109|345:82|377:61,1,168.75
387,50,109277,1,0,0:0:0:0:
312,204,109467,1,0,0:0:0:0:
409,129,109657,1,0,0:0:0:0:
413,275,109847,2,0,L|403:219,1,56.25
472,322,110037,6,0,P|422:348|361:331,1,112.5
224,352,110416,1,0,0:0:0:0:
134,205,110606,1,0,0:0:0:0:
158,215,110700,1,0,0:0:0:0:
183,228,110795,1,0,0:0:0:0:
346,315,110986,1,0,0:0:0:0:
224,352,111176,1,0,0:0:0:0:
312,204,111366,6,0,B|301:164|301:164|318:131|315:75,1,112.5
397,174,111745,1,0,0:0:0:0:
234,116,111935,1,0,0:0:0:0:
398,77,112125,1,0,0:0:0:0:
387,50,112220,1,0,0:0:0:0:
367,30,112314,1,0,0:0:0:0:
220,61,112505,2,0,P|223:89|238:123,1,56.25
231,195,112695,1,0,0:0:0:0:
227,228,112789,1,0,0:0:0:0:
208,256,112884,1,0,0:0:0:0:
179,272,112979,1,0,0:0:0:0:
142,278,113075,6,0,B|95:257|77:289|20:248,1,112.5
26,223,113359,1,0,0:0:0:0:
31,189,113454,2,0,P|56:135|128:109,1,112.5
208,256,113834,2,0,B|199:210|199:210|210:140|210:140|201:88,1,168.75
193,56,114214,1,0,0:0:0:0:
116,198,114404,6,0,L|141:320,1,112.5
302,323,114783,2,0,L|279:212,1,112.5
100,110,115163,1,0,0:0:0:0:
267,192,115353,1,0,0:0:0:0:
187,27,115543,1,0,0:0:0:0:
422,33,115733,2,0,B|361:52|361:52|328:79|328:79|240:105,1,168.75
236,107,116113,6,0,P|192:138|177:207,1,112.5
178,225,116397,1,0,0:0:0:0:
178,225,116492,2,0,P|127:247|66:238,1,112.5
267,192,116872,2,0,B|328:215|370:182|370:182|411:196|425:227,1,168.75
424,249,117252,1,0,0:0:0:0:
309,102,117442,1,0,0:0:0:0:
227,282,117632,6,0,P|277:302|339:302,1,112.5
414,180,118011,1,0,0:0:0:0:
435,290,118201,1,0,0:0:0:0:
311,201,118391,1,0,0:0:0:0:
309,161,118485,1,0,0:0:0:0:
323,125,118580,1,0,0:0:0:0:
349,95,118675,1,0,0:0:0:0:
384,78,118771,1,0,0:0:0:0:
345,85,118865,1,0,0:0:0:0:
306,81,118960,1,0,0:0:0:0:
269,68,119055,1,0,0:0:0:0:
237,46,119151,6,0,P|181:42|137:75,1,112.5
114,189,119530,2,0,P|170:193|214:160,1,112.5
57,115,119910,1,0,0:0:0:0:
85,277,120100,1,0,0:0:0:0:
51,85,120290,1,0,0:0:0:0:
213,160,120480,1,0,0:0:0:0:
213,160,120575,1,0,0:0:0:0:
213,160,120670,5,0,0:0:0:0:
26,201,120859,1,0,0:0:0:0:
26,201,120954,1,0,0:0:0:0:
26,201,121049,1,0,0:0:0:0:
94,304,121239,1,0,0:0:0:0:
57,115,121429,1,0,0:0:0:0:
181,161,121619,1,0,0:0:0:0:
12,284,121809,1,0,0:0:0:0:
181,161,121999,1,0,0:0:0:0:
181,161,122094,1,0,0:0:0:0:
181,161,122189,6,0,P|180:246|121:308,1,168.75
94,304,122568,1,0,0:0:0:0:
169,127,122758,1,0,0:0:0:0:
368,224,122948,1,0,0:0:0:0:
262,37,123138,1,0,0:0:0:0:
234,235,123328,1,0,0:0:0:0:
380,96,123518,1,0,0:0:0:0:
412,106,123612,1,0,0:0:0:0:
444,116,123707,5,0,0:0:0:0:
424,303,123897,1,0,0:0:0:0:
391,313,123991,1,0,0:0:0:0:
359,323,124086,1,0,0:0:0:0:
266,225,124277,1,0,0:0:0:0:
176,320,124467,1,0,0:0:0:0:
330,331,124657,1,0,0:0:0:0:
363,195,124847,1,0,0:0:0:0:
330,205,124941,1,0,0:0:0:0:
298,215,125036,1,0,0:0:0:0:
266,225,125131,1,0,0:0:0:0:
234,235,125226,6,0,P|209:185|210:130,1,112.5
199,96,125511,1,0,0:0:0:0:
171,76,125606,2,0,P|114:69|63:98,1,112.5
25,181,125986,2,0,B|59:270|7:269|44:357,1,168.75
59,373,126366,1,0,0:0:0:0:
112,282,126556,6,0,P|119:219|95:150,1,112.5
171,76,126935,2,0,P|234:83|303:59,1,112.5
392,13,127315,1,0,0:0:0:0:
324,180,127505,1,0,0:0:0:0:
311,0,127695,1,0,0:0:0:0:
428,128,127885,1,0,0:0:0:0:
250,99,128075,1,0,0:0:0:0:
467,136,128264,6,0,B|477:214|477:214|498:256,1,112.5
485,277,128549,1,0,0:0:0:0:
475,309,128644,2,0,P|441:353|388:360,1,112.5
193,312,129024,2,0,B|280:268|282:320|362:286,1,168.75
384,267,129404,1,0,0:0:0:0:
258,362,129594,6,0,P|244:297|257:226,1,112.5
329,190,129973,2,0,P|384:185|439:199,1,112.5
392,377,130353,1,0,0:0:0:0:
446,173,130543,1,0,0:0:0:0:
387,359,130733,1,0,0:0:0:0:
315,162,130923,1,0,0:0:0:0:
382,341,131113,1,0,0:0:0:0:
256,192,136202,5,0,0:0:0:0:
342,275,136391,2,0,B|361:262|379:273|379:273|391:260|404:272|404:272|466:242|431:182|431:182|463:177|484:151,1,215.999993408203
410,51,136961,1,0,0:0:0:0:
