osu file format v14

[General]
AudioFilename: audio.mp3
AudioLeadIn: 0
PreviewTime: 99401
Countdown: 0
SampleSet: None
StackLeniency: 0.7
Mode: 3
LetterboxInBreaks: 0
SpecialStyle: 0
WidescreenStoryboard: 0

[Editor]
DistanceSpacing: 0.5
BeatDivisor: 6
GridSize: 4
TimelineZoom: 0.6999999

[Metadata]
Title:secret base ~Kimi ga Kureta Mono~
TitleUnicode:secret base ~君がくれたもの~
Artist:Silent Siren
ArtistUnicode:Silent Siren
Creator:indyinyou
Version:Drum track
Source:
Tags:
BeatmapID:1106774
BeatmapSetID:521021

[Difficulty]
HPDrainRate:9
CircleSize:7
OverallDifficulty:9
ApproachRate:5
SliderMultiplier:1.4
SliderTickRate:1

[Events]
//Background and Video events
0,0,"BG.jpg",0,0
//Break Periods
2,136057,146212
2,147612,163101
//Storyboard Layer 0 (Background)
//Storyboard Layer 1 (Fail)
//Storyboard Layer 2 (Pass)
//Storyboard Layer 3 (Foreground)
//Storyboard Sound Samples

[TimingPoints]
746,888.888888888889,4,2,0,100,1,0

[HitObjects]
475,192,43412,5,0,0:0:0:45:cymbol01.wav
256,192,43412,1,0,0:0:0:70:bassdrum.wav
36,192,43412,1,0,0:0:0:35:cymbol.wav
182,192,43857,1,0,0:0:0:70:hihat01.wav
329,192,44301,1,0,0:0:0:70:snare01.wav
36,192,44301,1,0,0:0:0:70:hihat01.wav
475,192,44746,1,0,0:0:0:70:hihat01.wav
402,192,45042,1,0,0:0:0:70:bassdrum.wav
36,192,45190,1,0,0:0:0:70:hihat01.wav
402,192,45190,1,0,0:0:0:70:bassdrum.wav
182,192,45634,1,0,0:0:0:70:hihat01.wav
402,192,45634,1,0,0:0:0:70:bassdrum.wav
36,192,46079,1,0,0:0:0:70:hihat01.wav
329,192,46079,1,0,0:0:0:70:snare01.wav
475,192,46523,1,0,0:0:0:70:hihat01.wav
36,192,46968,1,0,0:0:0:70:hihat01.wav
256,192,46968,1,0,0:0:0:70:bassdrum.wav
475,192,47412,1,0,0:0:0:70:hihat01.wav
329,192,47857,1,0,0:0:0:70:snare01.wav
36,192,47857,1,0,0:0:0:70:hihat01.wav
182,192,48301,1,0,0:0:0:70:hihat01.wav
402,192,48597,1,0,0:0:0:70:bassdrum.wav
402,192,48746,1,0,0:0:0:70:bassdrum.wav
36,192,48746,1,0,0:0:0:70:hihat01.wav
402,192,49190,1,0,0:0:0:70:bassdrum.wav
182,192,49190,1,0,0:0:0:70:hihat01.wav
36,192,49634,1,0,0:0:0:70:snare01.wav
329,192,49634,1,0,0:0:0:70:hihat01.wav
182,192,50079,1,0,0:0:0:70:hihat01.wav
256,192,50523,1,0,0:0:0:70:bassdrum.wav
475,192,50523,1,0,0:0:0:70:hihat01.wav
36,192,50968,1,0,0:0:0:70:hihat01.wav
475,192,51412,1,0,0:0:0:70:hihat01.wav
182,192,51412,1,0,0:0:0:70:snare01.wav
329,192,51857,1,0,0:0:0:70:hihat01.wav
109,192,52153,1,0,0:0:0:70:bassdrum.wav
109,192,52301,1,0,0:0:0:70:bassdrum.wav
475,192,52301,1,0,0:0:0:70:hihat01.wav
109,192,52746,1,0,0:0:0:70:bassdrum.wav
329,192,52746,1,0,0:0:0:70:hihat01.wav
475,192,53190,1,0,0:0:0:70:hihat01.wav
182,192,53190,1,0,0:0:0:70:snare01.wav
329,192,53634,1,0,0:0:0:70:hihat01.wav
36,192,54079,1,0,0:0:0:70:hihat01.wav
256,192,54079,1,0,0:0:0:70:bassdrum.wav
475,192,54523,1,0,0:0:0:70:hihat01.wav
36,192,54968,1,0,0:0:0:70:hihat01.wav
329,192,54968,1,0,0:0:0:70:snare01.wav
182,192,55412,1,0,0:0:0:70:hihat01.wav
402,192,55708,1,0,0:0:0:70:bassdrum.wav
402,192,55857,1,0,0:0:0:70:bassdrum.wav
36,192,55857,1,0,0:0:0:70:hihat01.wav
402,192,56301,1,0,0:0:0:70:bassdrum.wav
182,192,56301,1,0,0:0:0:70:hihat01.wav
36,192,56746,1,0,0:0:0:70:hihat01.wav
329,192,56746,1,0,0:0:0:70:snare01.wav
475,192,57190,1,0,0:0:0:70:hihat01.wav
36,192,57634,1,0,0:0:0:70:hihat01.wav
256,192,57634,1,0,0:0:0:70:bassdrum.wav
182,192,58079,1,0,0:0:0:70:hihat01.wav
475,192,58523,1,0,0:0:0:70:hihat01.wav
329,192,58523,1,0,0:0:0:70:snare01.wav
182,192,58968,1,0,0:0:0:70:hihat01.wav
109,192,59264,1,0,0:0:0:70:bassdrum.wav
475,192,59412,1,0,0:0:0:70:bassdrum.wav
109,192,59412,1,0,0:0:0:70:hihat01.wav
256,192,59857,1,0,0:0:0:70:bassdrum.wav
475,192,59857,1,0,0:0:0:70:hihat01.wav
475,192,60301,1,0,0:0:0:70:hihat01.wav
329,192,60301,1,0,0:0:0:70:snare01.wav
182,192,60746,1,0,0:0:0:70:hihat01.wav
36,192,61190,1,0,0:0:0:70:hihat01.wav
402,192,61190,1,0,0:0:0:70:bassdrum.wav
182,192,61634,1,0,0:0:0:70:hihat01.wav
475,192,62079,1,0,0:0:0:70:hihat01.wav
329,192,62079,1,0,0:0:0:70:snare01.wav
182,192,62523,1,0,0:0:0:70:hihat01.wav
109,192,62820,1,0,0:0:0:70:bassdrum.wav
109,192,62968,1,0,0:0:0:70:bassdrum.wav
475,192,62968,1,0,0:0:0:70:hihat01.wav
256,192,63412,1,0,0:0:0:70:bassdrum.wav
475,192,63412,1,0,0:0:0:70:hihat01.wav
475,192,63857,1,0,0:0:0:70:hihat01.wav
329,192,63857,1,0,0:0:0:70:snare01.wav
182,192,64301,1,0,0:0:0:70:hihat01.wav
36,192,64746,1,0,0:0:0:70:hihat01.wav
475,192,64746,1,0,0:0:0:70:bassdrum.wav
329,192,65190,1,0,0:0:0:70:hihat01.wav
36,192,65634,1,0,0:0:0:70:hihat01.wav
182,192,65634,1,0,0:0:0:70:snare01.wav
36,192,66079,1,0,0:0:0:70:hihat01.wav
402,192,66375,1,0,0:0:0:70:bassdrum.wav
402,192,66523,1,0,0:0:0:70:bassdrum.wav
36,192,66523,1,0,0:0:0:70:hihat01.wav
256,192,66968,1,0,0:0:0:70:bassdrum.wav
36,192,66968,1,0,0:0:0:70:hihat01.wav
36,192,67412,1,0,0:0:0:70:hihat01.wav
182,192,67412,1,0,0:0:0:70:snare01.wav
329,192,67857,1,0,0:0:0:70:hihat01.wav
256,192,68301,1,0,0:0:0:70:bassdrum.wav
475,192,68301,1,0,0:0:0:70:hihat01.wav
36,192,68746,1,0,0:0:0:70:hihat01.wav
475,192,69190,1,0,0:0:0:70:hihat01.wav
329,192,69190,1,0,0:0:0:70:snare01.wav
182,192,69634,1,0,0:0:0:70:hihat01.wav
109,192,69931,1,0,0:0:0:70:bassdrum.wav
109,192,70079,1,0,0:0:0:70:bassdrum.wav
475,192,70079,1,0,0:0:0:70:hihat01.wav
182,192,70523,1,0,0:0:0:35:tom01.wav
329,192,70523,1,0,0:0:0:70:snare.wav
182,192,70968,1,0,0:0:0:35:tom01.wav
329,192,70968,1,0,0:0:0:70:snare.wav
109,192,71264,1,0,0:0:0:70:tom01.wav
402,192,71264,1,0,0:0:0:70:bassdrum.wav
182,192,71412,1,0,0:0:0:70:tom02.wav
329,192,71412,1,0,0:0:0:70:bassdrum.wav
256,192,71857,1,0,0:0:0:70:bassdrum.wav
36,192,71857,1,0,0:0:0:35:cymbol.wav
475,192,71857,1,0,0:0:0:45:cymbol01.wav
182,192,72301,1,0,0:0:0:70:hihat01.wav
329,192,72746,1,0,0:0:0:70:snare.wav
36,192,72746,1,0,0:0:0:70:hihat01.wav
182,192,73190,1,0,0:0:0:70:hihat01.wav
475,192,73486,1,0,0:0:0:70:bassdrum.wav
329,192,73634,1,0,0:0:0:70:bassdrum.wav
36,192,73634,1,0,0:0:0:70:hihat01.wav
402,192,74079,1,0,0:0:0:70:bassdrum.wav
182,192,74079,1,0,0:0:0:70:hihat01.wav
329,192,74523,1,0,0:0:0:70:snare.wav
36,192,74523,1,0,0:0:0:70:hihat01.wav
182,192,74968,1,0,0:0:0:70:hihat01.wav
475,192,75412,1,0,0:0:0:70:hihat01.wav
256,192,75412,1,0,0:0:0:70:bassdrum.wav
182,192,75857,1,0,0:0:0:70:hihat01.wav
329,192,76301,1,0,0:0:0:70:snare.wav
36,192,76301,1,0,0:0:0:70:hihat01.wav
182,192,76746,1,0,0:0:0:70:hihat01.wav
475,192,77042,1,0,0:0:0:70:bassdrum.wav
329,192,77190,1,0,0:0:0:70:bassdrum.wav
36,192,77190,1,0,0:0:0:70:hihat01.wav
402,192,77634,1,0,0:0:0:70:bassdrum.wav
182,192,77634,1,0,0:0:0:70:hihat01.wav
329,192,78079,1,0,0:0:0:70:snare.wav
36,192,78079,1,0,0:0:0:70:hihat01.wav
182,192,78523,1,0,0:0:0:70:hihat01.wav
475,192,78968,1,0,0:0:0:70:hihat01.wav
256,192,78968,1,0,0:0:0:70:bassdrum.wav
36,192,79412,1,0,0:0:0:70:hihat01.wav
182,192,79857,1,0,0:0:0:70:snare.wav
475,192,79857,1,0,0:0:0:70:hihat01.wav
329,192,80301,1,0,0:0:0:70:hihat01.wav
36,192,80597,1,0,0:0:0:70:bassdrum.wav
182,192,80746,1,0,0:0:0:70:bassdrum.wav
475,192,80746,1,0,0:0:0:70:hihat01.wav
109,192,81190,1,0,0:0:0:70:bassdrum.wav
329,192,81190,1,0,0:0:0:70:hihat01.wav
182,192,81634,1,0,0:0:0:70:snare.wav
475,192,81634,1,0,0:0:0:70:hihat01.wav
329,192,82079,1,0,0:0:0:70:hihat01.wav
36,192,82523,1,0,0:0:0:70:hihat01.wav
256,192,82523,1,0,0:0:0:70:bassdrum.wav
329,192,82968,1,0,0:0:0:70:hihat01.wav
182,192,83412,1,0,0:0:0:70:snare.wav
475,192,83412,1,0,0:0:0:70:hihat01.wav
329,192,83857,1,0,0:0:0:70:hihat01.wav
36,192,84153,1,0,0:0:0:70:bassdrum.wav
182,192,84301,1,0,0:0:0:70:bassdrum.wav
475,192,84301,1,0,0:0:0:70:hihat01.wav
402,192,84746,1,0,0:0:0:70:snare.wav
109,192,84746,1,0,0:0:0:35:tom01.wav
402,192,85190,1,0,0:0:0:70:snare.wav
109,192,85190,1,0,0:0:0:35:tom01.wav
36,192,85486,1,0,0:0:0:70:tom01.wav
475,192,85486,1,0,0:0:0:70:bassdrum.wav
182,192,85634,1,0,0:0:0:70:tom02.wav
329,192,85634,1,0,0:0:0:70:bassdrum.wav
402,192,85931,1,0,0:0:0:70:bassdrum.wav
109,192,85931,1,0,0:0:0:70:tom01.wav
256,192,86079,1,0,0:0:0:70:bassdrum.wav
36,192,86079,1,0,0:0:0:35:cymbol.wav
475,192,86079,1,0,0:0:0:45:cymbol01.wav
182,192,86523,1,0,0:0:0:70:hihat01.wav
475,192,86968,1,0,0:0:0:70:snare.wav
36,192,86968,1,0,0:0:0:70:hihat01.wav
329,192,87412,1,0,0:0:0:70:hihat01.wav
109,192,87708,1,0,0:0:0:70:bassdrum.wav
109,192,87857,1,0,0:0:0:70:bassdrum.wav
475,192,87857,1,0,0:0:0:70:hihat01.wav
402,192,88301,1,0,0:0:0:70:bassdrum.wav
182,192,88301,1,0,0:0:0:70:hihat01.wav
329,192,88746,1,0,0:0:0:70:snare.wav
36,192,88746,1,0,0:0:0:70:hihat01.wav
182,192,89190,1,0,0:0:0:70:hihat01.wav
256,192,89634,1,0,0:0:0:70:bassdrum.wav
475,192,89634,1,0,0:0:0:70:hihat01.wav
182,192,90079,1,0,0:0:0:70:hihat01.wav
475,192,90523,1,0,0:0:0:70:snare.wav
36,192,90523,1,0,0:0:0:70:hihat01.wav
329,192,90968,1,0,0:0:0:70:hihat01.wav
109,192,91264,1,0,0:0:0:70:bassdrum.wav
109,192,91412,1,0,0:0:0:70:bassdrum.wav
475,192,91412,1,0,0:0:0:70:hihat01.wav
402,192,91857,1,0,0:0:0:70:bassdrum.wav
36,192,91857,1,0,0:0:0:70:hihat01.wav
329,192,92301,1,0,0:0:0:70:snare.wav
36,192,92301,1,0,0:0:0:70:hihat01.wav
182,192,92746,1,0,0:0:0:70:hihat01.wav
475,192,93190,1,0,0:0:0:70:hihat01.wav
256,192,93190,1,0,0:0:0:70:bassdrum.wav
109,192,93634,1,0,0:0:0:70:hihat01.wav
329,192,94079,1,0,0:0:0:70:snare.wav
182,192,94079,1,0,0:0:0:70:hihat01.wav
475,192,94523,1,0,0:0:0:70:hihat01.wav
402,192,94820,1,0,0:0:0:70:bassdrum.wav
402,192,94968,1,0,0:0:0:70:bassdrum.wav
36,192,94968,1,0,0:0:0:70:hihat01.wav
109,192,95412,1,0,0:0:0:70:bassdrum.wav
329,192,95412,1,0,0:0:0:70:hihat01.wav
475,192,95857,1,0,0:0:0:70:snare.wav
182,192,95857,1,0,0:0:0:70:hihat01.wav
329,192,96301,1,0,0:0:0:70:hihat01.wav
256,192,96746,1,0,0:0:0:70:bassdrum.wav
36,192,96746,1,0,0:0:0:35:cymbol.wav
475,192,96746,1,0,0:0:0:45:cymbol01.wav
329,192,97190,1,0,0:0:0:70:hihat01.wav
256,192,97486,1,0,0:0:0:70:bassdrum.wav
36,192,97634,1,0,0:0:0:70:snare.wav
402,192,97634,1,0,0:0:0:70:bassdrum.wav
182,192,97634,1,0,0:0:0:70:cymbol01.wav
109,192,98079,1,0,0:0:0:70:bassdrum.wav
402,192,98227,1,0,0:0:0:70:snare.wav
182,192,98375,1,0,0:0:0:70:snare.wav
329,192,98523,1,0,0:0:0:70:snare.wav
109,192,98671,1,0,0:0:0:70:snare.wav
402,192,98820,1,0,0:0:0:70:snare.wav
36,192,98968,1,0,0:0:0:70:tom01.wav
329,192,99116,1,0,0:0:0:70:tom02.wav
182,192,99264,1,0,0:0:0:70:tom01.wav
475,192,99412,1,0,0:0:0:70:tom02.wav
256,192,100301,1,0,0:0:0:70:bassdrum.wav
475,192,100301,1,0,0:0:0:45:cymbol01.wav
36,192,100301,1,0,0:0:0:45:cymbol.wav
36,192,100746,1,0,0:0:0:70:ride.wav
402,192,101042,1,0,0:0:0:70:bassdrum.wav
329,192,101190,1,0,0:0:0:70:snare.wav
36,192,101190,1,0,0:0:0:70:ride.wav
36,192,101634,1,0,0:0:0:70:ride.wav
36,192,102079,1,0,0:0:0:70:ride.wav
402,192,102523,1,0,0:0:0:70:bassdrum.wav
36,192,102523,1,0,0:0:0:70:ride.wav
329,192,102968,1,0,0:0:0:70:snare.wav
36,192,102968,1,0,0:0:0:70:ride.wav
329,192,103264,1,0,0:0:0:70:snare.wav
36,192,103412,1,0,0:0:0:70:ride.wav
329,192,103708,1,0,0:0:0:70:snare.wav
256,192,103857,1,0,0:0:0:70:bassdrum.wav
36,192,103857,1,0,0:0:0:70:ride.wav
36,192,104301,1,0,0:0:0:70:ride.wav
329,192,104746,1,0,0:0:0:70:snare.wav
36,192,104746,1,0,0:0:0:70:ride.wav
36,192,105190,1,0,0:0:0:70:ride.wav
36,192,105634,1,0,0:0:0:70:ride.wav
402,192,106079,1,0,0:0:0:70:bassdrum.wav
36,192,106079,1,0,0:0:0:70:ride.wav
329,192,106523,1,0,0:0:0:70:snare.wav
36,192,106523,1,0,0:0:0:70:ride.wav
36,192,106968,1,0,0:0:0:70:ride.wav
256,192,107412,1,0,0:0:0:70:bassdrum.wav
36,192,107412,1,0,0:0:0:70:ride.wav
36,192,107857,1,0,0:0:0:70:ride.wav
329,192,108301,1,0,0:0:0:70:snare.wav
36,192,108301,1,0,0:0:0:70:ride.wav
36,192,108746,1,0,0:0:0:70:ride.wav
36,192,109190,1,0,0:0:0:70:ride.wav
402,192,109634,1,0,0:0:0:70:bassdrum.wav
36,192,109634,1,0,0:0:0:70:ride.wav
329,192,110079,1,0,0:0:0:70:snare.wav
36,192,110079,1,0,0:0:0:70:ride.wav
36,192,110523,1,0,0:0:0:70:ride.wav
329,192,110820,1,0,0:0:0:70:snare.wav
256,192,110968,1,0,0:0:0:70:bassdrum.wav
475,192,110968,1,0,0:0:0:45:cymbol01.wav
36,192,110968,1,0,0:0:0:35:cymbol.wav
36,192,111412,1,0,0:0:0:70:ride.wav
329,192,111857,1,0,0:0:0:70:snare.wav
36,192,111857,1,0,0:0:0:70:ride.wav
36,192,112301,1,0,0:0:0:70:ride.wav
36,192,112746,1,0,0:0:0:70:ride.wav
402,192,113190,1,0,0:0:0:70:bassdrum.wav
36,192,113190,1,0,0:0:0:70:ride.wav
329,192,113634,1,0,0:0:0:70:snare.wav
36,192,113634,1,0,0:0:0:70:ride.wav
36,192,114079,1,0,0:0:0:70:ride.wav
256,192,114523,1,0,0:0:0:70:bassdrum.wav
36,192,114523,1,0,0:0:0:35:cymbol.wav
475,192,114523,1,0,0:0:0:45:cymbol01.wav
329,192,115412,1,0,0:0:0:0:
402,192,116746,1,0,0:0:0:0:
329,192,117190,1,0,0:0:0:0:
329,192,117486,1,0,0:0:0:0:
329,192,117931,1,0,0:0:0:0:
256,192,118079,1,0,0:0:0:0:
329,192,118968,1,0,0:0:0:0:
402,192,120301,1,0,0:0:0:0:
329,192,120746,1,0,0:0:0:0:
329,192,121042,1,0,0:0:0:0:
329,192,121486,1,0,0:0:0:0:
256,192,121634,1,0,0:0:0:0:
329,192,122523,1,0,0:0:0:0:
402,192,123857,1,0,0:0:0:0:
329,192,124301,1,0,0:0:0:0:
329,192,124597,1,0,0:0:0:0:
329,192,125042,1,0,0:0:0:0:
256,192,125190,1,0,0:0:0:0:
36,192,125190,1,0,0:0:0:0:
475,192,125190,1,0,0:0:0:0:
402,192,125931,1,0,0:0:0:0:
329,192,126079,1,0,0:0:0:0:
256,192,126079,1,0,0:0:0:0:
36,192,126079,1,0,0:0:0:0:
402,192,126820,1,0,0:0:0:0:
402,192,127264,1,0,0:0:0:0:
329,192,127412,1,0,0:0:0:0:
256,192,127412,1,0,0:0:0:0:
36,192,127412,1,0,0:0:0:0:
402,192,127857,1,0,0:0:0:0:
109,192,128153,1,0,0:0:0:0:
182,192,128301,1,0,0:0:0:0:
109,192,128597,1,0,0:0:0:0:
256,192,128746,1,0,0:0:0:0:
36,192,128746,1,0,0:0:0:0:
475,192,128746,1,0,0:0:0:0:
402,192,129486,1,0,0:0:0:0:
329,192,129634,1,0,0:0:0:0:
402,192,130968,1,0,0:0:0:0:
329,192,131412,1,0,0:0:0:0:
329,192,131708,1,0,0:0:0:0:
329,192,132153,1,0,0:0:0:0:
256,192,132301,1,0,0:0:0:0:
36,192,132301,1,0,0:0:0:0:
475,192,132301,1,0,0:0:0:0:
402,192,133042,1,0,0:0:0:0:
329,192,133190,1,0,0:0:0:0:
402,192,133931,1,0,0:0:0:0:
402,192,134375,1,0,0:0:0:0:
329,192,134523,1,0,0:0:0:0:
256,192,134523,1,0,0:0:0:0:
36,192,134523,1,0,0:0:0:0:
329,192,134968,1,0,0:0:0:0:
109,192,135264,1,0,0:0:0:0:
182,192,135412,1,0,0:0:0:0:
109,192,135708,1,0,0:0:0:0:
402,192,135708,1,0,0:0:0:0:
256,192,135857,1,0,0:0:0:0:
36,192,135857,1,0,0:0:0:0:
475,192,135857,1,0,0:0:0:0:
329,192,147412,5,0,0:0:0:70:snare01.wav
36,192,164301,5,0,0:0:0:55:cymbol.wav
256,192,164301,1,0,0:0:0:70:bassdrum.wav
475,192,164301,1,0,0:0:0:45:cymbol01.wav
36,192,164746,1,0,0:0:0:70:ride.wav
402,192,165042,1,0,0:0:0:70:bassdrum.wav
329,192,165190,1,0,0:0:0:70:snare.wav
36,192,165190,1,0,0:0:0:70:ride.wav
329,192,165486,1,0,0:0:0:70:snare.wav
36,192,165634,1,0,0:0:0:70:ride.wav
402,192,166079,1,0,0:0:0:70:bassdrum.wav
36,192,166079,1,0,0:0:0:70:ride.wav
36,192,166523,1,0,0:0:0:70:ride.wav
402,192,166820,1,0,0:0:0:70:bassdrum.wav
329,192,166968,1,0,0:0:0:70:snare.wav
36,192,166968,1,0,0:0:0:70:ride.wav
329,192,167264,1,0,0:0:0:70:snare.wav
36,192,167412,1,0,0:0:0:70:ride.wav
329,192,167708,1,0,0:0:0:70:snare.wav
402,192,167857,1,0,0:0:0:70:bassdrum.wav
36,192,167857,1,0,0:0:0:70:ride.wav
36,192,168301,1,0,0:0:0:70:ride.wav
402,192,168597,1,0,0:0:0:70:bassdrum.wav
329,192,168746,1,0,0:0:0:70:snare.wav
36,192,168746,1,0,0:0:0:70:ride.wav
329,192,169042,1,0,0:0:0:70:snare.wav
36,192,169190,1,0,0:0:0:70:ride.wav
402,192,169634,1,0,0:0:0:70:bassdrum.wav
36,192,169634,1,0,0:0:0:70:ride.wav
36,192,170079,1,0,0:0:0:70:ride.wav
402,192,170375,1,0,0:0:0:70:bassdrum.wav
329,192,170523,1,0,0:0:0:70:snare.wav
36,192,170523,1,0,0:0:0:70:ride.wav
329,192,170820,1,0,0:0:0:70:snare.wav
36,192,170968,1,0,0:0:0:70:ride.wav
402,192,171412,1,0,0:0:0:70:bassdrum.wav
36,192,171412,1,0,0:0:0:70:ride.wav
36,192,171857,1,0,0:0:0:70:ride.wav
402,192,172153,1,0,0:0:0:70:bassdrum.wav
329,192,172301,1,0,0:0:0:70:snare.wav
36,192,172301,1,0,0:0:0:70:ride.wav
329,192,172597,1,0,0:0:0:70:snare.wav
36,192,172746,1,0,0:0:0:70:ride.wav
402,192,173042,1,0,0:0:0:70:bassdrum.wav
36,192,173190,1,0,0:0:0:70:ride.wav
402,192,173486,1,0,0:0:0:70:bassdrum.wav
36,192,173634,1,0,0:0:0:70:ride.wav
402,192,173931,1,0,0:0:0:70:bassdrum.wav
329,192,174079,1,0,0:0:0:70:snare.wav
36,192,174079,1,0,0:0:0:70:ride.wav
329,192,174375,1,0,0:0:0:70:snare.wav
36,192,174523,1,0,0:0:0:70:ride.wav
329,192,174820,1,0,0:0:0:70:snare.wav
36,192,174968,1,0,0:0:0:55:cymbol.wav
475,192,174968,1,0,0:0:0:55:cymbol01.wav
256,192,174968,1,0,0:0:0:70:bassdrum.wav
36,192,175412,1,0,0:0:0:70:ride.wav
402,192,175708,1,0,0:0:0:70:bassdrum.wav
329,192,175857,1,0,0:0:0:70:snare.wav
36,192,175857,1,0,0:0:0:70:ride.wav
329,192,176153,1,0,0:0:0:70:snare.wav
36,192,176301,1,0,0:0:0:70:ride.wav
402,192,176597,1,0,0:0:0:70:bassdrum.wav
36,192,176746,1,0,0:0:0:70:ride.wav
402,192,177042,1,0,0:0:0:70:bassdrum.wav
329,192,177190,1,0,0:0:0:70:snare.wav
256,192,177190,1,0,0:0:0:70:bassdrum.wav
36,192,177190,1,0,0:0:0:55:cymbol.wav
402,192,177634,1,0,0:0:0:70:bassdrum.wav
109,192,177931,1,0,0:0:0:70:tom01.wav
402,192,177931,1,0,0:0:0:70:bassdrum.wav
182,192,178079,1,0,0:0:0:70:tom02.wav
402,192,178079,1,0,0:0:0:70:bassdrum.wav
109,192,178375,1,0,0:0:0:70:tom01.wav
402,192,178375,1,0,0:0:0:70:bassdrum.wav
256,192,178523,1,0,0:0:0:70:bassdrum.wav
475,192,178523,1,0,0:0:0:55:cymbol01.wav
36,192,178523,1,0,0:0:0:55:cymbol.wav
36,192,178968,1,0,0:0:0:70:ride.wav
402,192,179264,1,0,0:0:0:70:bassdrum.wav
36,192,179412,1,0,0:0:0:70:ride.wav
329,192,179412,1,0,0:0:0:70:snare.wav
329,192,179708,1,0,0:0:0:70:snare.wav
36,192,179857,1,0,0:0:0:70:ride.wav
402,192,180153,1,0,0:0:0:70:bassdrum.wav
36,192,180301,1,0,0:0:0:70:ride.wav
402,192,180597,1,0,0:0:0:70:bassdrum.wav
36,192,180746,1,0,0:0:0:70:ride.wav
402,192,181042,1,0,0:0:0:70:bassdrum.wav
329,192,181190,1,0,0:0:0:70:snare.wav
36,192,181190,1,0,0:0:0:70:ride.wav
36,192,181634,1,0,0:0:0:70:ride.wav
329,192,181931,1,0,0:0:0:70:snare.wav
256,192,182079,1,0,0:0:0:70:bassdrum.wav
36,192,182079,1,0,0:0:0:45:cymbol.wav
475,192,182079,1,0,0:0:0:55:cymbol01.wav
