osu file format v14

[General]
AudioFilename: audio.mp3
AudioLeadIn: 0
PreviewTime: 99528
Countdown: 0
SampleSet: Soft
StackLeniency: 0.7
Mode: 1
LetterboxInBreaks: 0
WidescreenStoryboard: 0

[Editor]
Bookmarks: 730,43396,71841,99692,135841,163692,185618,220581,249618,292285
DistanceSpacing: 2
BeatDivisor: 3
GridSize: 32
TimelineZoom: 1

[Metadata]
Title:secret base ~Kimi ga Kureta Mono~
TitleUnicode:secret base ~君がくれたもの~
Artist:Silent Siren
ArtistUnicode:Silent Siren
Creator:404 AccNotFound
Version:Collabo Oni
Source:あの日見た花の名前を僕達はまだ知らない
Tags:Hachigatsu no Yoru ZONE Anohana yoshida sumire umemura hinako yamauchi aina kurosaka yukako 吉田菫 梅村妃奈子 山内あいな 黒坂優香子 Akemi_Homura
BeatmapID:1312992
BeatmapSetID:616861

[Difficulty]
HPDrainRate:5
CircleSize:5
OverallDifficulty:4
ApproachRate:5
SliderMultiplier:1.4
SliderTickRate:1

[Events]
//Background and Video events
0,0,"KakaoTalk_20170607_220929429.png",0,100
//Break Periods
//Storyboard Layer 0 (Background)
//Storyboard Layer 1 (Fail)
//Storyboard Layer 2 (Pass)
//Storyboard Layer 3 (Foreground)
//Storyboard Sound Samples

[TimingPoints]
714,444.444444444444,4,2,0,60,1,0
100269,-100,4,2,0,60,0,1
135825,-100,4,2,0,60,0,0
164269,-100,4,2,0,60,0,1
182047,-100,4,2,0,60,0,0
221158,-100,4,2,0,60,0,1
249602,-100,4,2,0,60,0,0
256713,-100,4,2,0,60,0,1
288713,-100,4,2,0,60,0,0

[HitObjects]
224,192,714,5,2,0:0:0:0:
288,288,1158,1,0,0:0:0:0:
288,256,1602,1,2,0:0:0:0:
288,256,2047,1,2,0:0:0:0:
288,256,2491,1,2,0:0:0:0:
256,256,3380,1,0,0:0:0:0:
256,256,4269,1,2,0:0:0:0:
256,256,4713,1,0,0:0:0:0:
256,256,5158,1,2,0:0:0:0:
256,256,5602,1,2,0:0:0:0:
224,224,6047,1,2,0:0:0:0:
256,128,6936,1,0,0:0:0:0:
288,128,7825,1,2,0:0:0:0:
288,128,8269,1,0,0:0:0:0:
288,128,8713,1,2,0:0:0:0:
288,128,9158,1,2,0:0:0:0:
288,128,9602,1,2,0:0:0:0:
256,128,10491,1,0,0:0:0:0:
256,128,11380,1,0,0:0:0:0:
256,160,12269,1,2,0:0:0:0:
256,160,12713,1,2,0:0:0:0:
256,160,13158,1,2,0:0:0:0:
256,160,14343,1,0,0:0:0:0:
256,160,14491,1,2,0:0:0:0:
256,160,14788,1,2,0:0:0:0:
256,160,14936,1,0,0:0:0:0:
256,160,15232,1,2,0:0:0:0:
256,160,15380,1,2,0:0:0:0:
256,160,15676,1,0,0:0:0:0:
256,160,15825,1,2,0:0:0:0:
256,160,16121,1,2,0:0:0:0:
256,160,16565,1,2,0:0:0:0:
256,160,17010,1,0,0:0:0:0:
256,160,17158,1,0,0:0:0:0:
256,160,17454,1,0,0:0:0:0:
256,160,17602,1,2,0:0:0:0:
256,160,17899,1,2,0:0:0:0:
256,160,18343,1,2,0:0:0:0:
256,160,18788,1,0,0:0:0:0:
256,160,18936,1,2,0:0:0:0:
256,160,19232,1,0,0:0:0:0:
256,160,19380,1,2,0:0:0:0:
256,160,19676,1,2,0:0:0:0:
256,160,20121,1,2,0:0:0:0:
256,160,20565,1,0,0:0:0:0:
256,160,20713,1,0,0:0:0:0:
256,160,21010,1,0,0:0:0:0:
256,160,21454,1,0,0:0:0:0:
256,160,21602,1,2,0:0:0:0:
256,160,21899,1,2,0:0:0:0:
256,160,22047,1,2,0:0:0:0:
256,160,22343,1,2,0:0:0:0:
256,160,22491,1,0,0:0:0:0:
256,160,22788,1,0,0:0:0:0:
256,160,22936,1,2,0:0:0:0:
256,160,23232,1,2,0:0:0:0:
256,160,23380,1,2,0:0:0:0:
256,160,23676,1,2,0:0:0:0:
256,160,24121,1,2,0:0:0:0:
256,160,24269,1,2,0:0:0:0:
256,160,24565,1,2,0:0:0:0:
256,160,24713,1,2,0:0:0:0:
256,160,25010,1,2,0:0:0:0:
256,160,25158,1,0,0:0:0:0:
256,160,25454,1,0,0:0:0:0:
256,160,25602,1,2,0:0:0:0:
256,160,26047,1,2,0:0:0:0:
256,160,26343,1,2,0:0:0:0:
256,192,27380,1,0,0:0:0:0:
256,192,28269,1,2,0:0:0:0:
256,160,28713,1,0,0:0:0:0:
256,160,29010,1,2,0:0:0:0:
256,160,29158,1,0,0:0:0:0:
256,160,29602,1,0,0:0:0:0:
256,160,29899,1,0,0:0:0:0:
256,160,30936,1,2,0:0:0:0:
256,160,32269,1,2,0:0:0:0:
256,160,32565,1,2,0:0:0:0:
256,160,32713,1,0,0:0:0:0:
256,160,33010,1,2,0:0:0:0:
256,160,33454,1,2,0:0:0:0:
256,160,36269,1,4,0:0:0:0:
224,96,36565,1,2,0:0:0:0:
192,160,36713,1,0,0:0:0:0:
192,160,37158,1,2,0:0:0:0:
192,160,37602,1,0,0:0:0:0:
192,160,38047,1,0,0:0:0:0:
160,128,38343,1,2,0:0:0:0:
192,160,38491,1,0,0:0:0:0:
160,192,38936,1,2,0:0:0:0:
160,192,39380,1,0,0:0:0:0:
192,160,39825,1,0,0:0:0:0:
160,192,40121,1,2,0:0:0:0:
192,160,40269,1,0,0:0:0:0:
192,160,40713,1,2,0:0:0:0:
192,160,41158,1,0,0:0:0:0:
192,160,41602,1,2,0:0:0:0:
160,192,41899,1,0,0:0:0:0:
192,160,42047,1,2,0:0:0:0:
192,160,42491,1,2,0:0:0:0:
256,192,43380,5,4,0:0:0:0:
256,192,43676,5,8,0:0:0:0:
256,192,43825,1,0,0:0:0:0:
256,192,44121,1,0,0:0:0:0:
256,192,44269,1,8,0:0:0:0:
256,192,44565,1,8,0:0:0:0:
256,192,44713,1,8,0:0:0:0:
256,192,45010,1,0,0:0:0:0:
256,192,45158,1,8,0:0:0:0:
256,192,45602,1,8,0:0:0:0:
256,192,45899,1,0,0:0:0:0:
256,192,46047,1,8,0:0:0:0:
256,192,46491,1,8,0:0:0:0:
256,192,46788,1,0,0:0:0:0:
256,192,46936,1,8,0:0:0:0:
256,192,47232,1,8,0:0:0:0:
256,192,47380,1,0,0:0:0:0:
256,192,47676,1,0,0:0:0:0:
256,192,47825,1,8,0:0:0:0:
256,192,48121,1,8,0:0:0:0:
256,192,48269,1,8,0:0:0:0:
256,192,48565,1,0,0:0:0:0:
256,192,48713,1,8,0:0:0:0:
256,192,49010,1,8,0:0:0:0:
256,192,49158,1,0,0:0:0:0:
256,192,49454,1,0,0:0:0:0:
256,192,49602,1,8,0:0:0:0:
256,192,50047,1,8,0:0:0:0:
256,192,50491,1,0,0:0:0:0:
256,192,50788,1,8,0:0:0:0:
256,192,50936,1,0,0:0:0:0:
256,192,51232,1,0,0:0:0:0:
256,192,51380,1,8,0:0:0:0:
256,192,51676,1,8,0:0:0:0:
256,192,51825,1,0,0:0:0:0:
256,192,52121,1,0,0:0:0:0:
256,192,52269,1,8,0:0:0:0:
256,192,52565,5,0,0:0:0:0:
256,192,52713,1,0,0:0:0:0:
256,192,53010,1,0,0:0:0:0:
256,192,53158,1,8,0:0:0:0:
256,192,53602,5,0,0:0:0:0:
256,192,53899,5,0,0:0:0:0:
256,192,53973,1,0,0:0:0:0:
256,192,54047,1,8,0:0:0:0:
256,192,54491,1,0,0:0:0:0:
256,192,54788,1,8,0:0:0:0:
256,192,54936,1,0,0:0:0:0:
256,192,55380,1,8,0:0:0:0:
256,192,55676,5,0,0:0:0:0:
256,192,55825,1,0,0:0:0:0:
256,192,56269,1,0,0:0:0:0:
256,192,56713,1,8,0:0:0:0:
256,192,57158,1,0,0:0:0:0:
256,192,57602,1,4,0:0:0:0:
256,192,57899,1,8,0:0:0:0:
256,192,58047,1,0,0:0:0:0:
256,192,58343,1,8,0:0:0:0:
256,192,58491,1,8,0:0:0:0:
256,192,58788,1,0,0:0:0:0:
256,192,58936,1,8,0:0:0:0:
256,192,59232,1,0,0:0:0:0:
256,192,59380,1,8,0:0:0:0:
256,192,59825,5,0,0:0:0:0:
256,192,60121,1,0,0:0:0:0:
256,192,60269,1,8,0:0:0:0:
256,192,60713,1,8,0:0:0:0:
256,192,61010,1,0,0:0:0:0:
256,192,61084,1,0,0:0:0:0:
256,192,61158,5,8,0:0:0:0:
256,192,61602,1,0,0:0:0:0:
256,192,61899,1,0,0:0:0:0:
256,192,62047,1,8,0:0:0:0:
256,192,62491,1,0,0:0:0:0:
256,192,62788,1,8,0:0:0:0:
256,192,62936,1,0,0:0:0:0:
256,192,63232,1,0,0:0:0:0:
256,192,63380,1,8,0:0:0:0:
256,192,63676,1,0,0:0:0:0:
256,192,63825,1,8,0:0:0:0:
256,192,64269,1,0,0:0:0:0:
256,192,64713,5,4,0:0:0:0:
256,192,65158,1,8,0:0:0:0:
256,192,65454,5,0,0:0:0:0:
256,192,65602,5,8,0:0:0:0:
256,192,65899,1,8,0:0:0:0:
256,192,66047,1,0,0:0:0:0:
256,192,66343,1,0,0:0:0:0:
256,192,66491,1,8,0:0:0:0:
256,192,66788,1,0,0:0:0:0:
256,192,66936,1,8,0:0:0:0:
256,192,67232,1,0,0:0:0:0:
256,192,67676,1,0,0:0:0:0:
256,192,67825,1,0,0:0:0:0:
256,192,68121,1,0,0:0:0:0:
256,192,68269,1,8,0:0:0:0:
256,192,68713,1,8,0:0:0:0:
256,192,69010,1,0,0:0:0:0:
256,192,69158,1,8,0:0:0:0:
256,192,69602,1,0,0:0:0:0:
256,192,70047,1,8,0:0:0:0:
288,192,70491,1,0,0:0:0:0:
288,192,70936,5,0,0:0:0:0:
288,192,71232,1,8,0:0:0:0:
288,192,71380,1,0,0:0:0:0:
224,192,71825,5,4,0:0:0:0:
224,192,72713,1,2,0:0:0:0:
224,192,73010,1,0,0:0:0:0:
224,192,73158,1,2,0:0:0:0:
224,192,73454,1,0,0:0:0:0:
224,192,73602,1,0,0:0:0:0:
224,192,73899,1,2,0:0:0:0:
224,192,74047,1,2,0:0:0:0:
224,192,74343,1,2,0:0:0:0:
160,96,74788,1,2,0:0:0:0:
160,96,74936,1,2,0:0:0:0:
160,96,75232,1,2,0:0:0:0:
160,96,75380,1,0,0:0:0:0:
160,96,75676,1,2,0:0:0:0:
160,96,75825,1,2,0:0:0:0:
160,96,76121,1,2,0:0:0:0:
160,96,76565,1,0,0:0:0:0:
160,96,76713,1,2,0:0:0:0:
160,96,77010,1,0,0:0:0:0:
160,96,77158,1,0,0:0:0:0:
160,96,77454,1,2,0:0:0:0:
160,96,77602,1,2,0:0:0:0:
160,96,77899,1,2,0:0:0:0:
160,96,78936,1,0,0:0:0:0:
128,128,79825,1,2,0:0:0:0:
160,96,80121,1,0,0:0:0:0:
160,96,80269,1,2,0:0:0:0:
160,96,80565,1,0,0:0:0:0:
160,96,80713,1,2,0:0:0:0:
160,96,81010,1,2,0:0:0:0:
160,96,81454,1,2,0:0:0:0:
160,96,81899,1,2,0:0:0:0:
160,96,82047,1,2,0:0:0:0:
160,96,82343,1,2,0:0:0:0:
160,96,82491,1,0,0:0:0:0:
160,96,82788,1,2,0:0:0:0:
160,96,82936,1,2,0:0:0:0:
160,96,83232,1,2,0:0:0:0:
192,128,83825,1,2,0:0:0:0:
160,288,84121,1,0,0:0:0:0:
160,288,84269,1,0,0:0:0:0:
128,128,84713,1,2,0:0:0:0:
128,128,85158,1,2,0:0:0:0:
128,128,85454,1,0,0:0:0:0:
160,96,85602,1,0,0:0:0:0:
160,96,85899,1,0,0:0:0:0:
160,96,86047,1,6,0:0:0:0:
160,96,86343,1,0,0:0:0:0:
160,96,86788,1,2,0:0:0:0:
160,96,87380,1,2,0:0:0:0:
160,96,87676,1,2,0:0:0:0:
160,96,87825,1,0,0:0:0:0:
160,96,88121,1,2,0:0:0:0:
160,96,88565,1,2,0:0:0:0:
160,96,89158,1,2,0:0:0:0:
160,96,89454,1,2,0:0:0:0:
160,96,89602,1,0,0:0:0:0:
160,96,90047,1,0,0:0:0:0:
160,96,90343,1,2,0:0:0:0:
160,96,90788,1,2,0:0:0:0:
160,96,90936,1,0,0:0:0:0:
160,96,91232,1,0,0:0:0:0:
160,96,91380,1,2,0:0:0:0:
160,96,91676,1,2,0:0:0:0:
160,96,91825,1,2,0:0:0:0:
160,96,92121,1,2,0:0:0:0:
160,96,92713,1,2,0:0:0:0:
160,96,93158,1,0,0:0:0:0:
160,96,93602,1,2,0:0:0:0:
160,96,93899,1,0,0:0:0:0:
160,96,94491,1,2,0:0:0:0:
160,96,94788,1,2,0:0:0:0:
160,96,94936,1,2,0:0:0:0:
160,96,95232,1,0,0:0:0:0:
160,96,95676,1,0,0:0:0:0:
160,96,95825,1,2,0:0:0:0:
160,96,96121,1,0,0:0:0:0:
128,32,96269,1,2,0:0:0:0:
160,96,96713,1,4,0:0:0:0:
160,128,97158,1,0,0:0:0:0:
160,128,97454,1,0,0:0:0:0:
160,128,97602,1,2,0:0:0:0:
160,128,98047,1,0,0:0:0:0:
160,128,98195,1,2,0:0:0:0:
160,128,98343,1,2,0:0:0:0:
160,96,98491,1,2,0:0:0:0:
160,128,98639,1,2,0:0:0:0:
160,128,98788,1,2,0:0:0:0:
160,96,98936,1,0,0:0:0:0:
160,128,99084,1,0,0:0:0:0:
160,128,99232,1,0,0:0:0:0:
160,96,99380,1,0,0:0:0:0:
256,192,100269,5,12,0:0:0:0:
256,192,100565,5,8,0:0:0:0:
256,192,100713,5,0,0:0:0:0:
256,192,101010,5,0,0:0:0:0:
256,192,101158,1,8,0:0:0:0:
256,192,101454,1,0,0:0:0:0:
256,192,101602,1,8,0:0:0:0:
256,192,101899,5,8,0:0:0:0:
256,192,102047,1,0,0:0:0:0:
256,192,102195,1,0,0:0:0:0:
256,192,102343,1,0,0:0:0:0:
256,192,102491,1,8,0:0:0:0:
256,192,102788,1,0,0:0:0:0:
256,192,102936,1,8,0:0:0:0:
256,192,103232,1,8,0:0:0:0:
256,192,103380,1,0,0:0:0:0:
256,192,103676,1,0,0:0:0:0:
256,192,103825,1,8,0:0:0:0:
256,192,103973,1,0,0:0:0:0:
256,192,104121,1,0,0:0:0:0:
256,192,104269,1,8,0:0:0:0:
256,192,104565,1,8,0:0:0:0:
256,192,104713,1,0,0:0:0:0:
256,192,105010,1,0,0:0:0:0:
256,192,105158,1,8,0:0:0:0:
256,192,105454,1,0,0:0:0:0:
256,192,105602,1,8,0:0:0:0:
256,192,105899,1,0,0:0:0:0:
256,192,106047,1,8,0:0:0:0:
256,192,106195,1,8,0:0:0:0:
256,192,106343,1,0,0:0:0:0:
256,192,106491,1,8,0:0:0:0:
256,192,106788,1,0,0:0:0:0:
256,192,106936,1,8,0:0:0:0:
256,192,107232,1,0,0:0:0:0:
256,192,107380,1,8,0:0:0:0:
256,192,107676,1,8,0:0:0:0:
256,192,107825,1,0,0:0:0:0:
256,192,108121,1,0,0:0:0:0:
256,192,108269,1,8,0:0:0:0:
256,192,108417,1,8,0:0:0:0:
256,192,108565,1,0,0:0:0:0:
256,192,108713,1,8,0:0:0:0:
256,192,109010,1,8,0:0:0:0:
256,192,109454,1,0,0:0:0:0:
256,192,109602,1,8,0:0:0:0:
256,192,109899,1,0,0:0:0:0:
256,192,110047,1,8,0:0:0:0:
256,192,110195,1,0,0:0:0:0:
256,192,110343,1,8,0:0:0:0:
256,192,110491,1,0,0:0:0:0:
256,192,110788,1,8,0:0:0:0:
256,192,110936,1,0,0:0:0:0:
256,192,111380,1,0,0:0:0:0:
256,192,111676,1,0,0:0:0:0:
256,192,111825,1,8,0:0:0:0:
256,192,112269,1,0,0:0:0:0:
256,192,112565,1,0,0:0:0:0:
256,192,112713,1,8,0:0:0:0:
256,192,112862,1,0,0:0:0:0:
256,192,113010,1,0,0:0:0:0:
256,192,113158,1,8,0:0:0:0:
256,192,113454,1,0,0:0:0:0:
256,192,113602,1,8,0:0:0:0:
256,192,113899,1,0,0:0:0:0:
256,192,114047,1,0,0:0:0:0:
256,192,114343,1,0,0:0:0:0:
256,192,114491,1,12,0:0:0:0:
256,192,114788,1,8,0:0:0:0:
256,192,114936,1,0,0:0:0:0:
256,192,115232,1,0,0:0:0:0:
256,192,115380,1,8,0:0:0:0:
256,192,115676,1,8,0:0:0:0:
256,192,115825,1,8,0:0:0:0:
256,192,116121,1,0,0:0:0:0:
256,192,116269,1,8,0:0:0:0:
256,192,116565,1,0,0:0:0:0:
256,192,116713,1,8,0:0:0:0:
256,192,117010,1,0,0:0:0:0:
256,192,117158,1,8,0:0:0:0:
256,192,117454,1,0,0:0:0:0:
256,192,117602,1,8,0:0:0:0:
256,192,117751,1,0,0:0:0:0:
256,192,117899,1,0,0:0:0:0:
256,192,118047,1,8,0:0:0:0:
256,192,118491,1,0,0:0:0:0:
256,192,118788,1,0,0:0:0:0:
256,192,118936,1,8,0:0:0:0:
256,192,119232,1,0,0:0:0:0:
256,192,119380,1,0,0:0:0:0:
256,192,119676,1,0,0:0:0:0:
256,192,119825,1,8,0:0:0:0:
256,192,119973,1,0,0:0:0:0:
256,192,120121,1,0,0:0:0:0:
256,192,120269,1,8,0:0:0:0:
256,192,120565,1,0,0:0:0:0:
256,192,120713,1,8,0:0:0:0:
256,192,121010,1,0,0:0:0:0:
256,192,121158,1,0,0:0:0:0:
256,192,121454,1,0,0:0:0:0:
256,192,121602,1,8,0:0:0:0:
256,192,121899,1,0,0:0:0:0:
256,192,122047,1,0,0:0:0:0:
256,192,122491,1,0,0:0:0:0:
256,192,122788,1,8,0:0:0:0:
256,192,122936,1,0,0:0:0:0:
256,192,123232,1,8,0:0:0:0:
256,192,123380,1,0,0:0:0:0:
256,192,123676,1,8,0:0:0:0:
256,192,123825,5,8,0:0:0:0:
256,192,124121,1,0,0:0:0:0:
256,192,124269,1,8,0:0:0:0:
256,192,124417,1,0,0:0:0:0:
256,192,124565,1,0,0:0:0:0:
256,192,124713,1,8,0:0:0:0:
256,192,125010,5,8,0:0:0:0:
256,192,125158,5,0,0:0:0:0:
256,192,125602,1,8,0:0:0:0:
256,192,125899,5,0,0:0:0:0:
256,192,126047,1,8,0:0:0:0:
256,192,126491,1,8,0:0:0:0:
256,192,126788,1,0,0:0:0:0:
256,192,126936,1,8,0:0:0:0:
256,192,127084,1,0,0:0:0:0:
256,192,127232,1,0,0:0:0:0:
256,192,127380,1,8,0:0:0:0:
256,192,127825,5,8,0:0:0:0:
256,192,128121,5,0,0:0:0:0:
256,192,128269,1,0,0:0:0:0:
256,192,128565,1,0,0:0:0:0:
256,192,128713,1,12,0:0:0:0:
256,192,129158,1,8,0:0:0:0:
256,192,129454,1,0,0:0:0:0:
256,192,129602,1,8,0:0:0:0:
256,192,130047,1,8,0:0:0:0:
256,192,130343,1,0,0:0:0:0:
256,192,130491,1,8,0:0:0:0:
256,192,130936,1,0,0:0:0:0:
256,192,131380,1,8,0:0:0:0:
256,192,131676,1,0,0:0:0:0:
256,192,131825,1,8,0:0:0:0:
256,192,132121,1,8,0:0:0:0:
256,192,132269,1,4,0:0:0:0:
256,192,132565,1,0,0:0:0:0:
256,192,132713,1,8,0:0:0:0:
256,192,132862,1,0,0:0:0:0:
256,192,133010,5,0,0:0:0:0:
256,192,133158,1,8,0:0:0:0:
256,192,133602,1,8,0:0:0:0:
256,192,134047,5,8,0:0:0:0:
256,192,134195,1,8,0:0:0:0:
256,192,134343,1,8,0:0:0:0:
256,192,134491,5,0,0:0:0:0:
256,192,134639,5,0,0:0:0:0:
256,192,134788,1,0,0:0:0:0:
256,192,134936,1,8,0:0:0:0:
256,192,135084,1,0,0:0:0:0:
256,192,135232,1,8,0:0:0:0:
256,192,135380,1,0,0:0:0:0:
256,192,135676,1,0,0:0:0:0:
160,96,135825,5,6,0:0:0:0:
160,128,136713,1,2,0:0:0:0:
160,96,137010,1,0,0:0:0:0:
160,96,137158,1,2,0:0:0:0:
160,96,137454,1,0,0:0:0:0:
160,96,137602,1,0,0:0:0:0:
160,96,137899,1,2,0:0:0:0:
160,96,138343,1,2,0:0:0:0:
160,96,138788,1,0,0:0:0:0:
160,96,138936,1,2,0:0:0:0:
160,96,139232,1,0,0:0:0:0:
160,96,139380,1,2,0:0:0:0:
160,96,139825,1,2,0:0:0:0:
160,96,140121,1,2,0:0:0:0:
160,96,140565,1,2,0:0:0:0:
160,96,140713,1,2,0:0:0:0:
160,96,141010,1,0,0:0:0:0:
160,96,141158,1,2,0:0:0:0:
160,96,141454,1,0,0:0:0:0:
160,96,141602,1,2,0:0:0:0:
160,96,141899,1,2,0:0:0:0:
128,128,142936,1,0,0:0:0:0:
224,128,143825,1,2,0:0:0:0:
128,128,144121,1,0,0:0:0:0:
128,128,144269,1,2,0:0:0:0:
128,128,144565,1,0,0:0:0:0:
128,128,144713,1,2,0:0:0:0:
128,128,145010,1,2,0:0:0:0:
128,128,145158,1,2,0:0:0:0:
128,128,145454,1,2,0:0:0:0:
128,128,145899,1,2,0:0:0:0:
128,128,146047,1,2,0:0:0:0:
128,128,146343,1,0,0:0:0:0:
128,128,146491,1,2,0:0:0:0:
128,128,146936,1,2,0:0:0:0:
128,128,147232,1,2,0:0:0:0:
224,128,147825,1,2,0:0:0:0:
224,128,148121,1,0,0:0:0:0:
224,128,148269,1,0,0:0:0:0:
224,128,148713,1,2,0:0:0:0:
224,128,149158,1,2,0:0:0:0:
192,96,149454,1,0,0:0:0:0:
128,128,149602,1,0,0:0:0:0:
128,128,149899,1,0,0:0:0:0:
128,128,150047,1,6,0:0:0:0:
128,128,150343,1,0,0:0:0:0:
128,128,150788,1,0,0:0:0:0:
192,160,150936,1,2,0:0:0:0:
128,128,151380,1,2,0:0:0:0:
128,128,151676,1,2,0:0:0:0:
128,128,151825,1,0,0:0:0:0:
128,128,152121,1,0,0:0:0:0:
128,128,152565,1,0,0:0:0:0:
160,160,152713,1,2,0:0:0:0:
192,128,153158,1,2,0:0:0:0:
192,128,153454,1,2,0:0:0:0:
192,128,153602,1,0,0:0:0:0:
192,128,153899,1,2,0:0:0:0:
192,128,154343,1,0,0:0:0:0:
192,128,154788,1,0,0:0:0:0:
192,128,154936,1,2,0:0:0:0:
192,128,155232,1,0,0:0:0:0:
192,128,155380,1,2,0:0:0:0:
64,160,155676,1,2,0:0:0:0:
192,128,156121,1,2,0:0:0:0:
64,160,156713,1,2,0:0:0:0:
32,192,157158,1,0,0:0:0:0:
32,192,157602,1,2,0:0:0:0:
160,160,157899,1,0,0:0:0:0:
192,96,158047,1,2,0:0:0:0:
160,160,158491,1,2,0:0:0:0:
160,160,158788,1,2,0:0:0:0:
160,160,158936,1,0,0:0:0:0:
160,160,159232,1,0,0:0:0:0:
160,160,159676,1,2,0:0:0:0:
160,160,159825,1,0,0:0:0:0:
160,160,160121,1,0,0:0:0:0:
160,160,160269,1,2,0:0:0:0:
160,160,160713,1,4,0:0:0:0:
192,96,161158,1,0,0:0:0:0:
192,96,161454,1,0,0:0:0:0:
192,96,161602,1,2,0:0:0:0:
192,96,162047,1,0,0:0:0:0:
192,96,162195,1,0,0:0:0:0:
192,96,162343,1,0,0:0:0:0:
192,128,162491,1,2,0:0:0:0:
192,96,162639,1,2,0:0:0:0:
192,96,162788,1,2,0:0:0:0:
192,128,162936,1,0,0:0:0:0:
192,96,163084,1,0,0:0:0:0:
192,96,163232,1,0,0:0:0:0:
192,96,163380,1,2,0:0:0:0:
192,96,163528,1,2,0:0:0:0:
32,128,163676,1,2,0:0:0:0:
64,128,163825,1,0,0:0:0:0:
64,128,163973,1,0,0:0:0:0:
64,128,164121,1,0,0:0:0:0:
256,192,164269,5,12,0:0:0:0:
256,192,164565,1,8,0:0:0:0:
256,192,164713,1,0,0:0:0:0:
256,192,165010,1,0,0:0:0:0:
256,192,165158,1,8,0:0:0:0:
256,192,165454,1,8,0:0:0:0:
256,192,165602,1,8,0:0:0:0:
256,192,165899,1,0,0:0:0:0:
256,192,166047,1,8,0:0:0:0:
256,192,166195,1,0,0:0:0:0:
256,192,166343,1,0,0:0:0:0:
256,192,166491,1,8,0:0:0:0:
256,192,166788,1,0,0:0:0:0:
256,192,166936,1,8,0:0:0:0:
256,192,167084,1,0,0:0:0:0:
256,192,167232,1,8,0:0:0:0:
256,192,167380,1,0,0:0:0:0:
256,192,167676,1,0,0:0:0:0:
256,192,167825,1,8,0:0:0:0:
256,192,168269,1,0,0:0:0:0:
256,192,168565,1,0,0:0:0:0:
256,192,168713,1,8,0:0:0:0:
256,192,169010,1,0,0:0:0:0:
256,192,169158,1,8,0:0:0:0:
256,192,169454,1,8,0:0:0:0:
256,192,169602,1,8,0:0:0:0:
256,192,169751,1,0,0:0:0:0:
256,192,169899,1,0,0:0:0:0:
256,192,170047,1,8,0:0:0:0:
256,192,170343,1,0,0:0:0:0:
256,192,170491,1,8,0:0:0:0:
256,192,170788,1,0,0:0:0:0:
256,192,170936,1,8,0:0:0:0:
256,192,171232,1,0,0:0:0:0:
256,192,171380,1,8,0:0:0:0:
256,192,171676,1,8,0:0:0:0:
256,192,171825,1,0,0:0:0:0:
256,192,171973,1,0,0:0:0:0:
256,192,172121,1,0,0:0:0:0:
256,192,172269,1,8,0:0:0:0:
256,192,172417,1,0,0:0:0:0:
256,192,172565,1,8,0:0:0:0:
256,192,172713,1,0,0:0:0:0:
256,192,173010,1,8,0:0:0:0:
256,192,173158,1,0,0:0:0:0:
256,192,173454,1,8,0:0:0:0:
256,192,173602,1,8,0:0:0:0:
256,192,173899,1,0,0:0:0:0:
256,192,174047,1,8,0:0:0:0:
256,192,174195,1,0,0:0:0:0:
256,192,174343,1,0,0:0:0:0:
256,192,174491,1,8,0:0:0:0:
256,192,174788,1,0,0:0:0:0:
256,192,174936,1,8,0:0:0:0:
256,192,175380,1,0,0:0:0:0:
256,192,175676,5,0,0:0:0:0:
256,192,175825,1,8,0:0:0:0:
256,192,176121,1,0,0:0:0:0:
256,192,176269,1,8,0:0:0:0:
256,192,176565,1,0,0:0:0:0:
256,192,176713,1,8,0:0:0:0:
256,192,176862,1,0,0:0:0:0:
256,192,177010,1,0,0:0:0:0:
256,192,177158,1,8,0:0:0:0:
256,192,177602,1,8,0:0:0:0:
256,192,177899,1,0,0:0:0:0:
256,192,178047,1,0,0:0:0:0:
256,192,178343,1,0,0:0:0:0:
256,192,178491,1,12,0:0:0:0:
256,192,178936,1,0,0:0:0:0:
256,192,179232,1,0,0:0:0:0:
256,192,179380,1,8,0:0:0:0:
256,192,179676,1,8,0:0:0:0:
256,192,179825,1,0,0:0:0:0:
256,192,179973,1,0,0:0:0:0:
256,192,180121,1,0,0:0:0:0:
256,192,180269,1,8,0:0:0:0:
256,192,180565,5,0,0:0:0:0:
256,192,180713,1,0,0:0:0:0:
256,192,181010,1,0,0:0:0:0:
256,192,181158,1,8,0:0:0:0:
256,192,181306,1,0,0:0:0:0:
256,192,181454,1,0,0:0:0:0:
256,192,181602,5,8,0:0:0:0:
256,192,181899,1,0,0:0:0:0:
256,192,182047,5,12,0:0:0:0:
256,192,183380,1,0,0:0:0:0:
256,192,183528,1,0,0:0:0:0:
256,192,183676,1,0,0:0:0:0:
256,192,183825,1,8,0:0:0:0:
192,160,185602,5,6,0:0:0:0:
192,160,186343,1,0,0:0:0:0:
192,160,186491,1,2,0:0:0:0:
192,160,186936,1,0,0:0:0:0:
192,160,187232,1,2,0:0:0:0:
192,160,187380,1,0,0:0:0:0:
192,160,187676,1,2,0:0:0:0:
192,160,187825,1,0,0:0:0:0:
160,192,188269,1,2,0:0:0:0:
160,64,188713,1,0,0:0:0:0:
160,192,189010,1,2,0:0:0:0:
160,192,189158,1,0,0:0:0:0:
192,128,189602,1,0,0:0:0:0:
192,128,190047,1,2,0:0:0:0:
192,128,190491,1,0,0:0:0:0:
160,128,190788,1,0,0:0:0:0:
192,128,190936,1,2,0:0:0:0:
192,128,191232,1,0,0:0:0:0:
192,128,191380,1,2,0:0:0:0:
192,128,191825,1,2,0:0:0:0:
96,128,192713,1,0,0:0:0:0:
192,128,193454,1,0,0:0:0:0:
192,128,193602,1,2,0:0:0:0:
64,128,194047,1,0,0:0:0:0:
192,128,194343,1,0,0:0:0:0:
64,128,194491,1,2,0:0:0:0:
192,128,194788,1,2,0:0:0:0:
192,128,194936,1,0,0:0:0:0:
64,128,195380,1,2,0:0:0:0:
64,128,196269,1,2,0:0:0:0:
160,128,196713,1,0,0:0:0:0:
192,128,197010,1,0,0:0:0:0:
192,128,197158,1,2,0:0:0:0:
192,128,197602,1,0,0:0:0:0:
192,128,197899,1,0,0:0:0:0:
192,128,198047,1,2,0:0:0:0:
224,64,198343,1,0,0:0:0:0:
192,128,198491,1,2,0:0:0:0:
192,64,198788,1,2,0:0:0:0:
192,128,198936,1,2,0:0:0:0:
192,128,199232,1,2,0:0:0:0:
192,128,199380,1,0,0:0:0:0:
0,160,199676,1,0,0:0:0:0:
128,128,199825,1,6,0:0:0:0:
192,128,200565,1,0,0:0:0:0:
192,128,200713,1,2,0:0:0:0:
128,128,201158,1,0,0:0:0:0:
128,128,201602,1,2,0:0:0:0:
128,128,202491,1,0,0:0:0:0:
192,192,203084,1,2,0:0:0:0:
128,128,203380,1,0,0:0:0:0:
160,128,203825,1,0,0:0:0:0:
160,128,204269,1,2,0:0:0:0:
160,128,204713,1,0,0:0:0:0:
160,128,205010,1,0,0:0:0:0:
160,128,205158,1,2,0:0:0:0:
160,128,205454,1,2,0:0:0:0:
160,128,205602,1,0,0:0:0:0:
160,128,206047,1,2,0:0:0:0:
224,160,206491,1,2,0:0:0:0:
224,160,206788,1,0,0:0:0:0:
224,160,206936,1,2,0:0:0:0:
224,160,207232,1,2,0:0:0:0:
224,160,207380,1,0,0:0:0:0:
224,160,207676,1,2,0:0:0:0:
160,128,207825,1,0,0:0:0:0:
224,160,208121,1,2,0:0:0:0:
224,160,208269,1,2,0:0:0:0:
224,160,208565,1,0,0:0:0:0:
224,160,208713,1,2,0:0:0:0:
224,160,209010,1,2,0:0:0:0:
224,160,209158,1,2,0:0:0:0:
224,160,209454,1,2,0:0:0:0:
160,128,209602,1,0,0:0:0:0:
224,160,209899,1,2,0:0:0:0:
224,160,210047,1,0,0:0:0:0:
224,160,210343,1,0,0:0:0:0:
224,160,210491,1,2,0:0:0:0:
224,160,210936,1,2,0:0:0:0:
224,160,211232,1,2,0:0:0:0:
160,128,211380,1,0,0:0:0:0:
224,160,211676,1,2,0:0:0:0:
224,160,211825,1,2,0:0:0:0:
224,160,212121,1,0,0:0:0:0:
224,160,212269,1,2,0:0:0:0:
224,160,212565,1,2,0:0:0:0:
224,64,212713,1,0,0:0:0:0:
224,96,213010,1,2,0:0:0:0:
160,128,213158,1,2,0:0:0:0:
160,128,213306,1,2,0:0:0:0:
160,128,213454,1,0,0:0:0:0:
224,160,213602,1,2,0:0:0:0:
160,128,213751,1,0,0:0:0:0:
224,160,213899,1,0,0:0:0:0:
224,160,214047,1,6,0:0:0:0:
224,160,214343,1,2,0:0:0:0:
224,160,214788,1,0,0:0:0:0:
224,160,215380,1,2,0:0:0:0:
224,160,215676,1,2,0:0:0:0:
224,160,215825,1,2,0:0:0:0:
224,160,216121,1,0,0:0:0:0:
224,160,216565,1,0,0:0:0:0:
224,160,216713,1,0,0:0:0:0:
224,160,217010,1,0,0:0:0:0:
224,160,217158,1,2,0:0:0:0:
224,160,217602,1,4,0:0:0:0:
224,160,218047,1,0,0:0:0:0:
160,128,218343,1,0,0:0:0:0:
224,160,218491,1,2,0:0:0:0:
224,160,218936,1,0,0:0:0:0:
160,128,219084,1,0,0:0:0:0:
160,128,219232,1,0,0:0:0:0:
224,160,219380,1,2,0:0:0:0:
160,128,219528,1,2,0:0:0:0:
160,128,219676,1,2,0:0:0:0:
224,160,219825,1,2,0:0:0:0:
160,128,219973,1,2,0:0:0:0:
160,128,220121,1,2,0:0:0:0:
224,160,220269,1,2,0:0:0:0:
160,128,220417,1,0,0:0:0:0:
0,160,220565,1,0,0:0:0:0:
0,160,220713,1,0,0:0:0:0:
0,160,220862,1,0,0:0:0:0:
0,160,221010,1,0,0:0:0:0:
256,192,221158,5,12,0:0:0:0:
256,192,221454,1,8,0:0:0:0:
256,192,221602,1,0,0:0:0:0:
256,192,221899,1,0,0:0:0:0:
256,192,222047,1,8,0:0:0:0:
256,192,222343,1,0,0:0:0:0:
256,192,222491,1,8,0:0:0:0:
256,192,222788,1,8,0:0:0:0:
256,192,222936,1,0,0:0:0:0:
256,192,223084,1,0,0:0:0:0:
256,192,223232,1,8,0:0:0:0:
256,192,223380,1,0,0:0:0:0:
256,192,223676,1,0,0:0:0:0:
256,192,223825,1,8,0:0:0:0:
256,192,224121,1,8,0:0:0:0:
256,192,224269,1,0,0:0:0:0:
256,192,224565,1,0,0:0:0:0:
256,192,224713,1,8,0:0:0:0:
256,192,224862,1,8,0:0:0:0:
256,192,225010,1,0,0:0:0:0:
256,192,225158,1,8,0:0:0:0:
256,192,225306,1,0,0:0:0:0:
256,192,225454,1,0,0:0:0:0:
256,192,225602,1,8,0:0:0:0:
256,192,225899,1,8,0:0:0:0:
256,192,226047,1,8,0:0:0:0:
256,192,226343,1,0,0:0:0:0:
256,192,226491,1,8,0:0:0:0:
256,192,226788,1,0,0:0:0:0:
256,192,226936,1,0,0:0:0:0:
256,192,227232,1,0,0:0:0:0:
256,192,227380,1,8,0:0:0:0:
256,192,227676,1,0,0:0:0:0:
256,192,227825,1,8,0:0:0:0:
256,192,227973,1,0,0:0:0:0:
256,192,228121,1,0,0:0:0:0:
256,192,228269,1,8,0:0:0:0:
256,192,228565,1,0,0:0:0:0:
256,192,228713,1,8,0:0:0:0:
256,192,229010,1,0,0:0:0:0:
256,192,229158,1,8,0:0:0:0:
256,192,229306,1,0,0:0:0:0:
256,192,229454,1,0,0:0:0:0:
256,192,229602,1,8,0:0:0:0:
256,192,229899,1,8,0:0:0:0:
256,192,230047,1,0,0:0:0:0:
256,192,230343,1,8,0:0:0:0:
256,192,230491,1,8,0:0:0:0:
256,192,230639,1,0,0:0:0:0:
256,192,230788,1,0,0:0:0:0:
256,192,230936,1,8,0:0:0:0:
256,192,231232,1,8,0:0:0:0:
256,192,231380,1,0,0:0:0:0:
256,192,231676,1,0,0:0:0:0:
256,192,231825,1,8,0:0:0:0:
256,192,232269,1,8,0:0:0:0:
256,192,232565,1,0,0:0:0:0:
256,192,232713,1,8,0:0:0:0:
256,192,233010,1,0,0:0:0:0:
256,192,233158,1,8,0:0:0:0:
256,192,233306,1,0,0:0:0:0:
256,192,233454,1,0,0:0:0:0:
256,192,233602,1,8,0:0:0:0:
256,192,233899,1,0,0:0:0:0:
256,192,234047,1,8,0:0:0:0:
256,192,234491,5,8,0:0:0:0:
256,192,234639,1,8,0:0:0:0:
256,192,234788,1,0,0:0:0:0:
256,192,234936,1,0,0:0:0:0:
256,192,235084,1,0,0:0:0:0:
256,192,235232,1,0,0:0:0:0:
256,192,235380,1,12,0:0:0:0:
256,192,235676,1,8,0:0:0:0:
256,192,235825,1,0,0:0:0:0:
256,192,236121,1,0,0:0:0:0:
256,192,236269,1,8,0:0:0:0:
256,192,236565,1,8,0:0:0:0:
256,192,236713,1,8,0:0:0:0:
256,192,236862,1,0,0:0:0:0:
256,192,237010,1,8,0:0:0:0:
256,192,237158,1,8,0:0:0:0:
256,192,237454,1,0,0:0:0:0:
256,192,237602,1,8,0:0:0:0:
256,192,237899,1,0,0:0:0:0:
256,192,238047,1,8,0:0:0:0:
256,192,238343,1,0,0:0:0:0:
256,192,238491,1,0,0:0:0:0:
256,192,238788,1,8,0:0:0:0:
256,192,238936,1,8,0:0:0:0:
256,192,239084,1,0,0:0:0:0:
256,192,239232,1,0,0:0:0:0:
256,192,239380,1,8,0:0:0:0:
256,192,239676,1,0,0:0:0:0:
256,192,239825,1,8,0:0:0:0:
256,192,240121,1,8,0:0:0:0:
256,192,240269,1,8,0:0:0:0:
256,192,240565,1,0,0:0:0:0:
256,192,240713,1,8,0:0:0:0:
256,192,240862,1,0,0:0:0:0:
256,192,241010,1,8,0:0:0:0:
256,192,241158,1,0,0:0:0:0:
256,192,241454,1,0,0:0:0:0:
256,192,241602,1,8,0:0:0:0:
256,192,241899,1,0,0:0:0:0:
256,192,241973,1,0,0:0:0:0:
256,192,242047,1,8,0:0:0:0:
256,192,242343,1,0,0:0:0:0:
256,192,242491,1,8,0:0:0:0:
256,192,242788,1,0,0:0:0:0:
256,192,242936,1,8,0:0:0:0:
256,192,243232,1,8,0:0:0:0:
256,192,243380,1,8,0:0:0:0:
256,192,243528,1,0,0:0:0:0:
256,192,243676,1,8,0:0:0:0:
256,192,243825,1,0,0:0:0:0:
256,192,243973,1,0,0:0:0:0:
256,192,244121,1,8,0:0:0:0:
256,192,244269,1,8,0:0:0:0:
256,192,244565,1,8,0:0:0:0:
256,192,244713,1,0,0:0:0:0:
256,192,245010,1,0,0:0:0:0:
256,192,245158,1,8,0:0:0:0:
256,192,245454,1,8,0:0:0:0:
256,192,245602,1,0,0:0:0:0:
256,192,245899,1,0,0:0:0:0:
256,192,246047,1,8,0:0:0:0:
256,192,246491,1,0,0:0:0:0:
256,192,246788,1,0,0:0:0:0:
256,192,246936,1,8,0:0:0:0:
256,192,247380,1,0,0:0:0:0:
256,192,247676,1,0,0:0:0:0:
256,192,247825,1,8,0:0:0:0:
256,192,247973,1,8,0:0:0:0:
256,192,248121,1,8,0:0:0:0:
256,192,248269,1,8,0:0:0:0:
256,192,248417,5,8,0:0:0:0:
256,192,248565,1,8,0:0:0:0:
256,192,248713,1,0,0:0:0:0:
256,192,248862,1,8,0:0:0:0:
256,192,249010,1,8,0:0:0:0:
256,192,249158,1,0,0:0:0:0:
256,192,249306,1,0,0:0:0:0:
256,192,249454,1,0,0:0:0:0:
256,192,249602,1,8,0:0:0:0:
192,128,251380,1,2,0:0:0:0:
192,128,253158,1,4,0:0:0:0:
256,128,253899,1,0,0:0:0:0:
256,128,254047,1,2,0:0:0:0:
256,128,254195,1,2,0:0:0:0:
256,128,254343,1,0,0:0:0:0:
256,128,254491,1,0,0:0:0:0:
256,128,254788,1,6,0:0:0:0:
256,128,255232,1,0,0:0:0:0:
256,128,255380,1,0,0:0:0:0:
256,128,255676,1,0,0:0:0:0:
256,128,255825,1,2,0:0:0:0:
256,128,255973,1,0,0:0:0:0:
256,128,256121,1,0,0:0:0:0:
256,128,256269,1,0,0:0:0:0:
128,128,256565,1,0,0:0:0:0:
256,128,256713,1,6,0:0:0:0:
160,128,257010,1,2,0:0:0:0:
160,128,257158,1,2,0:0:0:0:
160,128,257454,1,0,0:0:0:0:
160,128,257602,1,2,0:0:0:0:
160,128,257899,1,2,0:0:0:0:
160,128,258047,1,0,0:0:0:0:
160,128,258343,1,2,0:0:0:0:
160,128,258788,1,2,0:0:0:0:
160,128,258936,1,2,0:0:0:0:
160,128,259232,1,0,0:0:0:0:
160,128,259380,1,2,0:0:0:0:
160,128,259676,1,2,0:0:0:0:
160,128,259825,1,0,0:0:0:0:
160,128,260121,1,0,0:0:0:0:
160,128,260269,1,2,0:0:0:0:
160,128,260713,1,2,0:0:0:0:
160,128,261010,1,0,0:0:0:0:
224,160,261158,1,2,0:0:0:0:
96,224,261306,1,2,0:0:0:0:
128,256,261454,1,0,0:0:0:0:
64,192,261602,1,0,0:0:0:0:
256,160,261899,1,0,0:0:0:0:
160,128,262047,1,0,0:0:0:0:
160,96,262343,1,0,0:0:0:0:
160,128,262491,1,2,0:0:0:0:
160,128,262936,1,2,0:0:0:0:
160,128,263084,1,2,0:0:0:0:
160,128,263232,1,2,0:0:0:0:
160,128,263380,1,0,0:0:0:0:
160,128,263528,1,0,0:0:0:0:
160,128,263676,1,0,0:0:0:0:
160,128,263825,1,6,0:0:0:0:
160,128,264121,1,0,0:0:0:0:
160,128,264269,1,2,0:0:0:0:
160,128,264565,1,2,0:0:0:0:
160,128,264713,1,2,0:0:0:0:
160,128,265010,1,2,0:0:0:0:
160,128,265158,1,2,0:0:0:0:
160,128,265454,1,2,0:0:0:0:
160,128,265602,1,0,0:0:0:0:
160,128,265899,1,2,0:0:0:0:
160,128,266047,1,2,0:0:0:0:
160,128,266343,1,0,0:0:0:0:
160,128,266491,1,2,0:0:0:0:
160,128,266788,1,2,0:0:0:0:
160,128,266936,1,2,0:0:0:0:
160,128,267232,1,2,0:0:0:0:
160,128,267380,1,2,0:0:0:0:
160,128,267825,1,2,0:0:0:0:
160,128,268121,1,0,0:0:0:0:
160,128,268269,1,2,0:0:0:0:
160,128,268565,1,2,0:0:0:0:
160,128,269010,1,2,0:0:0:0:
160,128,269454,1,0,0:0:0:0:
160,128,269602,1,0,0:0:0:0:
160,128,269899,1,0,0:0:0:0:
160,128,270343,1,0,0:0:0:0:
160,128,270491,1,2,0:0:0:0:
160,128,270788,1,2,0:0:0:0:
160,128,270936,1,0,0:0:0:0:
160,128,271232,1,2,0:0:0:0:
160,128,271380,1,2,0:0:0:0:
160,128,271676,1,2,0:0:0:0:
160,128,271825,1,2,0:0:0:0:
160,128,272121,1,2,0:0:0:0:
160,128,272269,1,0,0:0:0:0:
160,128,272565,1,2,0:0:0:0:
160,128,273010,1,2,0:0:0:0:
160,128,273158,1,2,0:0:0:0:
160,128,273454,1,0,0:0:0:0:
160,128,273602,1,2,0:0:0:0:
160,128,273899,1,2,0:0:0:0:
160,128,274047,1,0,0:0:0:0:
160,128,274343,1,0,0:0:0:0:
160,128,274491,1,2,0:0:0:0:
160,128,274936,1,2,0:0:0:0:
160,128,275232,1,2,0:0:0:0:
160,192,275676,1,2,0:0:0:0:
160,128,275825,1,0,0:0:0:0:
256,160,275973,1,0,0:0:0:0:
160,128,276121,1,0,0:0:0:0:
160,128,276269,1,2,0:0:0:0:
160,128,276565,1,0,0:0:0:0:
160,128,276713,1,2,0:0:0:0:
160,128,277158,1,2,0:0:0:0:
192,128,277454,1,0,0:0:0:0:
160,128,277602,1,0,0:0:0:0:
160,128,277751,1,0,0:0:0:0:
256,160,277899,1,0,0:0:0:0:
160,128,278047,1,6,0:0:0:0:
160,128,278491,1,0,0:0:0:0:
160,128,278788,1,0,0:0:0:0:
128,96,278936,1,2,0:0:0:0:
160,192,279232,1,2,0:0:0:0:
160,192,279380,1,0,0:0:0:0:
160,192,279676,1,0,0:0:0:0:
160,192,279825,1,0,0:0:0:0:
160,192,280121,1,2,0:0:0:0:
160,192,280269,1,0,0:0:0:0:
160,192,280713,1,2,0:0:0:0:
160,160,281158,1,0,0:0:0:0:
160,160,281454,1,2,0:0:0:0:
160,160,281602,1,0,0:0:0:0:
160,160,281899,1,0,0:0:0:0:
32,128,282047,1,0,0:0:0:0:
160,160,282343,1,0,0:0:0:0:
32,128,282491,1,2,0:0:0:0:
160,192,282936,1,0,0:0:0:0:
160,192,283084,1,2,0:0:0:0:
160,192,283232,1,2,0:0:0:0:
160,192,283380,1,2,0:0:0:0:
160,192,283676,1,0,0:0:0:0:
160,192,283825,1,0,0:0:0:0:
160,192,284269,1,2,0:0:0:0:
160,192,284417,1,2,0:0:0:0:
160,192,284565,1,0,0:0:0:0:
160,160,284713,1,2,0:0:0:0:
160,192,284862,1,0,0:0:0:0:
160,160,285010,1,0,0:0:0:0:
160,160,285158,1,6,0:0:0:0:
160,160,285602,1,0,0:0:0:0:
160,160,285899,1,2,0:0:0:0:
96,128,286936,1,0,0:0:0:0:
96,128,287232,1,2,0:0:0:0:
96,128,287380,1,0,0:0:0:0:
96,128,287825,1,2,0:0:0:0:
160,160,288269,1,2,0:0:0:0:
160,160,288565,1,2,0:0:0:0:
160,160,288713,1,0,0:0:0:0:
160,160,289010,1,0,0:0:0:0:
256,192,289454,12,0,293158,0:0:0:0:
256,192,294047,5,0,0:0:0:0:
256,192,294936,1,8,0:0:0:0:
256,192,295084,1,8,0:0:0:0:
256,192,295232,1,0,0:0:0:0:
256,192,295380,1,0,0:0:0:0:
256,192,295528,1,0,0:0:0:0:
256,192,295676,1,0,0:0:0:0:
256,192,295825,1,12,0:0:0:0:
256,192,296269,1,0,0:0:0:0:
256,192,296565,1,0,0:0:0:0:
256,192,296713,1,8,0:0:0:0:
256,192,297158,1,0,0:0:0:0:
256,192,297454,1,0,0:0:0:0:
256,192,297602,1,8,0:0:0:0:
256,192,297899,1,0,0:0:0:0:
256,192,298047,1,0,0:0:0:0:
256,192,298343,1,0,0:0:0:0:
256,192,298491,1,8,0:0:0:0:
256,192,298713,1,0,0:0:0:0:
256,192,298788,1,0,0:0:0:0:
256,192,298862,1,0,0:0:0:0:
256,192,298936,1,8,0:0:0:0:
256,192,299232,1,0,0:0:0:0:
256,192,299380,1,12,0:0:0:0:
256,192,299825,1,0,0:0:0:0:
256,192,300121,1,0,0:0:0:0:
256,192,300269,1,8,0:0:0:0:
256,192,300713,1,0,0:0:0:0:
256,192,301010,1,0,0:0:0:0:
256,192,301158,1,8,0:0:0:0:
256,192,301454,1,0,0:0:0:0:
256,192,301602,1,0,0:0:0:0:
256,192,301899,1,0,0:0:0:0:
256,192,302047,5,8,0:0:0:0:
256,192,302195,1,8,0:0:0:0:
256,192,302343,1,8,0:0:0:0:
256,192,302491,1,0,0:0:0:0:
256,192,302788,1,0,0:0:0:0:
256,192,302936,1,12,0:0:0:0:
256,192,303380,1,0,0:0:0:0:
256,192,303676,1,0,0:0:0:0:
256,192,303825,1,8,0:0:0:0:
256,192,304269,1,0,0:0:0:0:
256,192,304565,1,0,0:0:0:0:
256,192,304713,1,8,0:0:0:0:
256,192,305010,1,0,0:0:0:0:
256,192,305158,1,0,0:0:0:0:
256,192,305454,1,0,0:0:0:0:
256,192,305602,1,8,0:0:0:0:
256,192,305751,1,0,0:0:0:0:
256,192,305899,1,0,0:0:0:0:
256,192,306047,1,0,0:0:0:0:
256,192,306343,1,0,0:0:0:0:
256,192,306491,1,12,0:0:0:0:
256,192,306936,1,0,0:0:0:0:
256,192,307232,1,0,0:0:0:0:
256,192,307380,5,8,0:0:0:0:
256,192,307825,1,0,0:0:0:0:
256,192,308121,1,0,0:0:0:0:
256,192,308269,1,8,0:0:0:0:
256,192,308565,5,0,0:0:0:0:
256,192,308713,5,0,0:0:0:0:
256,192,309158,5,8,0:0:0:0:
256,192,309306,1,8,0:0:0:0:
256,192,309454,1,0,0:0:0:0:
256,192,309602,1,0,0:0:0:0:
256,192,309751,1,0,0:0:0:0:
256,192,309899,1,0,0:0:0:0:
256,192,310047,1,12,0:0:0:0:
256,192,310491,1,0,0:0:0:0:
256,192,310788,1,0,0:0:0:0:
256,192,310936,1,8,0:0:0:0:
256,192,311380,1,0,0:0:0:0:
256,192,311676,1,0,0:0:0:0:
256,192,311825,1,8,0:0:0:0:
256,192,312121,1,0,0:0:0:0:
256,192,312269,1,0,0:0:0:0:
256,192,312565,1,0,0:0:0:0:
256,192,312713,5,8,0:0:0:0:
256,192,312862,1,0,0:0:0:0:
256,192,313010,1,0,0:0:0:0:
256,192,313158,1,0,0:0:0:0:
256,192,313454,1,0,0:0:0:0:
256,192,313602,1,12,0:0:0:0:
256,192,314047,1,0,0:0:0:0:
256,192,314343,1,0,0:0:0:0:
256,192,314491,1,8,0:0:0:0:
256,192,314936,1,0,0:0:0:0:
256,192,315232,1,0,0:0:0:0:
256,192,315380,1,8,0:0:0:0:
256,192,315676,1,0,0:0:0:0:
256,192,315825,1,0,0:0:0:0:
256,192,316269,5,8,0:0:0:0:
256,192,316417,1,8,0:0:0:0:
256,192,316565,5,0,0:0:0:0:
256,192,316713,1,0,0:0:0:0:
256,192,316862,1,0,0:0:0:0:
256,192,317010,1,0,0:0:0:0:
256,192,317158,1,12,0:0:0:0:
256,192,317602,1,0,0:0:0:0:
256,192,317899,1,0,0:0:0:0:
256,192,318047,1,8,0:0:0:0:
256,192,318491,1,0,0:0:0:0:
256,192,318788,1,0,0:0:0:0:
256,192,318936,1,8,0:0:0:0:
256,192,319232,1,0,0:0:0:0:
256,192,319380,1,0,0:0:0:0:
256,192,319676,1,0,0:0:0:0:
256,192,319825,1,8,0:0:0:0:
256,192,320047,1,0,0:0:0:0:
256,192,320121,1,0,0:0:0:0:
256,192,320195,1,0,0:0:0:0:
256,192,320269,1,8,0:0:0:0:
256,192,320565,1,0,0:0:0:0:
256,192,320713,1,12,0:0:0:0:
256,192,321158,1,0,0:0:0:0:
256,192,321454,1,0,0:0:0:0:
256,192,321602,1,8,0:0:0:0:
256,192,322047,1,0,0:0:0:0:
256,192,322343,1,0,0:0:0:0:
256,192,322491,1,8,0:0:0:0:
256,192,322788,1,0,0:0:0:0:
256,192,322936,1,0,0:0:0:0:
256,192,323380,1,8,0:0:0:0:
256,192,323528,1,8,0:0:0:0:
256,192,323676,1,0,0:0:0:0:
256,192,323825,1,0,0:0:0:0:
256,192,323973,1,0,0:0:0:0:
256,192,324121,1,0,0:0:0:0:
256,192,324269,1,12,0:0:0:0:
256,192,324713,1,0,0:0:0:0:
256,192,325010,1,0,0:0:0:0:
256,192,325158,1,8,0:0:0:0:
256,192,325602,1,0,0:0:0:0:
256,192,325899,1,0,0:0:0:0:
256,192,326047,1,8,0:0:0:0:
256,192,326343,1,0,0:0:0:0:
256,192,326491,1,0,0:0:0:0:
256,192,326788,1,0,0:0:0:0:
256,192,326936,1,8,0:0:0:0:
256,192,327380,1,0,0:0:0:0:
256,192,327676,1,0,0:0:0:0:
256,192,327825,1,12,0:0:0:0:
256,192,328269,1,0,0:0:0:0:
256,192,328565,1,0,0:0:0:0:
256,192,328713,1,8,0:0:0:0:
256,192,329158,1,0,0:0:0:0:
256,192,329454,1,0,0:0:0:0:
256,192,329602,1,8,0:0:0:0:
256,192,329899,1,0,0:0:0:0:
256,192,330047,1,0,0:0:0:0:
256,192,330491,5,8,0:0:0:0:
256,192,330639,1,8,0:0:0:0:
256,192,330788,1,0,0:0:0:0:
256,192,330936,1,0,0:0:0:0:
256,192,331084,1,0,0:0:0:0:
256,192,331232,1,0,0:0:0:0:
256,192,331380,1,8,0:0:0:0:
256,192,333158,5,8,0:0:0:0:
256,192,334936,5,8,0:0:0:0:
256,192,336713,5,8,0:0:0:0:
256,192,337158,1,0,0:0:0:0:
256,192,337602,1,8,0:0:0:0:
256,192,338047,5,0,0:0:0:0:
