osu file format v14

[General]
AudioFilename: audio.mp3
AudioLeadIn: 0
PreviewTime: 194672
Countdown: 1
SampleSet: Soft
StackLeniency: 0.7
Mode: 0
LetterboxInBreaks: 0
WidescreenStoryboard: 0

[Editor]
Bookmarks: 10977,11846,12933,13803,14020,14238,26629,27064,27281,27498,27716,27933,29672,30107,30759,31629,33368,35107,38585,40324,43585,44672,45542,45977,46846,49020,51629,54238,54672,55977,59455,61629,62498,66411,67281,68151,69020,69455,69672,74890,81846,83585,86846,87281,90324,107933,112064,112933,120977,122064,128585,132498,135977,139455,141194,144455,150324,151411,155542,163368,167716,174672,181194,183368,188585,190324,192064,195542,196629,197281,198151,199020,201846,207716,215977,219890,226846,232064,237281,239890,240759,242064,244238,249346
DistanceSpacing: 1.5
BeatDivisor: 4
GridSize: 8
TimelineZoom: 1.2

[Metadata]
Title:alarm
TitleUnicode:alarm
Artist:Silent Siren
ArtistUnicode:Silent Siren
Creator:darren08chen
Version:Smile
Source:
Tags:Silent Siren alarm
BeatmapID:1354197
BeatmapSetID:638361

[Difficulty]
HPDrainRate:5.5
CircleSize:4
OverallDifficulty:7
ApproachRate:9
SliderMultiplier:1.4
SliderTickRate:1

[Events]
//Background and Video events
0,0,"ss2.jpg",0,0
//Break Periods
2,167698,168855
2,169655,170594
2,171394,172333
2,173133,174072
2,174872,175811
2,176611,177551
2,178351,179290
2,202046,207116
//Storyboard Layer 0 (Background)
//Storyboard Layer 1 (Fail)
//Storyboard Layer 2 (Pass)
//Storyboard Layer 3 (Foreground)
//Storyboard Sound Samples

[TimingPoints]
325,434.782608695652,4,2,0,100,1,0

[HitObjects]
172,73,759,6,0,B|127:144|127:144|158:166,1,105
219,159,1411,1,0,0:0:0:0:
339,305,2498,6,0,B|402:249|402:249|366:217,1,105
307,227,3151,1,0,0:0:0:0:
67,233,4238,6,0,B|136:266|136:266|153:236|153:236,1,105
215,227,4890,1,0,0:0:0:0:
464,160,5977,6,0,B|400:112|400:112|368:128,1,105
320,160,6629,1,0,0:0:0:0:
96,128,7716,5,0,0:0:0:0:
208,240,8042,1,0,0:0:0:0:
64,288,8368,1,0,0:0:0:0:
416,272,9455,5,0,0:0:0:0:
304,160,9781,1,0,0:0:0:0:
432,96,10107,1,0,0:0:0:0:
225,57,10977,5,0,0:0:0:0:
197,54,11085,1,0,0:0:0:0:
177,59,11194,2,0,P|131:111|138:188,1,140
64,304,11846,5,0,0:0:0:0:
96,304,11955,1,0,0:0:0:0:
128,304,12064,1,0,0:0:0:0:
160,304,12172,1,0,0:0:0:0:
192,304,12281,2,0,L|240:304,5,35
256,304,12933,5,0,0:0:0:0:
352,64,13151,1,0,0:0:0:0:
160,64,13803,5,0,0:0:0:0:
432,256,14020,1,0,0:0:0:0:
147,275,14238,5,0,0:0:0:0:
124,242,14346,1,0,0:0:0:0:
116,206,14455,1,0,0:0:0:0:
125,169,14564,1,0,0:0:0:0:
152,142,14672,5,0,0:0:0:0:
337,256,14890,1,0,0:0:0:0:
225,80,15107,1,0,0:0:0:0:
257,288,15324,2,0,P|212:248|129:256,1,140
129,256,15977,1,0,0:0:0:0:
224,96,16411,5,0,0:0:0:0:
64,192,16629,1,0,0:0:0:0:
288,160,16846,1,0,0:0:0:0:
176,192,17064,2,0,P|176:256|240:304,1,140
240,304,17716,1,0,0:0:0:0:
128,208,18151,5,0,0:0:0:0:
368,128,18368,1,0,0:0:0:0:
192,112,18585,1,0,0:0:0:0:
320,240,18803,2,0,P|256:288|192:288,1,140
96,208,19672,6,0,P|112:128|192:112,1,140
233,173,20324,1,0,0:0:0:0:
343,60,20542,1,0,0:0:0:0:
410,172,20759,1,0,0:0:0:0:
288,240,21194,6,0,P|242:278|160:272,1,140
165,274,21846,1,0,0:0:0:0:
48,176,22064,1,0,0:0:0:0:
96,32,22281,1,0,0:0:0:0:
193,105,22716,2,0,L|260:50,1,70
311,60,23368,6,0,P|405:37|459:77,1,140
386,114,24238,2,0,P|429:189|426:245,1,140
314,183,24890,1,0,0:0:0:0:
352,279,25107,1,0,0:0:0:0:
144,256,25542,5,0,0:0:0:0:
128,32,25759,1,0,0:0:0:0:
320,112,25977,1,0,0:0:0:0:
80,144,26194,1,0,0:0:0:0:
256,240,26411,2,0,L|336:240,1,70
320,48,27064,5,0,0:0:0:0:
416,288,27281,1,0,0:0:0:0:
208,128,27498,1,0,0:0:0:0:
416,144,27716,1,0,0:0:0:0:
272,224,27933,6,0,P|240:272|208:272,1,70
80,256,28368,1,0,0:0:0:0:
48,96,28585,2,0,P|96:48|176:48,1,140
230,152,29672,6,0,P|266:73|322:42,1,140
374,108,30324,1,0,0:0:0:0:
462,47,30759,1,0,0:0:0:0:
468,178,31194,1,0,0:0:0:0:
368,272,31629,5,0,0:0:0:0:
224,144,32064,2,0,B|192:128|160:128|144:160|144:192|240:256|240:256|288:224|320:192|304:128|272:160,1,350
128,32,33368,1,0,0:0:0:0:
64,112,33585,2,0,P|32:160|48:176,1,70
272,304,34238,5,0,0:0:0:0:
400,144,34455,1,0,0:0:0:0:
352,336,34672,1,0,0:0:0:0:
320,128,34890,1,0,0:0:0:0:
464,288,35107,6,0,L|384:240,1,70
336,336,35542,2,0,L|304:256,1,70
416,240,35977,2,0,L|352:208,1,70
288,272,36411,2,0,L|256:208,1,70
192,288,36846,5,0,0:0:0:0:
256,96,37064,1,0,0:0:0:0:
320,288,37281,1,0,0:0:0:0:
160,176,37498,1,0,0:0:0:0:
352,176,37716,1,0,0:0:0:0:
288,320,38151,6,0,P|224:320|160:256,1,140
256,80,39020,1,0,0:0:0:0:
384,288,39455,1,0,0:0:0:0:
80,176,39890,1,0,0:0:0:0:
144,304,40324,1,0,0:0:0:0:
368,272,40759,5,0,0:0:0:0:
368,176,41194,2,0,L|464:176,2,70
448,96,41846,2,0,L|448:16,1,70
336,96,42281,1,0,0:0:0:0:
160,48,42498,2,0,P|224:96|208:176,1,140
336,288,43585,5,0,0:0:0:0:
416,192,43803,1,0,0:0:0:0:
336,80,44020,1,0,0:0:0:0:
224,80,44238,2,0,P|112:48|80:64,1,140
32,144,45107,6,0,L|176:144,1,140
176,272,45977,2,0,P|160:240|160:320,1,280
304,240,47064,1,0,0:0:0:0:
352,336,47281,1,0,0:0:0:0:
448,288,47498,1,0,0:0:0:0:
416,176,47716,6,0,P|448:64|432:32,1,140
336,32,48585,2,0,P|304:144|320:176,1,140
208,160,49455,1,0,0:0:0:0:
176,32,49890,1,0,0:0:0:0:
96,112,50324,1,0,0:0:0:0:
208,176,50759,2,0,L|304:176,1,70
80,224,51194,2,0,L|160:272,2,70
240,320,52064,5,0,0:0:0:0:
336,320,52498,2,0,L|416:320,1,70
480,240,52933,2,0,L|400:240,1,70
336,160,53368,2,0,L|416:160,1,70
480,80,53803,2,0,L|384:80,1,70
320,80,54238,5,0,0:0:0:0:
226,30,54672,5,0,0:0:0:0:
186,45,54781,1,0,0:0:0:0:
152,69,54890,1,0,0:0:0:0:
125,102,54998,1,0,0:0:0:0:
131,146,55107,1,0,0:0:0:0:
162,176,55216,1,0,0:0:0:0:
205,193,55324,1,0,0:0:0:0:
239,175,55433,1,0,0:0:0:0:
283,159,55542,1,0,0:0:0:0:
320,180,55651,1,0,0:0:0:0:
335,220,55759,1,0,0:0:0:0:
340,261,55868,1,0,0:0:0:0:
325,307,55977,6,0,P|241:316|171:296,1,140
88,301,56846,6,0,L|146:224,1,70
31,162,57281,2,0,L|127:162,1,70
191,127,57716,2,0,L|216:60,2,70
208,218,58368,2,0,L|262:280,1,70
306,104,58803,2,0,L|393:100,2,70
448,176,59455,6,0,L|464:272,1,70
352,256,59890,2,0,L|336:176,2,70
464,336,60542,2,0,L|368:336,1,70
288,336,60977,2,0,L|208:272,1,70
128,320,61411,1,0,0:0:0:0:
64,256,61629,2,0,P|64:112|112:64,1,210
160,144,62498,6,0,B|240:80|240:80|288:80,1,140
352,32,63151,1,0,0:0:0:0:
448,32,63368,2,0,L|448:112,1,70
352,176,63803,2,0,L|448:176,2,70
384,288,64455,1,0,0:0:0:0:
368,304,64672,1,0,0:0:0:0:
352,320,64890,2,0,L|256:320,1,70
272,224,65324,2,0,L|368:224,2,70
416,112,65977,2,0,L|336:112,1,70
224,32,66411,6,0,L|176:96,1,70
160,112,66846,1,0,0:0:0:0:
416,80,67281,1,0,0:0:0:0:
128,272,67498,1,0,0:0:0:0:
368,304,67716,1,0,0:0:0:0:
159,56,67933,1,0,0:0:0:0:
464,112,68151,1,0,0:0:0:0:
473,311,68368,5,0,0:0:0:0:
445,284,68477,1,0,0:0:0:0:
402,264,68585,1,0,0:0:0:0:
368,270,68694,1,0,0:0:0:0:
336,286,68803,1,0,0:0:0:0:
308,304,68911,1,0,0:0:0:0:
278,316,69020,2,0,L|182:317,2,70
96,304,69672,5,0,0:0:0:0:
32,224,69890,2,0,L|112:224,1,70
48,128,70324,2,0,B|160:32|160:32|224:96|224:96|128:176,1,350
272,160,71629,2,0,L|352:160,1,70
336,80,72064,2,0,P|416:48|464:160,1,210
448,240,73151,5,0,0:0:0:0:
384,336,73368,1,0,0:0:0:0:
320,240,73585,1,0,0:0:0:0:
272,320,73803,2,0,P|112:320|48:160,1,350
32,80,75107,2,0,P|64:32|96:32,1,70
144,112,75542,2,0,P|176:224|272:192,1,210
432,48,76629,5,0,0:3:0:0:
368,144,76846,1,0,0:3:0:0:
304,48,77063,1,0,0:3:0:0:
464,192,77281,2,0,B|416:336|416:336|352:240|352:240|448:208,1,350
304,304,78585,2,0,P|256:336|192:288,1,140
96,320,79455,6,0,P|64:208|80:192,1,140
80,192,80107,1,0,0:0:0:0:
32,96,80542,2,0,P|144:32|240:64,1,210
144,144,81411,2,0,P|224:176|256:128,2,140
144,320,82498,5,0,0:0:0:0:
192,256,82716,1,0,0:0:0:0:
240,320,82933,2,0,L|384:320,1,140
405,150,83585,5,0,0:0:0:0:
141,224,83803,1,0,0:0:0:0:
326,226,84020,1,0,0:0:0:0:
151,60,84238,2,0,L|88:128,1,70
277,307,84672,5,0,0:0:0:0:
393,84,84890,1,0,0:0:0:0:
136,129,85107,1,0,0:0:0:0:
405,290,85324,1,0,0:0:0:0:
307,78,85542,5,0,0:0:0:0:
93,262,85759,1,0,0:0:0:0:
158,37,85977,1,0,0:0:0:0:
320,288,86194,1,0,0:0:0:0:
411,64,86411,5,0,0:0:0:0:
80,128,86629,1,0,0:0:0:0:
432,192,86846,2,0,P|405:213|426:183,1,70
144,256,87281,5,0,0:0:0:0:
336,64,87498,1,0,0:0:0:0:
368,288,87716,1,0,0:0:0:0:
144,64,87933,1,0,0:0:0:0:
421,191,88151,5,0,0:0:0:0:
81,117,88368,1,0,0:0:0:0:
281,324,88585,1,0,0:0:0:0:
342,44,88803,1,0,0:0:0:0:
117,254,89020,5,0,0:0:0:0:
462,133,89238,1,0,0:0:0:0:
90,144,89455,1,0,0:0:0:0:
429,294,89672,1,0,0:0:0:0:
259,52,89890,5,0,0:0:0:0:
114,295,90107,1,0,0:0:0:0:
145,215,90324,2,0,L|227:215,1,70
87,125,90759,1,0,0:0:0:0:
115,99,90868,1,0,0:0:0:0:
155,86,90977,1,0,0:0:0:0:
193,94,91085,1,0,0:0:0:0:
219,111,91194,2,0,L|277:160,1,70
224,304,91629,6,0,L|128:304,1,70
384,224,92064,2,0,L|291:225,1,70
400,48,92498,1,0,0:0:0:0:
256,48,92716,2,0,P|160:80|128:112,1,140
144,224,93368,1,0,0:0:0:0:
256,272,93585,5,0,0:0:0:0:
352,80,93803,1,0,0:0:0:0:
400,272,94021,1,0,0:0:0:0:
240,144,94238,1,0,0:0:0:0:
448,160,94455,1,0,0:0:0:0:
176,48,94672,5,0,0:0:0:0:
80,112,94890,1,0,0:0:0:0:
96,224,95107,1,0,0:0:0:0:
160,320,95324,2,0,P|229:277|233:210,1,140
240,192,95977,1,0,0:0:0:0:
368,48,96411,5,0,0:0:0:0:
448,128,96629,1,0,0:0:0:0:
416,240,96846,1,0,0:0:0:0:
384,336,97063,2,0,P|304:304|272:240,1,140
272,224,97716,1,0,0:0:0:0:
48,288,98151,5,0,0:0:0:0:
224,224,98368,1,0,0:0:0:0:
169,320,98585,1,0,0:0:0:0:
160,112,98803,2,0,P|96:160|32:160,1,140
16,96,99672,6,0,P|80:48|144:48,1,140
233,173,100324,1,0,0:0:0:0:
343,60,100542,1,0,0:0:0:0:
410,172,100759,1,0,0:0:0:0:
464,304,101194,6,0,P|418:342|336:336,1,140
256,240,101846,1,0,0:0:0:0:
272,336,102064,1,0,0:0:0:0:
352,272,102281,1,0,0:0:0:0:
176,336,102716,2,0,L|176:256,1,70
64,192,103368,6,0,P|158:169|212:209,1,140
224,32,104238,2,0,P|267:107|264:163,1,140
336,160,104890,1,0,0:0:0:0:
336,48,105107,1,0,0:0:0:0:
96,256,105542,5,0,0:0:0:0:
144,80,105759,1,0,0:0:0:0:
288,192,105977,1,0,0:0:0:0:
96,256,106194,1,0,0:0:0:0:
192,320,106411,2,0,L|272:320,1,70
368,144,107064,5,0,0:0:0:0:
416,336,107281,1,0,0:0:0:0:
288,224,107498,1,0,0:0:0:0:
480,256,107716,1,0,0:0:0:0:
448,96,107933,6,0,L|384:48,2,70
320,48,108585,2,0,L|256:128,1,70
368,160,109020,1,0,0:0:0:0:
224,32,109238,2,0,L|144:32,1,70
48,208,109672,5,0,0:0:0:0:
208,144,109890,1,0,0:0:0:0:
64,64,110107,1,0,0:0:0:0:
96,272,110324,2,0,P|80:320|64:336,1,70
64,336,110759,1,0,0:0:0:0:
32,192,110977,2,0,L|192:192,1,140
224,304,111629,6,0,L|304:304,1,70
384,240,112064,2,0,B|352:224|336:288|416:336|416:336|480:288|464:208|416:240,1,280
320,160,113151,2,0,L|400:160,1,70
448,64,113585,2,0,L|368:64,1,70
288,64,114020,6,0,L|224:144,1,70
192,32,114455,2,0,L|128:112,1,70
80,48,114890,1,0,0:0:0:0:
32,144,115107,6,0,P|16:192|32:224,1,70
48,288,115542,2,0,P|64:336|96:352,1,70
192,320,115977,6,0,P|208:272|192:240,1,70
192,160,116411,2,0,P|176:128|144:96,1,70
240,64,116846,6,0,P|288:32|320:48,1,70
448,32,117281,1,0,0:0:0:0:
272,160,117498,1,0,0:0:0:0:
464,160,117716,1,0,0:0:0:0:
464,272,117933,2,0,L|400:336,2,70
304,320,118585,6,0,L|224:320,1,70
80,272,119020,2,0,L|160:272,1,70
304,224,119455,2,0,L|224:224,1,70
80,176,119890,2,0,L|160:176,1,70
304,112,120324,2,0,L|224:112,1,70
96,64,120759,1,0,0:0:0:0:
256,64,120977,5,0,0:0:0:0:
288,48,121085,1,0,0:0:0:0:
320,48,121194,1,0,0:0:0:0:
352,64,121303,1,0,0:0:0:0:
368,96,121411,1,0,0:0:0:0:
368,128,121520,1,0,0:0:0:0:
352,160,121629,1,0,0:0:0:0:
320,176,121738,1,0,0:0:0:0:
304,208,121846,1,0,0:0:0:0:
320,240,121955,1,0,0:0:0:0:
352,272,122064,6,0,L|416:320,1,70
464,240,122498,2,0,B|400:192|400:192|464:128,1,140
464,48,123151,1,0,0:0:0:0:
352,64,123368,2,0,P|304:32|288:48,2,70
272,128,124020,2,0,L|176:128,1,70
224,32,124455,2,0,B|176:32|176:32|192:64,1,70
32,32,124890,1,0,0:0:0:0:
64,112,125107,1,0,0:0:0:0:
48,256,125542,5,0,0:0:0:0:
112,336,125759,1,0,0:0:0:0:
176,256,125977,2,0,B|160:224|160:224|208:224,1,70
256,336,126411,1,0,0:0:0:0:
320,256,126629,2,0,P|368:272|368:288,2,70
464,336,127281,1,0,0:0:0:0:
464,208,127498,1,0,0:0:0:0:
336,128,127716,2,0,L|432:128,1,70
480,32,128151,2,0,L|384:32,1,70
288,32,128585,6,0,P|208:32|144:48,1,140
208,128,129238,1,0,0:0:0:0:
64,32,129455,2,0,L|32:96,1,70
128,112,129890,2,0,L|160:176,1,70
64,176,130324,2,0,L|48:256,1,70
80,336,130759,2,0,L|160:336,2,70
224,224,131411,1,0,0:0:0:0:
272,336,131629,1,0,0:0:0:0:
352,192,131846,6,0,L|384:272,1,70
400,304,132281,1,0,0:0:0:0:
480,352,132498,2,0,L|480:272,1,70
464,192,132933,2,0,L|432:112,1,70
448,48,133368,2,0,P|416:32|368:48,1,70
304,32,133803,2,0,L|272:96,1,70
208,32,134238,1,0,0:0:0:0:
128,48,134455,2,0,B|80:16|48:64|48:112|112:128|160:128|160:176,1,210
48,192,135324,5,0,0:0:0:0:
32,272,135542,2,0,L|128:272,1,70
160,328,135977,6,0,L|191:265,1,70
392,164,136411,2,0,P|468:176|388:208,1,210,0|0,0:3|0:3,0:3:0:0:
352,328,137281,2,0,L|320:265,1,70
160,56,137716,2,0,L|191:118,1,70
115,219,138151,2,0,P|41:185|119:163,1,210,0|0,0:3|0:3,0:3:0:0:
352,56,139020,2,0,L|320:118,1,70
16,28,139455,6,0,L|64:92,1,70
152,56,139890,1,0,0:0:0:0:
176,232,140324,1,0,0:0:0:0:
336,152,140542,1,0,0:0:0:0:
216,104,140759,1,0,0:0:0:0:
296,280,140977,1,0,0:0:0:0:
168,328,141194,1,0,0:0:0:0:
368,320,141412,5,0,0:0:0:0:
384,288,141520,1,0,0:0:0:0:
416,256,141629,1,0,0:0:0:0:
448,240,141738,1,0,0:0:0:0:
448,192,141847,1,0,0:0:0:0:
432,160,141955,1,0,0:0:0:0:
416,128,142064,2,0,L|368:64,2,70
208,64,142716,5,0,0:0:0:0:
304,160,142933,1,0,0:0:0:0:
296,288,143151,1,0,0:0:0:0:
152,344,143368,2,0,B|128:272|128:272|120:264|120:264|128:256|128:256|160:184|160:184|192:256|192:256|200:264|200:264|192:272|192:272|168:344,1,350
169,339,144672,6,0,P|200:304|240:312,1,70
220,303,145107,2,0,P|214:297|242:314,1,280
304,64,146193,5,0,0:0:0:0:
128,144,146411,1,0,0:0:0:0:
216,320,146628,1,0,0:0:0:0:
360,40,146846,2,0,B|384:112|384:112|392:120|392:120|384:128|384:128|352:200|352:200|320:128|320:128|312:120|312:120|320:112|320:112|344:40,1,350
342,44,148150,2,0,P|312:80|272:72,1,70
292,81,148585,2,0,P|297:86|269:69,1,280
456,232,149672,5,0,0:0:0:0:
456,344,149890,1,0,0:0:0:0:
336,344,150107,1,0,0:0:0:0:
312,200,150324,2,0,B|272:176|256:248|256:248|248:256|248:256|256:264|256:264|256:352|256:352|168:232,1,350
208,168,151629,2,0,P|128:168|96:216,1,140
56,88,152498,6,0,L|136:48,1,70
192,56,152933,2,0,L|266:88,2,70
352,80,153585,2,0,P|344:64|384:88,1,140
440,184,154238,1,0,0:0:0:0:
448,328,154455,2,0,L|352:352,1,70
216,296,154890,2,0,L|288:280,2,70
64,336,155542,5,0,0:0:0:0:
64,264,155759,1,0,0:0:0:0:
64,192,155977,2,0,L|64:48,1,140
168,64,156629,5,0,0:0:0:0:
384,168,156846,1,0,0:0:0:0:
224,192,157064,1,0,0:0:0:0:
320,48,157281,2,0,L|408:48,1,70
80,168,157716,5,0,0:0:0:0:
272,288,157933,1,0,0:0:0:0:
320,112,158151,1,0,0:0:0:0:
120,328,158368,1,0,0:0:0:0:
368,224,158585,5,0,0:0:0:0:
176,40,158803,1,0,0:0:0:0:
168,232,159020,1,0,0:0:0:0:
344,336,159238,1,0,0:0:0:0:
424,72,159455,5,0,0:0:0:0:
184,48,159672,2,0,L|120:96,1,70
176,248,160324,5,0,0:0:0:0:
336,136,160541,1,0,0:0:0:0:
256,296,160759,1,0,0:0:0:0:
256,88,160976,1,0,0:0:0:0:
336,336,161194,1,0,0:0:0:0:
176,48,161411,1,0,0:0:0:0:
352,264,161629,5,0,0:0:0:0:
160,120,161846,1,0,0:0:0:0:
360,192,162064,1,0,0:0:0:0:
152,192,162281,1,0,0:0:0:0:
304,304,162498,2,0,P|344:304|352:272,1,70
208,80,162933,2,0,P|168:80|160:112,1,70
256,160,163368,2,0,B|224:208|224:208|288:208|288:208|256:168,1,140
264,184,163911,5,0,0:0:0:0:
312,208,164020,1,0,0:0:0:0:
360,232,164129,1,0,0:0:0:0:
400,256,164238,2,0,L|400:160,1,70
400,48,164672,6,0,L|304:48,1,70
296,136,165107,2,0,L|203:137,1,70
168,56,165541,1,0,0:0:0:0:
96,160,165759,2,0,P|56:264|80:312,1,140
80,320,166411,1,0,0:0:0:0:
216,232,166628,5,0,0:0:0:0:
424,248,166845,1,0,0:0:0:0:
264,120,167062,1,0,0:0:0:0:
312,312,167280,1,0,0:0:0:0:
408,120,167498,1,0,0:0:0:0:
128,64,169455,5,0,0:0:0:0:
256,64,171194,5,0,0:0:0:0:
384,64,172933,5,0,0:0:0:0:
384,320,174672,5,0,0:0:0:0:
256,320,176411,5,0,0:0:0:0:
128,320,178151,5,0,0:0:0:0:
256,192,179890,5,0,0:0:0:0:
40,48,181194,5,0,0:0:0:0:
64,32,181303,1,0,0:0:0:0:
88,48,181411,1,0,0:0:0:0:
112,32,181520,1,0,0:0:0:0:
136,48,181629,2,0,L|216:48,1,70
288,56,181955,2,0,P|272:104|240:128,1,70
144,144,182281,2,0,B|176:184|176:184|216:200,1,70
264,280,182716,2,0,L|264:192,1,70
456,336,183151,5,0,0:0:0:0:
456,304,183259,1,0,0:0:0:0:
456,256,183368,2,0,P|478:230|481:195,1,70
464,104,183694,2,0,P|442:77|408:70,1,70
304,136,184020,2,0,P|306:169|336:200,1,70
352,328,184455,1,0,0:0:0:0:
216,152,184672,1,0,0:0:0:0:
56,336,184890,5,0,0:0:0:0:
56,304,184998,1,0,0:0:0:0:
56,256,185107,2,0,P|33:230|30:195,1,70
48,104,185433,2,0,P|69:77|103:70,1,70
208,136,185759,2,0,P|205:169|176:200,1,70
160,328,186194,1,0,0:0:0:0:
296,152,186411,1,0,0:0:0:0:
256,32,186629,5,0,0:0:0:0:
256,32,186738,1,0,0:0:0:0:
256,32,186846,2,0,B|296:48|296:48|304:80,1,70
296,152,187172,2,0,B|289:178|289:178|249:194,1,70
168,152,187498,2,0,B|136:104|136:104|168:72,1,70
232,104,187933,1,0,0:0:0:0:
128,240,188151,2,0,P|93:243|62:258,1,70
216,256,188585,6,0,B|224:247|224:247|192:199,1,70
111,157,188911,2,0,B|71:173|71:173|64:199,1,70
58,277,189237,2,0,B|64:303|64:303|104:319,1,70
128,240,189672,1,0,0:0:0:0:
368,264,189890,1,0,0:0:0:0:
280,272,190324,6,0,B|271:263|271:263|303:215,1,70
384,173,190650,2,0,B|424:189|424:189|430:215,1,70
437,293,190976,2,0,B|430:319|430:319|390:335,1,70
368,264,191411,1,0,0:0:0:0:
416,48,191629,1,0,0:0:0:0:
256,48,192064,5,0,0:0:0:0:
224,64,192172,1,0,0:0:0:0:
192,96,192281,1,0,0:0:0:0:
176,128,192390,1,0,0:0:0:0:
168,168,192498,1,0,0:0:0:0:
168,200,192607,1,0,0:0:0:0:
184,240,192716,1,0,0:0:0:0:
208,264,192824,1,0,0:0:0:0:
240,288,192933,1,0,0:0:0:0:
272,296,193042,1,0,0:0:0:0:
312,296,193151,1,0,0:0:0:0:
344,280,193259,1,0,0:0:0:0:
368,248,193368,1,0,0:0:0:0:
384,216,193477,1,0,0:0:0:0:
392,176,193585,1,0,0:0:0:0:
400,144,193694,1,0,0:0:0:0:
408,104,193803,1,0,0:0:0:0:
400,64,193911,1,0,0:0:0:0:
368,48,194020,1,0,0:0:0:0:
328,48,194129,1,0,0:0:0:0:
296,72,194238,1,0,0:0:0:0:
288,112,194346,1,0,0:0:0:0:
304,144,194455,1,0,0:0:0:0:
328,176,194564,1,0,0:0:0:0:
360,200,194672,1,0,0:0:0:0:
352,30,194890,6,0,L|288:72,1,70
416,144,195324,1,0,0:0:0:0:
216,32,195542,2,0,P|208:208|368:280,1,350
272,136,196846,2,0,P|304:168|304:224,1,70
256,344,197281,2,0,B|152:256|152:256|104:120,1,280
304,88,198368,5,0,0:0:0:0:
384,240,198585,1,0,0:0:0:0:
208,232,198803,1,0,0:0:0:0:
256,192,199020,12,0,201846,0:0:0:0:
152,112,207716,5,0,0:0:0:0:
72,56,207933,1,0,0:0:0:0:
16,128,208151,2,0,P|40:192|104:192,1,140
216,80,208803,5,0,0:0:0:0:
264,296,209020,1,0,0:0:0:0:
103,192,209238,1,0,0:0:0:0:
320,32,209455,6,0,L|352:96,1,70
440,240,209890,1,0,0:0:0:0:
448,40,210107,1,0,0:0:0:0:
248,176,210324,1,0,0:0:0:0:
88,48,210542,5,0,0:0:0:0:
120,280,210759,1,0,0:0:0:0:
8,128,210977,1,0,0:0:0:0:
208,224,211194,1,0,0:0:0:0:
424,48,211411,5,0,3:0:0:0:
392,280,211628,1,0,3:0:0:0:
504,128,211846,1,0,3:0:0:0:
312,224,212064,2,0,P|304:208|296:240,1,70
136,40,212498,5,0,0:0:0:0:
384,168,212716,1,0,0:0:0:0:
216,136,212933,1,0,0:0:0:0:
288,80,213151,1,0,0:0:0:0:
224,304,213368,5,0,0:0:0:0:
296,248,213586,1,0,0:0:0:0:
128,216,213803,2,0,P|144:184|152:200,1,70
429,294,214238,5,0,0:0:0:0:
90,144,214455,1,0,0:0:0:0:
462,133,214672,1,0,0:0:0:0:
117,254,214890,1,0,0:0:0:0:
259,52,215108,5,0,0:0:0:0:
328,320,215325,1,0,0:0:0:0:
208,144,215542,2,0,B|190:156|190:156|182:204,1,70
424,240,215976,5,0,0:0:0:0:
408,208,216085,1,0,0:0:0:0:
384,184,216193,1,0,0:0:0:0:
352,168,216302,1,0,0:0:0:0:
320,168,216411,2,0,P|272:184|240:224,1,70
304,272,216846,6,0,P|272:312|232:320,1,70
136,200,217281,2,0,P|160:168|216:160,1,70
184,264,217716,1,0,0:0:0:0:
130,309,217933,2,0,L|184:264,1,70
381,74,218368,6,0,L|328:120,1,70
432,192,218803,1,0,0:0:0:0:
384,304,219020,2,0,L|312:248,2,70
256,192,219672,1,0,0:0:0:0:
48,64,219890,5,0,0:0:0:0:
120,40,220107,1,0,0:0:0:0:
104,112,220324,1,0,0:0:0:0:
88,184,220542,2,0,P|144:176|176:104,1,140
256,40,221194,1,0,0:0:0:0:
464,64,221629,5,0,0:0:0:0:
392,40,221846,1,0,0:0:0:0:
408,112,222063,1,0,0:0:0:0:
424,184,222281,2,0,P|368:176|336:104,1,140
256,32,222933,1,0,0:0:0:0:
176,112,223368,5,0,0:0:0:0:
256,192,223585,1,0,0:0:0:0:
336,112,223803,1,0,0:0:0:0:
312,232,224020,2,0,P|256:272|192:224,1,140
192,152,224890,6,0,P|256:120|320:152,1,140
336,272,225542,1,0,0:0:0:0:
256,192,225759,1,0,0:0:0:0:
176,272,225977,1,0,0:0:0:0:
224,336,226194,2,0,P|258:341|292:333,1,70
472,352,226846,5,0,0:0:0:0:
440,184,227063,1,0,0:0:0:0:
376,328,227280,1,0,0:0:0:0:
432,272,227498,2,0,P|376:232|352:160,1,140
416,96,228150,1,0,0:0:0:0:
312,32,228585,5,0,0:0:0:0:
280,200,228802,1,0,0:0:0:0:
216,56,229019,1,0,0:0:0:0:
272,112,229237,2,0,P|216:152|192:224,1,140
256,288,229889,1,0,0:0:0:0:
32,304,230324,5,0,0:0:0:0:
64,136,230541,1,0,0:0:0:0:
128,280,230758,1,0,0:0:0:0:
72,224,230976,2,0,P|128:184|152:112,1,140
72,136,231629,1,0,0:0:0:0:
128,48,231846,2,0,P|176:48|208:72,1,70
232,136,232281,1,0,0:0:0:0:
208,184,232498,6,0,P|184:232|152:256,1,70
256,256,232933,1,0,0:0:0:0:
312,312,233151,2,0,P|336:264|368:240,1,70
368,240,233477,1,0,0:0:0:0:
392,224,233585,1,0,0:0:0:0:
416,208,233694,1,0,0:0:0:0:
440,192,233803,6,0,P|440:128|384:80,1,140
368,152,234455,2,0,P|312:104|320:40,1,140
232,72,235107,2,0,P|168:40|104:80,1,140
168,120,235759,1,0,0:0:0:0:
88,296,235977,1,0,0:0:0:0:
256,216,236194,5,0,0:0:0:0:
80,192,236411,1,0,0:0:0:0:
224,304,236629,1,0,0:0:0:0:
336,336,236846,2,0,P|376:320|408:336,1,70
463,191,237281,6,0,P|401:219|342:187,1,140
256,216,237933,2,0,P|259:148|205:107,1,140
188,179,238585,2,0,P|135:135|134:67,1,140
208,32,239238,1,0,0:0:0:0:
296,72,239455,1,0,0:0:0:0:
392,40,239890,6,0,B|477:110|282:157|372:223,1,210
224,144,240759,2,0,B|192:128|160:128|144:160|144:192|240:256|240:256|288:224|320:192|304:128|272:160,1,350
376,80,242064,1,0,0:0:0:0:
416,160,242281,2,0,P|440:200|432:240,1,70
384,280,242716,2,0,P|360:240|368:200,1,70
256,112,243368,5,0,0:0:0:0:
176,192,243694,1,0,0:0:0:0:
256,272,244020,1,0,0:0:0:0:
256,192,244238,12,0,249319,0:0:0:0:
208,200,249346,5,0,0:0:0:0:
256,152,249455,1,0,0:0:0:0:
304,200,249564,2,0,L|279:224,1,35
