osu file format v14

[General]
AudioFilename: audio.mp3
AudioLeadIn: 0
PreviewTime: 126880
Countdown: 0
SampleSet: Normal
StackLeniency: 0.7
Mode: 0
LetterboxInBreaks: 1
WidescreenStoryboard: 0

[Editor]
Bookmarks: 95459,106196
DistanceSpacing: 1.9
BeatDivisor: 2
GridSize: 4
TimelineZoom: 1.6

[Metadata]
Title:Yoshida-san
TitleUnicode:吉田さん
Artist:Silent Siren
ArtistUnicode:Silent Siren
Creator:october
Version:Reunion
Source:S
Tags:
BeatmapID:1187218
BeatmapSetID:561545

[Difficulty]
HPDrainRate:7
CircleSize:4
OverallDifficulty:8
ApproachRate:9.5
SliderMultiplier:2
SliderTickRate:1

[Events]
//Background and Video events
0,0,"bg.png",0,0
//Break Periods
2,76712,85934
2,167659,173250
//Storyboard Layer 0 (Background)
//Storyboard Layer 1 (Fail)
//Storyboard Layer 2 (Pass)
//Storyboard Layer 3 (Foreground)
//Storyboard Sound Samples

[TimingPoints]
723,315.789473684211,4,1,0,85,1,0
75249,-90.9090909090909,4,1,0,85,0,0
76512,-100,4,1,0,85,0,0
150249,-133.333333333333,4,1,0,85,0,0
150565,-100,4,1,0,85,0,0

[HitObjects]
56,216,15723,5,0,0:0:0:0:
180,128,15880,2,0,L|288:208,1,100
248,280,16196,2,0,P|340:236|356:192,1,100
360,144,16512,6,0,L|482:249,1,100
280,68,16828,1,0,0:0:0:0:
232,228,16986,1,0,0:0:0:0:
148,96,17144,1,0,0:0:0:0:
352,180,17301,1,0,0:0:0:0:
184,320,17459,2,0,P|64:248|60:220,1,100
56,160,17775,2,0,B|160:216|160:216|196:192|232:176|288:184,1,200
388,164,18249,5,0,0:0:0:0:
324,300,18407,1,0,0:0:0:0:
296,96,18565,1,0,0:0:0:0:
440,272,18723,5,0,0:0:0:0:
296,204,18880,1,0,0:0:0:0:
408,372,19038,1,0,0:0:0:0:
508,208,19196,1,0,0:0:0:0:
432,96,19354,2,0,B|388:68|388:68|312:64,1,100
200,68,19670,1,0,0:0:0:0:
304,244,19828,5,0,0:0:0:0:
364,156,19986,1,0,0:0:0:0:
128,200,20144,5,0,0:0:0:0:
236,348,20301,2,0,P|356:360|392:336,1,100
316,276,20617,2,0,P|416:328|428:372,1,100
472,232,20933,1,0,0:0:0:0:
368,88,21091,1,0,0:0:0:0:
216,224,21249,2,0,L|336:124,1,100
192,112,21565,5,0,0:0:0:0:
144,304,21723,1,0,0:0:0:0:
336,256,21880,2,0,B|380:232|380:232|408:172,1,100
424,48,22196,1,0,0:0:0:0:
272,136,22354,1,0,0:0:0:0:
364,120,22512,5,0,0:0:0:0:
168,56,22670,1,0,0:0:0:0:
220,256,22828,2,0,B|264:284|264:284|332:288,1,100
328,200,23144,2,0,B|408:216|408:328,1,100
456,176,23459,1,0,0:0:0:0:
368,92,23617,1,0,0:0:0:0:
468,72,23775,1,0,0:0:0:0:
308,236,23933,1,0,0:0:0:0:
264,112,24091,5,0,0:0:0:0:
440,208,24249,1,0,0:0:0:0:
364,96,24407,5,0,0:0:0:0:
276,239,24565,1,0,0:0:0:0:
184,88,24723,6,0,L|136:204,1,100
328,88,25038,2,0,L|376:204,1,100
256,172,25354,5,0,0:0:0:0:
148,272,25512,1,0,0:0:0:0:
380,120,25670,1,0,0:0:0:0:
400,165,25749,1,0,0:0:0:0:
391,209,25828,1,0,0:0:0:0:
376,256,25907,1,0,0:0:0:0:
398,299,25986,5,0,0:0:0:0:
256,172,26144,1,0,0:0:0:0:
304,356,26301,1,0,0:0:0:0:
260,172,26459,2,0,P|312:272|292:300,1,100
160,72,26775,5,0,0:0:0:0:
408,248,26933,2,0,B|372:268|360:308|360:308|304:304|280:332,1,100
220,236,27249,1,0,0:0:0:0:
320,160,27407,1,0,0:0:0:0:
144,176,27565,2,0,P|120:288|124:312,1,100
384,96,27880,2,0,P|248:96|216:124,1,100
188,88,28196,5,0,0:0:0:0:
316,268,28354,1,0,0:0:0:0:
316,268,28433,1,0,0:0:0:0:
316,268,28512,2,0,B|296:199|252:163|252:163,1,100
180,96,28828,1,0,0:0:0:0:
440,128,28986,1,0,0:0:0:0:
308,28,29144,1,0,0:0:0:0:
292,272,29301,1,0,0:0:0:0:
128,208,29459,2,0,L|268:156,1,100
388,119,29775,6,0,P|396:215|380:247,1,100
132,68,30091,1,0,0:0:0:0:
240,224,30249,1,0,0:0:0:0:
336,60,30407,2,0,P|264:88|192:156,1,100
112,236,30723,1,0,0:0:0:0:
436,200,30880,1,0,0:0:0:0:
244,88,31038,6,0,P|184:72|108:80,1,100
276,232,31354,2,0,P|364:240|416:224,1,100
60,176,31670,2,0,P|40:264|64:312,1,100
272,136,31986,5,0,0:0:0:0:
272,136,32065,1,0,0:0:0:0:
272,136,32144,1,0,0:0:0:0:
152,272,32301,2,0,P|136:180|168:144,1,100
404,168,32617,1,0,0:0:0:0:
296,324,32775,2,0,P|240:264|240:224,1,100
356,76,33091,1,0,0:0:0:0:
144,168,33249,2,0,P|52:172|16:156,1,100
232,40,33565,5,0,0:0:0:0:
328,204,33723,1,0,0:0:0:0:
88,104,33880,1,0,0:0:0:0:
160,280,34038,1,0,0:0:0:0:
312,104,34196,2,0,P|200:144|168:200,1,100
408,264,34512,2,0,P|276:312|264:304,1,100
128,160,34828,6,0,P|208:244|244:248,1,100
344,128,35144,1,0,0:0:0:0:
108,44,35301,1,0,0:0:0:0:
228,168,35459,1,0,0:0:0:0:
269,195,35538,1,0,0:0:0:0:
304,224,35617,1,0,0:0:0:0:
336,256,35696,1,0,0:0:0:0:
380,264,35775,1,0,0:0:0:0:
428,232,35854,1,0,0:0:0:0:
456,184,35933,1,0,0:0:0:0:
464,128,36012,1,0,0:0:0:0:
448,76,36091,5,0,0:0:0:0:
260,112,36249,1,0,0:0:0:0:
512,147,36407,2,0,P|412:63|360:59,1,100
284,160,36723,2,0,B|308:200|344:220|344:220|356:280,1,100
464,40,37038,2,0,P|356:112|356:136,1,100
128,144,37354,6,0,B|152:248|256:228|256:228|320:260,1,200
412,88,37828,5,0,0:0:0:0:
412,88,37907,1,0,0:0:0:0:
412,88,37986,2,0,P|300:84|276:100,1,100
256,260,38301,1,0,0:0:0:0:
432,192,38459,1,0,0:0:0:0:
184,80,38617,6,0,P|128:172|140:204,1,100
392,312,38933,2,0,P|336:224|304:208,1,100
120,116,39249,1,0,0:0:0:0:
208,300,39407,1,0,0:0:0:0:
352,80,39565,1,0,0:0:0:0:
80,256,39723,1,0,0:0:0:0:
400,208,39880,2,0,P|308:152|244:144,1,100
116,148,40196,5,0,0:0:0:0:
328,312,40354,1,0,0:0:0:0:
328,312,40433,1,0,0:0:0:0:
328,312,40512,2,0,P|332:252|288:192,1,100
109,56,40828,2,0,P|121:152|145:164,1,100
384,128,41144,6,0,P|312:184|240:168,1,100
124,244,41459,1,0,0:0:0:0:
264,116,41617,1,0,0:0:0:0:
416,312,41775,6,0,P|340:324|272:292,1,100
336,120,42091,2,0,P|432:168|480:160,1,100
168,300,42407,6,0,P|280:336|328:320,1,100
212,72,42723,2,0,P|104:136|100:176,1,100
224,272,43038,1,0,0:0:0:0:
316,164,43196,1,0,0:0:0:0:
136,288,43354,2,0,P|192:192|244:192,1,100
396,96,43670,6,0,P|292:136|284:160,1,100
224,272,43986,1,0,0:0:0:0:
188,120,44144,1,0,0:0:0:0:
456,208,44301,6,0,P|304:212|280:196,1,100
192,184,44617,1,0,0:0:0:0:
312,72,44775,1,0,0:0:0:0:
360,229,44933,6,0,P|260:205|208:141,1,100
104,100,45249,1,0,0:0:0:0:
188,292,45407,1,0,0:0:0:0:
364,100,45565,6,4,P|248:136|224:164,1,100
92,220,45880,1,0,0:0:0:0:
92,220,45959,1,0,0:0:0:0:
92,220,46038,1,0,0:0:0:0:
92,220,46117,1,0,0:0:0:0:
92,220,46196,6,0,P|156:296|224:304,1,100
332,104,46512,2,0,P|248:180|252:208,1,100
192,256,46828,5,0,0:0:0:0:
328,216,46986,1,0,0:0:0:0:
276,356,47144,1,0,0:0:0:0:
416,320,47301,1,0,0:0:0:0:
344,136,47459,6,0,P|244:196|240:216,1,100
192,296,47775,1,0,0:0:0:0:
328,216,47933,1,0,0:0:0:0:
256,100,48091,5,0,0:0:0:0:
344,336,48249,1,0,0:0:0:0:
124,196,48407,2,0,P|248:216|284:240,1,100
424,180,48723,6,0,P|352:120|316:124,1,100
168,104,49038,1,0,0:0:0:0:
348,196,49196,1,0,0:0:0:0:
172,292,49354,2,0,P|284:348|328:344,1,100
168,104,49670,2,0,P|88:168|104:232,1,100
176,196,49986,2,0,B|248:204|280:128|264:68|264:68|324:52,1,200
312,216,50617,6,0,P|236:272|188:272,1,100
80,312,50933,1,0,0:0:0:0:
160,184,51091,1,0,0:0:0:0:
12,124,51249,2,0,B|32:176|32:176|84:236,1,100
156,284,51565,1,0,0:0:0:0:
260,188,51723,1,0,0:0:0:0:
208,88,51880,6,0,P|148:180|156:232,1,100
360,160,52196,1,0,0:0:0:0:
256,280,52354,1,0,0:0:0:0:
452,288,52512,6,0,P|340:316|288:280,1,100
196,220,52828,1,0,0:0:0:0:
264,344,52986,1,0,0:0:0:0:
408,156,53144,6,0,P|300:216|280:248,1,100
207,277,53459,1,0,0:0:0:0:
392,244,53617,1,0,0:0:0:0:
228,112,53775,6,0,P|188:232|200:276,1,100
308,324,54091,1,0,0:0:0:0:
448,144,54249,1,0,0:0:0:0:
120,236,54407,2,0,P|224:276|252:268,1,100
416,256,54723,1,0,0:0:0:0:
308,80,54880,1,0,0:0:0:0:
308,80,54959,1,0,0:0:0:0:
308,80,55038,5,0,0:0:0:0:
200,252,55196,2,0,P|164:192|176:152,1,100
292,28,55512,1,0,0:0:0:0:
380,124,55670,5,0,0:0:0:0:
340,154,55749,1,0,0:0:0:0:
293,169,55828,1,0,0:0:0:0:
248,149,55907,1,0,0:0:0:0:
221,107,55986,1,0,0:0:0:0:
175,96,56065,1,0,0:0:0:0:
125,103,56144,1,0,0:0:0:0:
85,132,56223,1,0,0:0:0:0:
61,175,56301,2,0,P|56:236|120:288,1,100
180,320,56617,5,0,0:0:0:0:
164,188,56775,1,0,0:0:0:0:
364,104,56933,2,0,P|296:152|212:120,1,100
84,88,57249,2,0,P|60:192|88:228,1,100
148,296,57565,5,0,0:0:0:0:
288,80,57723,1,0,0:0:0:0:
212,196,57880,1,0,0:0:0:0:
136,80,58038,1,0,0:0:0:0:
304,280,58196,2,0,B|360:256|432:280|432:280|496:200,1,200
348,88,58670,5,0,0:0:0:0:
348,88,58749,1,0,0:0:0:0:
348,88,58828,2,0,P|260:140|252:164,1,100
324,324,59144,1,0,0:0:0:0:
344,184,59301,1,0,0:0:0:0:
184,224,59459,2,0,P|112:144|120:112,1,100
140,68,59775,1,0,0:0:0:0:
208,132,59933,1,0,0:0:0:0:
208,132,60012,1,0,0:0:0:0:
208,132,60091,6,0,P|239:93|284:72,1,100
312,172,60407,2,0,P|368:248|368:280,1,100
304,340,60723,1,0,0:0:0:0:
424,152,60880,1,0,0:0:0:0:
260,248,61038,1,0,0:0:0:0:
312,64,61196,1,0,0:0:0:0:
368,200,61354,5,0,0:0:0:0:
136,192,61512,1,0,0:0:0:0:
364,216,61670,1,0,0:0:0:0:
240,92,61828,1,0,0:0:0:0:
264,304,61986,1,0,0:0:0:0:
160,104,62144,1,0,0:0:0:0:
364,216,62301,2,0,P|265:218|239:193,1,100
104,152,62617,6,0,P|115:259|163:284,1,100
336,236,62933,2,0,P|236:208|184:156,1,100
384,120,63249,1,0,0:0:0:0:
412,272,63407,1,0,0:0:0:0:
244,120,63565,2,0,P|152:192|148:224,1,100
428,172,63880,5,0,0:0:0:0:
224,280,64038,1,0,0:0:0:0:
384,112,64196,1,0,0:0:0:0:
288,320,64354,1,0,0:0:0:0:
200,60,64512,6,0,P|116:168|128:208,1,100
332,220,64828,1,0,0:0:0:0:
124,316,64986,1,0,0:0:0:0:
420,264,65144,6,0,P|312:304|248:280,1,100
168,264,65459,1,0,0:0:0:0:
224,364,65617,1,0,0:0:0:0:
288,180,65775,5,0,0:0:0:0:
328,148,65854,1,0,0:0:0:0:
376,140,65933,1,0,0:0:0:0:
420,164,66012,1,0,0:0:0:0:
440,208,66091,1,0,0:0:0:0:
428,256,66170,1,0,0:0:0:0:
392,292,66249,1,0,0:0:0:0:
344,300,66328,1,0,0:0:0:0:
304,300,66407,6,0,P|220:264|192:228,1,100
128,184,66723,2,0,P|173:157|254:156,1,100
396,148,67038,1,0,0:0:0:0:
304,300,67196,1,0,0:0:0:0:
192,80,67354,2,0,P|156:192|180:216,1,100
184,316,67670,1,0,0:0:0:0:
292,208,67828,1,0,0:0:0:0:
336,352,67986,5,0,0:0:0:0:
212,224,68144,1,0,0:0:0:0:
380,160,68301,1,0,0:0:0:0:
232,332,68459,1,0,0:0:0:0:
128,188,68617,2,0,P|248:140|288:156,1,100
452,208,68933,5,0,0:0:0:0:
280,112,69091,1,0,0:0:0:0:
324,268,69249,1,0,0:0:0:0:
404,84,69407,1,0,0:0:0:0:
432,312,69565,1,0,0:0:0:0:
336,184,69723,1,0,0:0:0:0:
200,272,69880,2,0,P|228:148|276:132,1,100
296,48,70196,5,0,0:0:0:0:
272,224,70354,1,0,0:0:0:0:
124,132,70512,1,0,0:0:0:0:
112,308,70670,1,0,0:0:0:0:
328,124,70828,2,0,P|216:196|196:240,1,100
36,112,71144,2,0,P|132:200|144:228,1,100
280,304,71459,5,0,0:0:0:0:
172,264,71617,1,0,0:0:0:0:
292,172,71775,2,0,L|160:104,1,100
60,68,72091,1,0,0:0:0:0:
92,264,72249,1,0,0:0:0:0:
272,60,72407,5,0,0:0:0:0:
272,252,72565,1,0,0:0:0:0:
360,216,72723,6,0,P|280:160|232:168,1,100
60,140,73038,1,0,0:0:0:0:
160,308,73196,1,0,0:0:0:0:
284,136,73354,1,0,0:0:0:0:
44,260,73512,1,0,0:0:0:0:
264,288,73670,2,0,B|200:276|160:196,1,100
96,104,73986,5,0,0:0:0:0:
264,200,74144,1,0,0:0:0:0:
108,316,74301,1,0,0:0:0:0:
204,156,74459,1,0,0:0:0:0:
204,156,74538,1,0,0:0:0:0:
204,156,74617,2,0,P|216:48|188:4,1,100
112,148,74933,2,0,P|176:244|232:248,1,100
304,340,75249,5,0,0:0:0:0:
412,176,75407,1,0,0:0:0:0:
280,224,75565,1,4,0:0:0:0:
488,56,75723,1,0,0:0:0:0:
416,252,75880,1,0,0:0:0:0:
366,275,75959,1,0,0:0:0:0:
313,291,76038,1,0,0:0:0:0:
259,292,76117,1,0,0:0:0:0:
208,272,76196,1,0,0:0:0:0:
164,244,76275,5,0,0:0:0:0:
110,257,76354,1,0,0:0:0:0:
64,287,76433,1,0,0:0:0:0:
30,330,76512,1,0,0:0:0:0:
184,72,86459,5,0,0:0:0:0:
116,184,86617,1,0,0:0:0:0:
64,80,86775,5,0,0:0:0:0:
224,156,86933,2,0,P|204:212|152:256,1,100
68,248,87249,2,0,P|112:324|232:320,1,200
304,264,87723,5,0,0:0:0:0:
244,176,87880,2,0,P|172:130|151:132,1,100
68,128,88196,2,0,P|124:44|152:32,1,100
244,176,88512,2,0,P|340:200|412:140,1,200
216,68,88986,5,0,0:0:0:0:
216,68,89144,2,0,P|136:140|136:164,1,100
184,264,89459,1,0,0:0:0:0:
324,160,89617,1,0,0:0:0:0:
360,320,89775,2,0,P|464:276|480:240,1,100
472,120,90091,5,0,0:0:0:0:
348,248,90249,1,0,0:0:0:0:
292,72,90407,2,0,P|188:60|168:72,1,100
84,188,90723,2,0,P|184:196|204:212,1,100
332,320,91038,2,4,P|428:236|416:168,1,200,0|4,0:0|0:0,0:0:0:0:
408,88,91670,6,0,P|332:160|332:184,1,100
280,244,91986,1,0,0:0:0:0:
172,292,92144,1,0,0:0:0:0:
118,193,92301,2,0,P|194:121|214:121,1,100
336,84,92617,5,0,0:0:0:0:
372,240,92775,1,0,0:0:0:0:
372,240,92854,1,0,0:0:0:0:
372,240,92933,2,0,P|292:244|256:228,1,100
104,164,93249,2,0,P|104:240|120:272,1,100
252,120,93565,1,0,0:0:0:0:
252,280,93723,1,0,0:0:0:0:
252,280,93801,1,0,0:0:0:0:
252,280,93880,2,0,P|308:300|360:288,1,100
252,120,94196,6,0,P|164:56|136:56,1,100
60,208,94512,1,0,0:0:0:0:
196,316,94670,1,0,0:0:0:0:
60,208,94828,2,0,P|88:100|108:88,1,100
184,296,95144,1,0,0:0:0:0:
280,152,95301,1,0,0:0:0:0:
184,296,95459,6,0,P|124:216|108:208,1,100
336,116,95775,2,0,P|424:64|460:64,1,100
248,272,96091,5,0,0:0:0:0:
148,112,96249,1,0,0:0:0:0:
380,264,96407,1,0,0:0:0:0:
400,219,96486,1,0,0:0:0:0:
391,175,96565,1,0,0:0:0:0:
376,128,96644,1,0,0:0:0:0:
398,85,96723,5,0,0:0:0:0:
256,212,96880,1,0,0:0:0:0:
304,28,97038,1,0,0:0:0:0:
260,212,97196,2,0,P|312:112|292:84,1,100
160,312,97512,5,0,0:0:0:0:
408,136,97670,2,0,B|372:116|360:76|360:76|304:80|280:52,1,100
320,308,97986,1,0,0:0:0:0:
220,148,98144,1,0,0:0:0:0:
88,332,98301,2,0,P|64:220|68:196,1,100
412,248,98617,2,0,P|276:248|244:220,1,100
148,172,98933,5,0,0:0:0:0:
408,112,99091,1,0,0:0:0:0:
408,112,99170,1,0,0:0:0:0:
408,112,99249,2,0,B|360:164|304:176|304:176,1,100
144,256,99565,5,0,0:0:0:0:
292,264,99723,1,0,0:0:0:0:
212,368,99880,5,0,0:0:0:0:
284,136,100038,1,0,0:0:0:0:
192,104,100196,2,0,P|207:196|244:226,1,100
376,232,100512,6,0,P|362:136|339:109,1,100
156,324,100828,1,0,0:0:0:0:
240,160,100986,1,0,0:0:0:0:
336,324,101144,2,0,P|264:296|232:252,1,100
112,148,101459,1,0,0:0:0:0:
380,176,101617,1,0,0:0:0:0:
249,280,101775,6,0,P|189:296|113:288,1,100
276,152,102091,2,0,P|364:144|416:160,1,100
170,206,102407,2,0,P|150:118|174:70,1,100
272,248,102723,5,0,0:0:0:0:
272,248,102801,1,0,0:0:0:0:
272,248,102880,1,0,0:0:0:0:
264,96,103038,2,0,P|313:99|351:130,1,100
404,216,103354,1,0,0:0:0:0:
240,20,103512,2,0,P|184:80|184:120,1,100
240,308,103828,1,0,0:0:0:0:
144,216,103986,2,0,P|52:212|16:228,1,100
232,344,104301,5,0,0:0:0:0:
328,180,104459,1,0,0:0:0:0:
88,280,104617,1,0,0:0:0:0:
160,104,104775,1,0,0:0:0:0:
312,280,104933,2,0,P|200:240|168:184,1,100
408,120,105249,2,0,P|276:72|264:80,1,100
136,124,105565,5,0,0:0:0:0:
324,208,105723,1,0,0:0:0:0:
156,296,105880,1,0,0:0:0:0:
328,356,106038,1,0,0:0:0:0:
204,200,106196,1,0,0:0:0:0:
204,200,106275,1,0,0:0:0:0:
204,200,106354,1,0,0:0:0:0:
204,200,106433,1,0,0:0:0:0:
204,200,106512,2,0,P|240:140|276:128,1,100
472,164,106828,6,0,P|392:272|320:264,1,200
192,148,107301,1,0,0:0:0:0:
192,148,107459,2,0,P|280:88|304:92,1,100
280,248,107775,2,0,P|372:192|400:192,1,100
176,328,108091,6,0,P|88:248|104:156,1,200
200,220,108565,1,0,0:0:0:0:
200,220,108644,1,0,0:0:0:0:
200,220,108723,2,0,P|284:172|288:140,1,100
312,64,109038,1,0,0:0:0:0:
196,108,109196,1,0,0:0:0:0:
308,288,109354,6,0,P|404:248|428:212,1,100
488,160,109670,1,0,0:0:0:0:
348,156,109828,1,0,0:0:0:0:
392,48,109986,5,0,0:0:0:0:
232,248,110144,1,0,0:0:0:0:
148,32,110302,1,0,0:0:0:0:
80,172,110460,5,0,0:0:0:0:
304,68,110617,2,0,P|424:112|440:200,1,200
284,276,111091,5,0,0:0:0:0:
284,276,111170,1,0,0:0:0:0:
284,276,111249,2,0,P|228:212|236:156,1,100
348,52,111565,1,0,0:0:0:0:
148,112,111723,1,0,0:0:0:0:
352,224,111880,6,0,P|316:148|276:128,1,100
120,292,112196,2,0,P|176:196|196:188,1,100
404,312,112512,2,0,P|332:220|316:216,1,100
132,156,112828,1,0,0:0:0:0:
340,64,112986,1,0,0:0:0:0:
216,264,113144,2,0,P|108:216|104:200,1,100
56,64,113459,5,0,0:0:0:0:
240,124,113617,1,0,0:0:0:0:
32,236,113775,1,0,0:0:0:0:
196,56,113933,1,0,0:0:0:0:
256,304,114091,2,0,P|360:320|380:308,1,100
464,164,114407,6,0,P|356:124|312:156,1,100
112,192,114723,2,0,P|204:132|232:136,1,100
184,288,115038,2,0,P|276:228|304:232,1,100
456,296,115354,1,0,0:0:0:0:
368,108,115512,1,0,0:0:0:0:
275,309,115670,2,0,P|171:269|163:241,1,100
104,96,115986,5,0,0:0:0:0:
320,200,116144,1,0,0:0:0:0:
136,344,116301,2,0,P|48:288|40:224,1,100
164,164,116617,1,0,0:0:0:0:
203,133,116695,1,0,0:0:0:0:
250,117,116774,1,0,0:0:0:0:
300,118,116853,1,0,0:0:0:0:
347,135,116933,6,0,P|416:216|416:240,1,100
236,316,117249,2,0,P|232:208|264:196,1,100
364,48,117565,1,0,0:0:0:0:
300,224,117723,1,0,0:0:0:0:
188,76,117880,2,0,P|104:152|120:216,1,100
112,320,118196,2,0,P|220:344|300:256,1,200
312,124,118828,6,0,P|334:167|377:192,1,100
464,252,119144,1,0,0:0:0:0:
276,328,119301,1,0,0:0:0:0:
464,252,119459,2,0,P|468:152|436:120,1,100
308,64,119775,1,0,0:0:0:0:
264,240,119933,1,0,0:0:0:0:
432,152,120091,6,0,P|368:72|332:72,1,100
248,76,120407,1,0,0:0:0:0:
336,156,120565,1,0,0:0:0:0:
264,240,120723,2,0,P|356:308|452:296,1,200
372,208,121354,6,0,P|284:140|244:140,1,100
352,68,121670,2,0,P|232:44|176:68,1,100
92,152,121986,5,0,0:0:0:0:
232,280,122144,1,0,0:0:0:0:
363,134,122301,2,0,P|271:66|231:74,1,100
88,56,122617,1,0,0:0:0:0:
248,192,122775,1,0,0:0:0:0:
68,300,122933,2,0,P|24:204|40:168,1,100
184,100,123249,6,0,P|288:116|328:156,1,100
328,284,123565,2,0,P|224:268|184:228,1,100
64,88,123880,2,0,P|40:196|72:236,1,100
164,348,124196,2,0,P|260:308|280:268,1,100
360,96,124512,5,0,0:0:0:0:
144,232,124670,1,0,0:0:0:0:
172,40,124828,5,0,0:0:0:0:
312,312,124986,1,0,0:0:0:0:
104,136,125144,5,0,0:0:0:0:
392,196,125301,1,0,0:0:0:0:
192,364,125459,1,0,0:0:0:0:
280,48,125617,1,0,0:0:0:0:
280,48,125933,5,0,0:0:0:0:
392,72,126249,5,0,0:0:0:0:
428,192,126407,5,0,0:0:0:0:
393,228,126485,1,0,0:0:0:0:
353,257,126564,1,0,0:0:0:0:
307,275,126643,1,0,0:0:0:0:
257,274,126722,1,0,0:0:0:0:
217,245,126801,1,0,0:0:0:0:
170,227,126880,1,0,0:0:0:0:
121,225,126959,1,0,0:0:0:0:
74,242,127038,2,0,P|36:292|44:336,1,100
132,312,127354,6,0,B|182:338|182:338|236:348,1,100
356,336,127670,1,0,0:0:0:0:
264,240,127828,1,0,0:0:0:0:
396,200,127986,2,0,P|292:128|228:140,1,100
152,60,128301,5,0,0:0:0:0:
264,276,128459,1,0,0:0:0:0:
288,56,128617,1,0,0:0:0:0:
116,184,128775,1,0,0:0:0:0:
128,272,128933,2,0,P|60:256|36:228,1,100
236,144,129249,5,0,0:0:0:0:
32,40,129407,1,0,0:0:0:0:
48,260,129565,1,0,0:0:0:0:
36,44,129723,1,0,0:0:0:0:
160,224,129880,2,0,B|208:264|304:248,1,100
404,120,130196,5,0,0:0:0:0:
332,320,130354,1,0,0:0:0:0:
228,96,130512,1,0,0:0:0:0:
440,264,130670,1,0,0:0:0:0:
164,176,130828,1,0,0:0:0:0:
464,112,130986,1,0,0:0:0:0:
208,296,131144,2,0,P|92:272|48:224,1,100
40,104,131459,2,0,P|96:48|220:80,1,200
296,260,131933,5,0,0:0:0:0:
296,260,132012,1,0,0:0:0:0:
296,260,132091,2,0,P|360:272|400:248,1,100
448,76,132407,1,0,0:0:0:0:
204,144,132565,1,0,0:0:0:0:
388,256,132723,2,0,P|428:160|412:128,1,100
236,56,133038,5,0,0:0:0:0:
200,272,133196,1,0,0:0:0:0:
316,64,133354,1,0,0:0:0:0:
128,312,133512,1,0,0:0:0:0:
236,56,133670,5,0,0:0:0:0:
348,316,133828,1,0,0:0:0:0:
148,96,133986,1,0,0:0:0:0:
420,208,134144,1,0,0:0:0:0:
168,348,134301,1,0,0:0:0:0:
200,152,134459,1,0,0:0:0:0:
200,152,134538,1,0,0:0:0:0:
200,152,134617,6,0,P|280:120|312:128,1,100
472,252,134933,1,0,0:0:0:0:
280,348,135091,1,0,0:0:0:0:
296,124,135249,2,0,P|388:64|424:68,1,100
480,200,135565,5,0,0:0:0:0:
280,264,135723,1,0,0:0:0:0:
312,40,135880,2,0,P|208:32|160:76,1,100
52,156,136196,1,0,0:0:0:0:
252,100,136354,1,0,0:0:0:0:
192,292,136512,1,0,0:0:0:0:
239,308,136590,1,0,0:0:0:0:
287,320,136669,1,0,0:0:0:0:
337,320,136748,1,0,0:0:0:0:
382,299,136827,1,0,0:0:0:0:
414,261,136906,1,0,0:0:0:0:
435,216,136985,1,0,0:0:0:0:
402,179,137064,1,0,0:0:0:0:
368,142,137144,6,0,B|324:112|324:112|260:112|260:112,1,100
88,120,137459,1,0,0:0:0:0:
188,272,137617,1,0,0:0:0:0:
276,112,137775,1,0,0:0:0:0:
396,248,137933,1,0,0:0:0:0:
359,63,138091,6,0,P|267:127|259:183,1,100
248,304,138407,1,0,0:0:0:0:
176,80,138565,1,0,0:0:0:0:
248,304,138723,1,0,0:0:0:0:
412,128,138880,1,0,0:0:0:0:
248,304,139038,2,0,P|140:280|112:248,1,100
140,120,139354,1,0,0:0:0:0:
172,82,139432,1,0,0:0:0:0:
216,59,139511,1,0,0:0:0:0:
265,55,139590,1,0,0:0:0:0:
312,64,139670,6,0,P|368:96|404:168,1,100
392,300,139986,1,0,0:0:0:0:
264,176,140144,1,0,0:0:0:0:
184,328,140301,2,0,P|60:284|48:260,1,100
60,152,140617,5,0,0:0:0:0:
152,252,140775,1,0,0:0:0:0:
208,120,140933,2,0,P|324:181|332:220,1,150
440,192,141249,5,0,0:0:0:0:
240,208,141407,1,0,0:0:0:0:
300,352,141565,2,0,P|192:356|108:280,1,200
88,164,142038,5,0,0:0:0:0:
240,208,142196,1,0,0:0:0:0:
124,28,142354,5,0,0:0:0:0:
144,228,142512,1,0,0:0:0:0:
288,88,142670,1,0,0:0:0:0:
368,272,142828,2,0,P|296:332|224:328,1,100
120,340,143144,5,0,0:0:0:0:
240,160,143301,1,0,0:0:0:0:
448,248,143459,2,0,B|440:296|440:296|408:360,1,100
288,280,143775,5,0,0:0:0:0:
368,136,143933,1,0,0:0:0:0:
328,360,144091,2,0,P|204:324|185:277,1,100
80,232,144407,1,0,0:0:0:0:
224,144,144565,1,0,0:0:0:0:
104,344,144723,2,0,B|52:334|52:334|0:296,1,100
0,120,145038,1,0,0:0:0:0:
176,256,145196,5,0,0:0:0:0:
156,96,145354,2,0,P|198:69|247:62,1,100
416,72,145670,1,0,0:0:0:0:
320,272,145828,1,0,0:0:0:0:
344,152,145986,6,0,L|451:180,1,100
472,288,146301,2,0,L|368:368,1,100
248,344,146617,1,0,0:0:0:0:
200,328,146696,1,0,0:0:0:0:
160,296,146775,1,0,0:0:0:0:
136,248,146854,1,0,0:0:0:0:
136,200,146933,1,0,0:0:0:0:
168,160,147012,1,0,0:0:0:0:
216,152,147091,1,0,0:0:0:0:
264,168,147170,1,0,0:0:0:0:
308,184,147249,6,0,P|372:176|392:28,1,200
332,96,147723,6,0,P|247:60|109:87,1,200
48,64,148196,2,0,P|144:164|200:144,1,200
184,240,148670,2,0,P|272:176|248:88,1,200
340,48,149144,2,0,B|385:137|385:137|424:168|424:168|400:148|400:148|424:168|424:168,1,200
508,172,149775,6,0,P|476:236|344:220,1,200
280,164,150249,2,0,B|208:184|208:184|136:268,1,150
164,328,150723,2,0,P|76:268|96:180,1,200
60,104,151196,2,0,P|176:168|168:232,1,200
128,316,151670,5,0,0:0:0:0:
24,276,151828,1,0,0:0:0:0:
88,184,151986,2,0,L|220:136,1,100
320,108,152301,6,0,L|420:192,1,100
504,272,152617,1,0,0:0:0:0:
312,292,152775,5,0,0:0:0:0:
424,368,152933,1,0,0:0:0:0:
296,192,153091,5,0,0:0:0:0:
416,272,153249,1,0,0:0:0:0:
408,72,153407,5,0,0:0:0:0:
412,172,153565,1,0,0:0:0:0:
208,96,153723,5,0,0:0:0:0:
260,308,153880,2,0,L|132:264,1,100
84,212,154196,6,0,P|180:176|216:192,1,100
277,85,154512,2,0,B|313:121|313:121|317:177|317:177|348:208,1,150
392,232,154828,5,0,0:0:0:0:
468,128,154986,5,0,0:0:0:0:
244,160,155144,1,0,0:0:0:0:
348,52,155301,5,0,0:0:0:0:
276,284,155459,1,0,0:0:0:0:
392,316,155617,1,0,0:0:0:0:
368,148,155775,5,0,0:0:0:0:
160,252,155933,1,0,0:0:0:0:
440,224,156091,5,0,0:0:0:0:
472,128,156249,1,0,0:0:0:0:
392,64,156407,2,0,B|344:68|344:68|284:120,1,100
248,220,156723,5,0,0:0:0:0:
380,204,156880,1,0,0:0:0:0:
164,136,157038,1,0,0:0:0:0:
128,172,157117,1,0,0:0:0:0:
116,220,157196,2,0,P|136:304|176:336,1,100
268,344,157512,5,0,0:0:0:0:
216,224,157670,1,0,0:0:0:0:
364,284,157828,5,0,0:3:0:0:
388,156,157986,2,0,L|411:25,1,100,0|0,0:3|0:3,0:3:0:0:
284,88,158301,1,0,0:0:0:0:
204,188,158459,1,0,0:0:0:0:
176,72,158617,5,0,0:0:0:0:
312,184,158775,1,0,0:0:0:0:
128,272,158933,2,0,B|80:244|80:244|36:188,1,100
28,64,159249,2,0,L|144:144,1,100
256,224,159565,5,0,0:0:0:0:
252,48,159723,2,0,L|148:164,1,100
80,264,160038,1,0,0:0:0:0:
64,144,160196,1,0,0:0:0:0:
220,292,160354,1,0,0:0:0:0:
352,140,160512,2,0,L|256:52,1,100
208,168,160828,5,0,0:0:0:0:
136,72,160986,2,0,L|56:144,1,100
120,232,161301,2,0,L|124:336,1,100
224,276,161617,1,0,0:0:0:0:
324,180,161775,2,0,L|220:120,1,100
60,32,162091,5,0,0:0:0:0:
76,260,162249,2,0,B|104:304|156:316|156:316|224:304|276:344,1,200
344,352,162723,2,0,P|304:252|252:228,1,100
196,120,163038,1,0,0:0:0:0:
336,112,163196,5,0,0:0:0:0:
148,280,163354,1,0,0:0:0:0:
268,60,163512,1,0,0:0:0:0:
268,60,163828,5,0,0:0:0:0:
164,128,163986,2,0,L|64:204,1,100
176,260,164301,5,0,0:0:0:0:
256,100,164459,1,0,0:0:0:0:
56,60,164617,5,0,0:0:0:0:
320,228,164775,1,0,0:0:0:0:
92,356,164933,2,0,B|58:303|40:272|40:272|48:144,1,200
152,96,165407,1,0,0:0:0:0:
152,96,165565,2,0,B|160:144|160:144|208:204,1,100
280,288,165880,5,0,0:0:0:0:
428,140,166038,2,0,B|332:96|332:96|232:104,1,200
64,136,166512,5,0,0:0:0:0:
184,324,166670,2,0,B|277:286|277:286|356:188,1,200
392,96,167144,6,0,L|244:68,1,100
96,48,167459,1,0,0:0:0:0:
340,172,173775,6,0,L|176:252,1,100
112,176,174091,2,0,L|240:108,1,100
304,76,174407,5,0,0:0:0:0:
352,64,174486,1,0,0:0:0:0:
400,76,174565,1,0,0:0:0:0:
436,108,174644,1,0,0:0:0:0:
444,156,174723,1,0,0:0:0:0:
428,204,174801,1,0,0:0:0:0:
388,236,174880,1,0,0:0:0:0:
340,244,174959,1,0,0:0:0:0:
292,260,175038,6,0,P|208:316|184:348,1,100
80,312,175354,2,0,L|148:192,1,100
212,52,175670,1,0,0:0:0:0:
256,152,175828,1,0,0:0:0:0:
52,88,175986,5,0,0:0:0:0:
312,72,176144,1,0,0:0:0:0:
200,288,176301,5,0,0:0:0:0:
188,112,176459,1,0,0:0:0:0:
308,200,176617,5,0,0:0:0:0:
96,288,176775,1,0,0:0:0:0:
252,36,176933,2,0,L|428:184,1,200
504,260,177407,1,0,0:0:0:0:
408,336,177565,5,0,0:0:0:0:
272,128,177723,1,0,0:0:0:0:
280,340,177880,1,0,0:0:0:0:
432,120,178038,5,0,0:0:0:0:
356,232,178196,1,0,0:0:0:0:
160,36,178354,5,0,0:0:0:0:
136,312,178512,1,0,0:0:0:0:
336,80,178670,5,0,0:0:0:0:
472,308,178828,2,0,P|329:316|305:289,1,100
192,348,179144,1,0,0:0:0:0:
300,168,179301,1,0,0:0:0:0:
316,276,179459,2,0,P|200:220|192:132,1,200
224,52,179933,5,0,0:0:0:0:
312,124,180091,1,0,0:0:0:0:
104,84,180249,5,0,0:0:0:0:
176,288,180407,1,0,0:0:0:0:
196,168,180565,5,0,0:0:0:0:
312,328,180723,1,0,0:0:0:0:
420,172,180880,5,0,0:0:0:0:
312,224,181038,1,0,0:0:0:0:
204,40,181196,5,0,0:0:0:0:
72,208,181354,2,0,L|172:312,1,100
248,372,181670,1,0,0:0:0:0:
232,216,181828,5,0,0:0:0:0:
352,288,181986,1,0,0:0:0:0:
352,128,182144,2,0,L|256:40,1,100
168,120,182459,1,0,0:0:0:0:
272,176,182617,5,0,0:0:0:0:
176,8,182775,1,0,0:0:0:0:
64,164,182933,2,0,L|180:300,1,100
224,336,183249,2,0,P|276:344|368:304,1,100
476,272,183565,1,0,0:0:0:0:
344,136,183723,1,0,0:0:0:0:
276,268,183880,6,0,B|328:256|328:256|392:220,1,100
472,112,184196,1,0,0:0:0:0:
384,344,184354,1,0,0:0:0:0:
256,188,184512,1,0,0:0:0:0:
220,152,184591,1,0,0:0:0:0:
176,124,184670,1,0,0:0:0:0:
124,124,184749,1,0,0:0:0:0:
76,140,184828,1,0,0:0:0:0:
44,180,184907,1,0,0:0:0:0:
32,228,184986,1,0,0:0:0:0:
40,276,185065,1,0,0:0:0:0:
68,316,185144,6,0,P|144:348|196:336,1,100
348,320,185459,1,0,0:0:0:0:
212,188,185617,1,0,0:0:0:0:
420,232,185775,1,0,0:0:0:0:
240,288,185933,5,0,0:0:0:0:
312,104,186091,2,0,P|193:92|131:128,1,100
32,136,186407,5,0,0:0:0:0:
244,204,186565,1,0,0:0:0:0:
80,336,186723,5,0,0:0:0:0:
152,96,186880,1,0,0:0:0:0:
324,276,187038,2,0,L|412:192,1,100
488,92,187354,5,0,0:0:0:0:
344,92,187512,1,0,0:0:0:0:
256,200,187670,2,0,L|140:56,1,100
120,16,187986,5,0,0:0:0:0:
80,252,188144,1,0,0:0:0:0:
268,68,188301,5,0,0:0:0:0:
0,120,188459,1,0,0:0:0:0:
180,316,188617,1,0,0:0:0:0:
144,136,188775,5,0,0:0:0:0:
328,236,188933,2,0,L|424:144,1,100
492,64,189249,5,0,0:0:0:0:
308,88,189407,1,0,0:0:0:0:
432,248,189565,2,0,L|352:336,1,100
240,324,189880,1,0,0:0:0:0:
320,208,190038,1,0,0:0:0:0:
180,204,190196,6,0,L|272:96,1,100
320,32,190512,1,0,0:0:0:0:
416,172,190670,5,0,0:0:0:0:
328,136,190828,1,0,0:0:0:0:
336,308,190986,5,0,0:0:0:0:
180,152,191144,1,0,0:0:0:0:
128,240,191302,5,0,0:0:0:0:
392,80,191459,2,0,L|296:32,1,100
152,36,191775,1,0,0:0:0:0:
292,188,191933,1,0,0:0:0:0:
220,108,192091,5,0,0:0:0:0:
120,288,192249,1,0,0:0:0:0:
92,148,192407,1,0,0:0:0:0:
256,324,192565,5,0,0:0:0:0:
340,112,192723,1,0,0:0:0:0:
232,216,192880,1,0,0:0:0:0:
372,256,193038,5,0,0:0:0:0:
220,108,193196,1,0,0:0:0:0:
268,324,193354,2,0,B|304:356|304:356|356:372,1,100
476,332,193670,5,0,0:0:0:0:
368,160,193828,1,0,0:0:0:0:
264,324,193986,2,0,B|216:340|216:340|152:328,1,100
56,232,194301,1,0,0:0:0:0:
48,360,194459,5,0,0:0:0:0:
184,224,194617,1,0,0:0:0:0:
228,208,194696,1,0,0:0:0:0:
272,212,194775,1,0,0:0:0:0:
312,236,194854,1,0,0:0:0:0:
348,260,194933,1,0,0:0:0:0:
392,268,195012,1,0,0:0:0:0:
432,252,195091,1,0,0:0:0:0:
460,220,195170,1,0,0:0:0:0:
476,176,195249,2,0,P|452:116|380:96,1,100
220,80,195565,6,0,L|292:184,1,100
356,296,195880,1,0,0:0:0:0:
200,304,196038,2,0,L|112:192,1,100
76,120,196354,5,0,0:0:0:0:
200,120,196512,1,0,0:0:0:0:
92,312,196670,1,0,0:0:0:0:
300,304,196828,2,0,L|376:224,1,100
488,160,197144,2,0,P|400:96|352:96,1,100
192,88,197459,6,0,L|284:192,1,100
400,252,197775,2,0,L|276:316,1,100
188,360,198091,2,0,L|164:176,1,100
136,120,198407,6,0,B|188:120|188:120|280:144,1,100
400,152,198723,2,0,B|388:200|388:200|348:244,1,100
356,352,199038,2,0,P|256:300|244:196,1,200
300,116,199512,5,0,0:0:0:0:
368,216,199670,1,0,0:0:0:0:
188,128,199828,5,0,0:0:0:0:
208,328,199986,2,0,L|344:328,1,100
432,332,200301,1,0,0:0:0:0:
476,208,200459,1,0,0:0:0:0:
364,232,200617,2,0,L|272:144,1,100
176,48,200933,5,0,0:0:0:0:
232,236,201091,1,0,0:0:0:0:
384,96,201249,1,0,0:0:0:0:
376,344,201407,1,0,0:0:0:0:
256,124,201565,1,0,0:0:0:0:
496,220,201723,1,0,0:0:0:0:
272,336,201880,6,0,L|152:276,1,100
16,248,202196,2,0,L|92:152,1,100
72,28,202512,2,0,L|200:96,1,100
332,176,202828,5,0,0:0:0:0:
176,260,202986,1,0,0:0:0:0:
264,92,203144,2,0,B|308:64|308:64|392:68,1,100
508,96,203459,5,0,0:0:0:0:
320,204,203617,1,0,0:0:0:0:
504,280,203775,2,0,L|396:336,1,100
280,376,204091,1,0,0:0:0:0:
280,376,204170,1,0,0:0:0:0:
280,376,204249,1,0,0:0:0:0:
192,232,204565,5,0,0:0:0:0:
392,340,204723,1,0,0:0:0:0:
324,140,204880,1,0,0:0:0:0:
232,364,205038,5,0,0:0:0:0:
444,212,205196,1,0,0:0:0:0:
176,116,205354,2,0,B|128:196|128:196|96:196|56:224|44:280,1,200
140,280,205828,6,0,P|264:280|336:208,1,200
280,152,206301,2,0,P|388:176|408:256,1,200
392,360,206775,6,0,B|310:307|310:307|244:332|180:276,1,200
268,224,207249,2,0,L|280:68,1,100
184,56,207565,5,0,0:0:0:0:
116,148,207723,1,0,0:0:0:0:
116,148,207801,1,0,0:0:0:0:
116,148,207880,1,0,0:0:0:0:
256,192,207959,12,0,210723,0:0:0:0:
