osu file format v14

[General]
AudioFilename: audio.mp3
AudioLeadIn: 0
PreviewTime: 154388
Countdown: 0
SampleSet: Normal
StackLeniency: 0.7
Mode: 0
LetterboxInBreaks: 1
WidescreenStoryboard: 0

[Editor]
DistanceSpacing: 0.6
BeatDivisor: 4
GridSize: 8
TimelineZoom: 2.999999

[Metadata]
Title:Tenkaippin no Tema
TitleUnicode:天下一品のテーマ
Artist:Silent Siren
ArtistUnicode:Silent Siren
Creator:october
Version:Effort
Source:
Tags:
BeatmapID:1628831
BeatmapSetID:775087

[Difficulty]
HPDrainRate:5.9
CircleSize:4
OverallDifficulty:8.2
ApproachRate:9.5
SliderMultiplier:2
SliderTickRate:1

[Events]
//Background and Video events
0,0,"bg.jpg",0,0
//Break Periods
//Storyboard Layer 0 (Background)
//Storyboard Layer 1 (Fail)
//Storyboard Layer 2 (Pass)
//Storyboard Layer 3 (Foreground)
//Storyboard Sound Samples

[TimingPoints]
6418,333.333333333333,4,1,0,80,1,0
6751,-76.9230769230769,4,1,0,80,0,0
17084,-100,4,1,0,80,0,0
51751,-76.9230769230769,4,1,0,80,0,1
62417,-66.6666666666667,4,1,0,80,0,1
71084,-76.9230769230769,4,1,0,80,0,1
74417,-76.9230769230769,4,1,0,80,0,0
103751,-66.6666666666667,4,1,0,80,0,1
126417,-66.6666666666667,4,1,0,80,0,0
127752,272.727272727273,4,1,0,80,1,0
155024,333.333333333333,4,1,0,80,1,0

[Colours]
Combo1 : 248,7,68
Combo2 : 255,0,128

[HitObjects]
322,106,5751,5,0,0:0:0:0:
273,114,5834,1,0,0:0:0:0:
229,138,5917,1,0,0:0:0:0:
194,174,6000,1,0,0:0:0:0:
173,218,6084,1,0,0:0:0:0:
165,313,6417,6,0,B|212:296|212:296|281:237,1,100
336,128,6751,1,0,0:0:0:0:
408,264,6917,1,0,0:0:0:0:
176,80,7084,5,0,0:0:0:0:
224,224,7251,1,0,0:0:0:0:
272,24,7417,5,0,0:0:0:0:
328,208,7584,1,0,0:0:0:0:
128,168,7751,5,0,0:0:0:0:
200,352,7917,1,0,0:0:0:0:
232,144,8084,5,0,0:0:0:0:
96,328,8251,1,0,0:0:0:0:
304,352,8417,2,0,P|384:248|328:128,1,259.999988098145
224,48,8917,5,0,0:0:0:0:
272,240,9084,1,0,0:0:0:0:
88,176,9251,5,0,0:0:0:0:
424,112,9417,1,0,0:0:0:0:
112,64,9584,5,0,0:0:0:0:
416,264,9751,1,0,0:0:0:0:
96,320,9917,1,0,0:0:0:0:
256,56,10084,1,0,0:0:0:0:
48,200,10251,1,0,0:0:0:0:
272,312,10417,5,0,0:0:0:0:
144,112,10584,1,0,0:0:0:0:
272,312,10751,1,0,0:0:0:0:
384,112,10917,5,0,0:0:0:0:
152,248,11084,1,0,0:0:0:0:
112,240,11167,1,0,0:0:0:0:
80,216,11251,1,0,0:0:0:0:
64,184,11334,1,0,0:0:0:0:
64,144,11417,2,0,P|96:80|176:56,1,129.999994049073
192,56,11667,5,0,0:0:0:0:
240,64,11751,2,0,B|280:80|280:80|296:136|376:160,1,129.999994049073
464,216,12084,1,0,0:0:0:0:
248,312,12251,1,0,0:0:0:0:
368,64,12417,5,0,0:0:0:0:
400,360,12584,1,0,0:0:0:0:
144,208,12751,1,0,0:0:0:0:
384,200,12917,5,0,0:0:0:0:
144,208,13084,1,0,0:0:0:0:
272,280,13251,1,0,0:0:0:0:
136,48,13417,5,0,0:0:0:0:
136,352,13584,1,0,0:0:0:0:
272,120,13751,2,0,B|336:104|336:104|368:120|416:112,1,129.999994049073
328,199,14084,6,0,P|200:239|168:223,1,129.999994049073
64,184,14417,1,0,0:0:0:0:
168,80,14584,1,0,0:0:0:0:
112,296,14751,5,0,0:0:0:0:
56,72,14917,1,0,0:0:0:0:
304,272,15084,5,0,0:0:0:0:
176,192,15251,1,0,0:0:0:0:
296,104,15417,1,0,0:0:0:0:
192,304,15584,1,0,0:0:0:0:
176,80,15751,5,0,0:0:0:0:
368,304,15917,1,0,0:0:0:0:
112,200,16084,1,0,0:0:0:0:
368,192,16251,1,0,0:0:0:0:
112,200,16417,5,0,0:0:0:0:
296,104,16584,1,0,0:0:0:0:
296,104,16667,1,0,0:0:0:0:
296,104,16751,1,0,0:0:0:0:
368,304,16917,1,0,0:0:0:0:
216,304,17084,6,0,L|280:152,1,100
296,104,17417,1,0,0:0:0:0:
376,192,17584,1,0,0:0:0:0:
408,80,17751,5,0,0:0:0:0:
456,280,17917,1,0,0:0:0:0:
254,211,18084,2,0,L|158:139,1,100
64,64,18417,5,0,0:0:0:0:
40,200,18584,1,0,0:0:0:0:
192,64,18751,2,0,L|296:136,1,100
384,208,19084,5,0,0:0:0:0:
384,208,19167,1,0,0:0:0:0:
384,208,19251,1,0,0:0:0:0:
264,272,19417,2,0,L|144:208,1,100
88,144,19751,2,0,P|56:256|64:280,1,100
200,368,20084,1,0,0:0:0:0:
256,176,20251,1,0,0:0:0:0:
152,264,20417,5,0,0:0:0:0:
352,272,20584,1,0,0:0:0:0:
256,88,20751,1,0,0:0:0:0:
256,296,20917,5,0,0:0:0:0:
344,160,21084,1,0,0:0:0:0:
168,160,21251,1,0,0:0:0:0:
416,296,21417,1,0,0:0:0:0:
384,40,21584,1,0,0:0:0:0:
384,40,21667,1,0,0:0:0:0:
384,40,21751,2,0,L|296:64,1,50
224,104,21917,2,0,L|296:128,1,50
360,160,22084,2,0,P|296:216|248:216,1,100
144,224,22417,5,0,0:0:0:0:
224,336,22584,1,0,0:0:0:0:
360,296,22751,2,0,L|464:200,1,100
344,128,23084,5,0,0:0:0:0:
288,232,23251,1,0,0:0:0:0:
216,136,23417,2,0,L|136:216,1,100
56,328,23751,5,0,0:0:0:0:
32,176,23917,1,0,0:0:0:0:
224,328,24084,1,0,0:0:0:0:
176,176,24251,1,0,0:0:0:0:
176,176,24334,1,0,0:0:0:0:
176,176,24417,2,0,L|256:176,1,50
384,232,24584,2,0,L|296:232,1,50
312,96,24751,6,0,B|288:72|288:72|192:72,1,100
400,48,25084,2,0,P|394:160|361:203,1,100
360,256,25417,5,0,0:0:0:0:
272,176,25584,1,0,0:0:0:0:
248,296,25751,5,0,0:0:0:0:
320,96,25917,1,0,0:0:0:0:
128,144,26084,2,0,L|128:264,1,100
72,328,26417,2,0,P|120:344|200:328,1,100
288,296,26751,1,0,0:0:0:0:
336,176,26917,1,0,0:0:0:0:
432,288,27084,6,0,L|488:176,1,100
412,77,27417,1,0,0:0:0:0:
372,53,27501,1,0,0:0:0:0:
324,45,27584,1,0,0:0:0:0:
276,53,27667,1,0,0:0:0:0:
232,72,27751,2,0,P|184:128|176:168,1,100
184,200,28001,5,0,0:0:0:0:
208,240,28084,2,0,P|272:280|328:272,1,100
344,264,28334,1,0,0:0:0:0:
392,240,28417,2,0,L|456:184,1,50
359,137,28584,6,0,L|320:168,1,50
304,64,28751,2,0,P|376:48|432:80,1,100
456,136,29084,5,0,0:0:0:0:
432,232,29251,1,0,0:0:0:0:
352,168,29417,2,0,B|328:176|328:176|256:256,1,100
248,264,29667,5,0,0:0:0:0:
216,304,29751,2,0,B|184:328|184:328|64:328,1,100
32,272,30084,1,0,0:0:0:0:
96,192,30251,1,0,0:0:0:0:
24,112,30417,2,0,B|56:88|56:88|144:64,1,100
232,40,30751,2,0,L|216:168,1,100
208,256,31084,5,0,0:0:0:0:
312,312,31251,1,0,0:0:0:0:
416,248,31417,2,0,B|400:224|400:224|288:176,1,100
224,152,31751,5,0,0:0:0:0:
240,264,31917,1,0,0:0:0:0:
128,232,32084,2,0,B|99:205|99:205|72:136,1,100
80,104,32334,1,0,0:0:0:0:
112,64,32417,2,0,P|192:48|240:80,1,100
272,128,32751,5,0,0:0:0:0:
168,136,32917,1,0,0:0:0:0:
232,224,33084,2,0,B|256:256|256:256|328:296,1,100
368,376,33417,2,0,P|416:272|408:240,1,100
360,192,33751,5,0,0:0:0:0:
464,184,33917,1,0,0:0:0:0:
400,88,34084,2,0,B|376:72|376:72|296:64,1,100
192,112,34417,5,0,0:0:0:0:
288,192,34584,1,0,0:0:0:0:
176,248,34751,2,0,B|140:230|140:230|88:160,1,100
80,144,35001,1,0,0:0:0:0:
80,96,35084,2,0,P|112:48|192:40,1,100
264,64,35417,1,0,0:0:0:0:
168,120,35584,1,0,0:0:0:0:
272,192,35751,5,0,0:0:0:0:
168,256,35917,1,0,0:0:0:0:
280,320,36084,2,0,B|320:312|320:312|376:272,1,100
400,248,36334,1,0,0:0:0:0:
440,216,36417,2,0,B|480:176|480:176|480:96,1,100
504,40,36751,6,0,P|408:64|392:96,1,100
344,144,37084,1,0,0:0:0:0:
296,48,37251,5,0,0:0:0:0:
456,152,37417,2,0,B|464:192|464:192|448:272,1,100
440,296,37667,1,0,0:0:0:0:
400,336,37751,2,0,P|328:328|296:296,1,100
368,240,38085,5,0,0:0:0:0:
340,220,38168,1,0,0:0:0:0:
308,204,38252,1,0,0:0:0:0:
272,200,38335,1,0,0:0:0:0:
236,204,38418,2,0,P|168:232|136:296,1,100,4|0,0:0|0:0,0:0:0:0:
104,344,38752,5,0,0:0:0:0:
60,152,38918,1,0,0:0:0:0:
272,288,39085,2,0,P|380:260|400:240,1,100,4|0,0:0|0:0,0:0:0:0:
480,184,39418,5,0,0:0:0:0:
408,352,39585,1,0,0:0:0:0:
288,192,39752,2,0,B|256:152|256:152|184:120,1,100,4|0,0:0|0:0,0:0:0:0:
40,88,40085,1,0,0:0:0:0:
272,56,40252,1,0,0:0:0:0:
176,256,40417,2,0,P|216:296|272:320,1,100,4|0,0:0|0:0,0:0:0:0:
368,248,40752,6,0,B|337:203|337:203|272:176,1,100
144,168,41085,2,0,P|161:113|214:64,1,100,4|0,0:0|0:0,0:0:0:0:
344,24,41418,1,0,0:0:0:0:
232,152,41585,1,0,0:0:0:0:
408,184,41752,2,0,L|472:272,1,100,4|0,0:0|0:0,0:0:0:0:
304,304,42085,5,0,0:0:0:0:
320,120,42252,1,0,0:0:0:0:
144,192,42418,2,0,L|152:72,1,100,4|0,0:0|0:0,0:0:0:0:
240,24,42752,5,0,0:0:0:0:
232,148,42918,1,0,0:0:0:0:
360,224,43085,2,0,P|408:216|472:152,1,100,4|0,0:0|0:0,0:0:0:0:
368,112,43418,5,0,0:0:0:0:
256,248,43585,1,0,0:0:0:0:
176,88,43752,2,0,P|136:112|96:168,1,100,4|0,0:0|0:0,0:0:0:0:
80,320,44085,1,0,0:0:0:0:
192,184,44252,1,0,0:0:0:0:
240,336,44418,5,4,0:0:0:0:
96,224,44585,1,0,0:0:0:0:
296,240,44752,5,4,0:0:0:0:
200,80,44918,1,0,0:0:0:0:
192,280,45085,2,0,P|216:320|304:360,1,100,4|0,0:0|0:0,0:0:0:0:
416,352,45418,1,0,0:0:0:0:
328,200,45585,1,0,0:0:0:0:
480,200,45752,2,0,P|448:232|368:264,1,100,4|0,0:0|0:0,0:0:0:0:
256,296,46085,5,0,0:0:0:0:
208,304,46168,1,0,0:0:0:0:
160,296,46252,1,0,0:0:0:0:
120,272,46335,1,0,0:0:0:0:
96,232,46418,2,0,P|82:159|103:107,1,100
160,32,46752,5,0,0:0:0:0:
248,128,46918,1,0,0:0:0:0:
248,128,47002,1,0,0:0:0:0:
248,128,47085,1,0,0:0:0:0:
344,40,47252,1,0,0:0:0:0:
392,168,47418,2,0,L|312:248,1,100
216,344,47752,5,0,0:0:0:0:
144,168,47918,1,0,0:0:0:0:
320,336,48085,6,0,P|376:320|416:272,1,100
464,144,48418,1,0,0:0:0:0:
320,80,48585,1,0,0:0:0:0:
328,224,48752,5,0,0:0:0:0:
192,160,48918,1,0,0:0:0:0:
192,160,49002,1,0,0:0:0:0:
192,160,49085,2,0,L|112:240,1,100,4|0,0:0|0:0,0:0:0:0:
56,312,49418,5,0,0:0:0:0:
48,168,49585,1,0,0:0:0:0:
200,296,49752,2,0,L|270:225,1,100,4|0,0:0|0:0,0:0:0:0:
368,120,50085,5,0,0:0:0:0:
144,144,50252,1,0,0:0:0:0:
280,328,50418,2,0,L|360:240,1,100,4|0,0:0|0:0,0:0:0:0:
243,227,50752,6,0,L|144:232,1,100,4|0,0:0|0:0,0:0:0:0:
210,124,51085,1,0,0:0:0:0:
260,121,51168,1,0,0:0:0:0:
310,119,51251,1,0,0:0:0:0:
352,120,51335,1,0,0:0:0:0:
392,120,51418,2,0,B|456:120|456:120|512:200,1,100,4|0,0:0|0:0,0:0:0:0:
408,208,51752,6,0,L|264:272,1,129.999994049073
256,368,52084,2,0,P|176:256|184:224,1,129.999994049073
216,96,52417,1,0,0:0:0:0:
352,224,52584,1,0,0:0:0:0:
120,160,52751,5,0,0:0:0:0:
336,96,52917,1,0,0:0:0:0:
288,320,53084,1,0,0:0:0:0:
248,192,53251,5,0,0:0:0:0:
160,280,53417,1,0,0:0:0:0:
288,320,53584,2,0,L|400:224,1,129.999994049073
336,96,53917,5,0,0:0:0:0:
416,312,54084,1,0,0:0:0:0:
240,184,54251,5,0,0:0:0:0:
480,104,54417,2,0,P|448:168|352:208,1,129.999994049073
208,296,54751,2,0,P|128:168|136:136,1,129.999994049073
160,40,55084,1,0,0:0:0:0:
312,168,55251,1,0,0:0:0:0:
72,120,55417,1,0,0:0:0:0:
360,56,55584,1,0,0:0:0:0:
272,312,55751,6,0,P|208:296|160:240,1,129.999994049073
152,208,56001,1,0,0:0:0:0:
152,160,56084,2,0,B|184:104|184:104|272:56,1,129.999994049073
368,120,56417,6,0,P|320:176|224:208,1,129.999994049073
224,208,56667,1,0,0:0:0:0:
176,200,56751,2,0,P|120:160|112:144,1,64.9999970245363
128,32,56917,2,0,L|192:96,1,64.9999970245363
272,104,57084,2,0,P|336:128|368:208,1,129.999994049073
464,248,57417,2,0,P|392:304|304:272,1,129.999994049073
192,240,57751,5,0,0:0:0:0:
320,112,57917,1,0,0:0:0:0:
264,328,58084,5,0,0:0:0:0:
184,104,58251,1,0,0:0:0:0:
408,272,58417,1,0,0:0:0:0:
128,232,58584,1,0,0:0:0:0:
408,272,58751,5,0,0:0:0:0:
328,48,58917,1,0,0:0:0:0:
256,312,59084,2,0,L|128:360,1,129.999994049073
144,160,59417,5,0,0:0:0:0:
56,296,59584,1,0,0:0:0:0:
320,152,59751,2,0,L|240:40,1,129.999994049073
416,184,60084,2,0,P|288:248|256:232,1,129.999994049073
280,344,60417,2,0,P|216:224|224:200,1,129.999994049073
256,112,60751,5,0,0:0:0:0:
344,192,60917,1,0,0:0:0:0:
152,160,61084,2,0,L|152:24,1,129.999994049073
48,104,61417,2,0,L|48:240,1,129.999994049073
152,288,61751,2,0,P|104:336|24:360,1,129.999994049073
154,186,62084,6,0,P|214:208|250:282,1,129.999994049073
224,360,62417,6,0,L|392:360,1,150.000005722046
360,216,62751,2,0,L|456:96,1,150.000005722046
288,88,63084,1,0,0:0:0:0:
208,200,63251,1,0,0:0:0:0:
56,176,63417,5,0,0:0:0:0:
112,328,63584,1,0,0:0:0:0:
288,320,63751,1,0,0:0:0:0:
123,237,63917,5,0,0:0:0:0:
256,120,64084,1,0,0:0:0:0:
176,352,64251,1,0,0:0:0:0:
104,96,64417,1,0,0:0:0:0:
320,280,64584,5,0,0:0:0:0:
64,344,64751,2,0,B|78:264|78:264|152:184,1,150.000005722046
216,40,65084,2,0,L|344:160,1,150.000005722046
440,232,65417,6,0,P|296:280|272:272,1,150.000005722046
120,192,65751,1,0,0:0:0:0:
160,368,65917,1,0,0:0:0:0:
245,177,66084,2,0,B|288:144|288:144|344:152|432:104,1,150.000005722046
320,48,66417,5,0,0:0:0:0:
312,240,66584,1,0,0:0:0:0:
312,240,66667,1,0,0:0:0:0:
312,240,66751,1,0,0:0:0:0:
168,128,66917,1,0,0:0:0:0:
416,144,67084,5,0,0:0:0:0:
288,320,67251,1,0,0:0:0:0:
240,344,67334,1,0,0:0:0:0:
184,352,67417,1,0,0:0:0:0:
136,336,67501,1,0,0:0:0:0:
96,304,67584,1,0,0:0:0:0:
72,256,67667,1,0,0:0:0:0:
64,208,67751,2,0,B|88:152|88:152|176:128,1,150.000005722046
278,142,68084,6,0,P|199:229|146:231,1,150.000005722046
280,320,68417,1,0,0:0:0:0:
400,168,68584,1,0,0:0:0:0:
480,352,68751,5,0,0:0:0:0:
304,208,68917,1,0,0:0:0:0:
488,72,69084,2,0,P|360:16|296:32,1,150.000005722046
152,32,69417,5,0,0:0:0:0:
256,160,69584,1,0,0:0:0:0:
112,232,69751,2,0,L|248:352,1,150.000005722046
384,280,70084,5,0,0:0:0:0:
256,160,70251,1,0,0:0:0:0:
112,344,70417,2,0,L|240:192,1,150.000005722046
248,64,70751,6,0,P|336:128|344:192,1,150.000005722046
408,248,71084,2,0,P|256:224|240:208,1,129.999994049073
152,160,71417,1,0,0:0:0:0:
160,296,71584,1,0,0:0:0:0:
256,128,71751,6,0,B|224:112|224:112|184:64|120:80,1,129.999994049073
312,64,72084,2,0,P|336:168|304:208,1,129.999994049073
352,288,72417,2,0,L|200:216,1,129.999994049073
168,176,72751,6,0,P|232:320|240:320,1,129.999994049073
264,344,73084,1,0,0:0:0:0:
352,280,73417,6,0,L|392:128,1,129.999994049073
416,64,73751,2,0,P|288:160|296:192,1,129.999994049073
208,264,74084,1,0,0:0:0:0:
352,240,74251,5,0,0:0:0:0:
144,128,74417,2,0,L|32:208,1,129.999994049073
88,336,74751,1,0,0:0:0:0:
40,104,74917,1,0,0:0:0:0:
280,240,75084,5,0,0:0:0:0:
128,232,75251,1,0,0:0:0:0:
360,104,75417,1,0,0:0:0:0:
400,352,75584,1,0,0:0:0:0:
400,352,75751,2,0,L|256:360,1,129.999994049073
96,304,76084,5,0,0:0:0:0:
312,232,76251,1,0,0:0:0:0:
168,376,76417,1,0,0:0:0:0:
216,168,76584,1,0,0:0:0:0:
344,344,76751,1,0,0:0:0:0:
112,248,76917,5,0,0:0:0:0:
432,192,77084,2,0,B|384:128|384:128|304:104,1,129.999994049073
152,80,77417,1,0,0:0:0:0:
288,280,77584,1,0,0:0:0:0:
256,32,77751,1,0,0:0:0:0:
176,256,77917,1,0,0:0:0:0:
368,80,78084,1,0,0:0:0:0:
104,160,78251,1,0,0:0:0:0:
416,192,78417,5,0,0:0:0:0:
104,160,78584,1,0,0:0:0:0:
352,320,78751,1,0,0:0:0:0:
256,40,78917,1,0,0:0:0:0:
160,304,79084,1,0,0:0:0:0:
160,304,79167,1,0,0:0:0:0:
160,304,79251,1,0,0:0:0:0:
160,304,79334,1,0,0:0:0:0:
160,304,79417,2,0,B|216:264|216:264|256:208,1,129.999994049073
200,120,79751,6,0,P|320:136|352:176,1,129.999994049073
400,216,80084,1,0,0:0:0:0:
320,296,80251,1,0,0:0:0:0:
320,296,80334,1,0,0:0:0:0:
320,296,80417,1,0,0:0:0:0:
440,128,80584,1,0,0:0:0:0:
256,192,80751,1,0,0:0:0:0:
480,248,80917,5,0,0:0:0:0:
320,96,81084,2,0,B|256:56|256:56|192:48,1,129.999994049073
96,176,81417,2,0,B|160:176|160:176|240:136,1,129.999994049073
368,280,81751,2,0,B|313:273|313:273|249:233,1,129.999994049073
168,272,82084,1,0,0:0:0:0:
224,352,82251,5,0,0:0:0:0:
224,352,82334,1,0,0:0:0:0:
224,352,82417,2,0,B|280:352|280:352|392:368,1,129.999994049073
456,296,82751,5,0,0:0:0:0:
384,192,82917,1,0,0:0:0:0:
341,177,83001,1,0,0:0:0:0:
298,168,83084,2,0,B|232:176|232:176|152:208,1,129.999994049073
72,280,83417,5,0,0:0:0:0:
72,176,83584,1,0,0:0:0:0:
192,312,83751,1,0,0:0:0:0:
298,168,83917,1,0,0:0:0:0:
408,312,84084,6,0,P|368:360|288:376,1,129.999994049073
312,280,84417,2,0,L|192:200,1,129.999994049073
96,128,84751,5,0,0:0:0:0:
88,248,84917,1,0,0:0:0:0:
88,248,85001,1,0,0:0:0:0:
88,248,85084,2,0,B|121:307|121:307|184:344,1,129.999994049073
288,328,85417,5,0,0:0:0:0:
192,240,85584,1,0,0:0:0:0:
192,240,85667,1,0,0:0:0:0:
192,240,85751,1,0,0:0:0:0:
296,192,85917,1,0,0:0:0:0:
96,168,86084,1,0,0:0:0:0:
176,344,86251,5,0,0:0:0:0:
200,119,86417,2,0,P|144:63|64:55,1,129.999994049073
280,40,86751,1,0,0:0:0:0:
200,208,86917,1,0,0:0:0:0:
200,208,87001,1,0,0:0:0:0:
200,208,87084,1,0,0:0:0:0:
400,200,87251,5,0,0:0:0:0:
168,72,87417,1,0,0:0:0:0:
304,280,87584,1,0,0:0:0:0:
440,72,87751,2,0,B|384:40|384:40|312:24,1,129.999994049073
168,72,88084,5,0,0:0:0:0:
272,160,88251,1,0,0:0:0:0:
160,240,88417,2,0,B|192:296|192:296|280:352,1,129.999994049073
376,360,88751,1,0,0:0:0:0:
328,256,88917,1,0,0:0:0:0:
440,264,89084,5,0,0:0:0:0:
216,256,89251,1,0,0:0:0:0:
280,360,89417,2,0,L|128:360,1,129.999994049073
96,256,89751,2,0,L|96:112,1,129.999994049073
184,48,90084,5,0,0:0:0:0:
232,56,90167,1,0,0:0:0:0:
272,88,90251,1,0,0:0:0:0:
304,128,90334,1,0,0:0:0:0:
320,176,90417,2,0,P|312:264|280:304,1,129.999994049073,4|0,0:0|0:0,0:0:0:0:
152,360,90751,5,0,0:0:0:0:
232,216,90917,1,0,0:0:0:0:
346,358,91084,2,4,P|387:308|404:217,1,129.999994049073,0|0,0:0|0:0,0:0:0:0:
328,104,91417,5,0,0:0:0:0:
312,280,91584,1,0,0:0:0:0:
492,244,91751,6,0,B|460:189|460:189|395:152,1,129.999994049073,4|0,0:0|0:0,0:0:0:0:
227,185,92084,2,0,B|288:152|288:152|355:81,1,129.999994049073,4|0,0:0|0:0,0:0:0:0:
228,75,92417,2,0,B|182:98|182:98|144:120|144:120|96:184,1,129.999994049073,4|0,0:0|0:0,0:0:0:0:
80,304,92751,5,0,0:0:0:0:
32,200,92917,1,0,0:0:0:0:
208,272,93084,2,0,B|256:264|256:264|344:208,1,129.999994049073,4|0,0:0|0:0,0:0:0:0:
432,128,93417,5,0,0:0:0:0:
328,112,93584,1,0,0:0:0:0:
432,240,93751,2,0,B|408:296|408:296|336:352,1,129.999994049073,4|0,0:0|0:0,0:0:0:0:
240,368,94084,5,0,0:0:0:0:
168,272,94251,1,0,0:0:0:0:
288,216,94417,2,0,L|208:112,1,129.999994049073,4|0,0:0|0:0,0:0:0:0:
104,168,94751,5,0,0:0:0:0:
320,40,94917,1,0,0:0:0:0:
360,280,95084,2,0,P|296:304|216:280,1,129.999994049073,4|0,0:0|0:0,0:0:0:0:
128,256,95417,5,0,0:0:0:0:
296,216,95584,1,0,0:0:0:0:
128,256,95751,2,0,B|72:216|72:216|24:152,1,129.999994049073,4|0,0:0|0:0,0:0:0:0:
112,48,96084,5,0,0:0:0:0:
200,160,96251,1,0,0:0:0:0:
280,40,96417,2,0,L|392:144,1,129.999994049073,4|0,0:0|0:0,0:0:0:0:
480,240,96751,5,0,0:0:0:0:
360,320,96917,1,0,0:0:0:0:
464,128,97084,5,4,0:0:0:0:
472,352,97251,1,0,0:0:0:0:
272,224,97417,2,0,L|128:136,1,129.999994049073,4|0,0:0|0:0,0:0:0:0:
168,264,97751,2,0,L|296:344,1,129.999994049073,4|0,0:0|0:0,0:0:0:0:
408,328,98084,5,0,0:0:0:0:
448,304,98167,1,0,0:0:0:0:
480,264,98251,1,0,0:0:0:0:
488,216,98334,1,0,0:0:0:0:
480,168,98417,2,0,P|400:96|344:96,1,129.999994049073,4|0,0:0|0:0,0:0:0:0:
288,144,98751,1,0,0:0:0:0:
384,192,98917,1,0,0:0:0:0:
384,192,99001,1,0,0:0:0:0:
384,192,99084,1,0,0:0:0:0:
288,248,99251,5,0,0:0:0:0:
382,93,99417,1,0,0:0:0:0:
464,248,99584,1,0,0:0:0:0:
464,248,99667,1,0,0:0:0:0:
464,248,99751,1,0,0:0:0:0:
240,128,99917,5,0,0:0:0:0:
272,352,100084,1,0,0:0:0:0:
384,128,100251,1,0,0:0:0:0:
384,128,100334,1,0,0:0:0:0:
384,128,100417,1,0,0:0:0:0:
152,248,100584,5,0,0:0:0:0:
392,368,100751,1,0,0:0:0:0:
224,128,100917,1,0,0:0:0:0:
224,128,101001,1,0,0:0:0:0:
224,128,101084,2,0,B|152:120|152:120|48:136,1,129.999994049073,4|0,0:0|0:0,0:0:0:0:
264,240,101417,1,0,0:0:0:0:
152,216,101584,5,0,0:0:0:0:
336,152,101751,2,0,B|392:192|392:192|432:248,1,129.999994049073,4|0,0:0|0:0,0:0:0:0:
408,360,102084,1,0,0:0:0:0:
192,304,102251,1,0,0:0:0:0:
315,270,102417,6,0,L|179:166,1,129.999994049073,4|0,0:0|0:0,0:0:0:0:
120,208,102751,2,0,P|176:104|240:96,1,129.999994049073,4|0,0:0|0:0,0:0:0:0:
272,64,103084,5,0,0:0:0:0:
320,64,103167,1,0,0:0:0:0:
368,88,103251,1,0,0:0:0:0:
400,128,103334,1,0,0:0:0:0:
416,168,103417,2,0,P|416:224|376:304,1,129.999994049073,4|0,0:0|0:0,0:0:0:0:
288,344,103751,6,0,P|288:240|360:184,1,150.000005722046
416,168,104084,6,0,P|320:104|230:114,1,150.000005722046
112,160,104417,1,0,0:0:0:0:
240,264,104584,1,0,0:0:0:0:
176,56,104751,5,0,0:0:0:0:
112,288,104917,1,0,0:0:0:0:
360,200,105084,2,0,B|352:120|352:120|312:56,1,150.000005722046
240,160,105417,5,0,0:0:0:0:
448,88,105584,1,0,0:0:0:0:
408,296,105751,5,0,0:0:0:0:
368,176,105917,1,0,0:0:0:0:
211,352,106084,5,0,0:0:0:0:
128,256,106251,1,0,0:0:0:0:
255,229,106417,2,0,B|220:167|220:167|140:95,1,150.000005722046,4|0,0:0|0:0,0:0:0:0:
40,40,106751,5,0,0:0:0:0:
48,176,106917,1,0,0:0:0:0:
280,40,107084,1,4,0:0:0:0:
152,288,107251,1,0,0:0:0:0:
160,40,107417,1,4,0:0:0:0:
320,248,107584,5,0,0:0:0:0:
320,248,107667,1,0,0:0:0:0:
320,248,107751,2,0,B|384:200|384:200|424:120,1,150.000005722046
304,136,108001,1,0,0:0:0:0:
304,136,108084,2,0,L|232:88,1,75.0000028610231
216,208,108251,2,0,L|128:288,1,75.0000028610231
240,316,108417,2,0,P|296:344|432:304,1,150.000005722046
416,320,108667,1,0,0:0:0:0:
456,296,108751,2,0,P|480:216|464:176,1,75.0000028610231
392,232,108917,5,0,0:0:0:0:
344,208,109001,1,0,0:0:0:0:
304,176,109084,2,0,P|296:80|336:48,1,150.000005722046,4|0,0:0|0:0,0:0:0:0:
488,64,109417,2,0,P|384:128|344:120,1,150.000005722046
176,56,109751,1,0,0:0:0:0:
216,224,109917,5,0,0:0:0:0:
288,32,110084,1,0,0:0:0:0:
424,192,110251,1,0,0:0:0:0:
128,152,110417,5,0,0:0:0:0:
408,72,110584,1,0,0:0:0:0:
328,336,110751,1,0,0:0:0:0:
264,192,110917,5,0,0:0:0:0:
176,296,111084,2,0,B|96:282|96:282|0:230,1,150.000005722046
128,152,111417,5,0,0:0:0:0:
248,368,111584,1,0,0:0:0:0:
408,200,111751,2,4,B|352:136|352:136|304:128|264:96,1,150.000005722046,0|0,0:0|0:0,0:0:0:0:
191,109,112084,2,0,P|288:16|368:48,1,150.000005722046,4|0,0:0|0:0,0:0:0:0:
238,199,112417,2,0,P|86:135|78:111,1,150.000005722046,4|0,0:0|0:0,0:0:0:0:
88,48,112751,5,0,0:0:0:0:
120,272,112917,1,0,0:0:0:0:
328,146,113084,2,0,P|336:234|280:298,1,150.000005722046
248,200,113417,2,0,P|176:168|128:96,1,150.000005722046
240,96,113751,2,0,P|311:54|399:77,1,150.000005722046
328,152,114084,1,0,0:0:0:0:
360,192,114167,1,0,0:0:0:0:
368,240,114251,1,0,0:0:0:0:
360,288,114334,1,0,0:0:0:0:
328,328,114417,2,0,P|224:344|176:320,1,150.000005722046
256,251,114750,6,0,P|267:178|327:138,1,150.000005722046
464,112,115083,1,0,0:0:0:0:
416,240,115250,1,0,0:0:0:0:
390,75,115417,5,0,0:0:0:0:
346,312,115583,1,0,0:0:0:0:
151,185,115750,2,0,B|165:264|165:264|211:324,1,150.000005722046
274,214,116083,5,0,0:0:0:0:
73,304,116250,1,0,0:0:0:0:
94,93,116417,5,0,0:0:0:0:
145,209,116583,1,0,0:0:0:0:
286,20,116750,5,0,0:0:0:0:
377,109,116917,1,0,0:0:0:0:
253,147,117083,2,0,B|293:205|293:205|379:270,1,150.000005722046
483,316,117417,5,0,0:0:0:0:
463,181,117583,1,0,0:0:0:0:
244,337,117750,1,0,0:0:0:0:
350,79,117917,1,0,0:0:0:0:
364,327,118083,1,0,0:0:0:0:
186,133,118250,5,0,0:0:0:0:
186,133,118333,1,0,0:0:0:0:
186,133,118417,2,0,B|127:187|127:187|94:270,1,150.000005722046
212,244,118667,1,0,0:0:0:0:
212,244,118750,2,0,L|288:285,1,75.0000028610231
293,164,118917,2,0,L|374:77,1,75.0000028610231
260,59,119083,2,0,P|202:36|70:87,1,150.000005722046
82,68,119333,1,0,0:0:0:0:
46,97,119417,2,0,P|30:179|49:218,1,75.0000028610231
116,156,119583,5,0,0:0:0:0:
166,175,119667,1,0,0:0:0:0:
208,204,119750,2,0,P|225:299|188:334,1,150.000005722046
35,331,120083,2,0,P|133:258|173:263,1,150.000005722046
346,312,120417,1,0,0:0:0:0:
292,148,120583,5,0,0:0:0:0:
237,346,120750,1,0,0:0:0:0:
87,198,120917,1,0,0:0:0:0:
386,212,121083,5,0,0:0:0:0:
114,316,121250,1,0,0:0:0:0:
171,46,121417,1,0,0:0:0:0:
247,184,121583,5,0,0:0:0:0:
325,73,121750,2,0,B|406:80|406:80|507:123,1,150.000005722046
386,212,122083,5,0,0:0:0:0:
247,8,122250,1,0,0:0:0:0:
103,189,122417,2,0,B|164:248|164:248|213:251|255:280,1,150.000005722046
327,261,122750,2,0,P|238:362|156:337,1,150.000005722046
272,175,123083,2,0,P|429:225|439:249,1,150.000005722046
448,304,123417,5,0,0:0:0:0:
351,70,123584,1,0,0:0:0:0:
200,256,123751,2,0,B|128:224|128:224|64:168,1,150.000005722046
184,144,124084,2,0,P|259:143|332:74,1,150.000005722046
232,48,124417,2,0,L|80:48,1,150.000005722046
304,216,124751,2,0,L|456:216,1,150.000005722046
302,321,125084,6,0,P|230:289|198:193,1,150.000005722046
105,167,125417,2,0,P|167:128|263:144,1,150.000005722046
320,224,125751,2,0,L|400:80,1,150.000005722046
472,192,126084,1,0,0:0:0:0:
448,232,126167,1,0,0:0:0:0:
424,272,126251,1,0,0:0:0:0:
400,312,126334,1,0,0:0:0:0:
376,352,126417,1,0,0:0:0:0:
