osu file format v14

[General]
AudioFilename: Soukai ROCK.mp3
AudioLeadIn: 0
PreviewTime: 803
Countdown: 0
SampleSet: Soft
StackLeniency: 0.7
Mode: 0
LetterboxInBreaks: 0
WidescreenStoryboard: 1

[Editor]
Bookmarks: 145853,167753
DistanceSpacing: 1.6
BeatDivisor: 4
GridSize: 32
TimelineZoom: 2.3

[Metadata]
Title:Soukai Rock
TitleUnicode:爽快ロック
Artist:Silent Siren
ArtistUnicode:Silent Siren
Creator:eLy
Version:Dash!! (AR9.5)
Source:恋い雪
Tags:suu yoshida kaoru hinanchu umemura hinako yamauchi aina kurosaka yukako ainyan yukarun kubo naoki kaou smash cm song
BeatmapID:915058
BeatmapSetID:422994

[Difficulty]
HPDrainRate:2
CircleSize:4
OverallDifficulty:8
ApproachRate:9.5
SliderMultiplier:2
SliderTickRate:1

[Events]
//Background and Video events
0,0,"BG.jpg",0,0
//Break Periods
2,83353,89828
2,131353,134978
//Storyboard Layer 0 (Background)
//Storyboard Layer 1 (Fail)
//Storyboard Layer 2 (Pass)
//Storyboard Layer 3 (Foreground)
//Storyboard Sound Samples

[TimingPoints]
953,300,4,2,1,60,1,0
953,-125,4,2,1,60,0,0
1553,-200,4,2,1,60,0,0
10553,-100,4,2,1,60,0,0
10853,-83.3333333333333,4,2,1,60,0,1
20753,-83.3333333333333,4,2,1,60,0,0
21353,-100,4,2,1,60,0,0
22553,-83.3333333333333,4,2,1,60,0,0
22853,-76.9230769230769,4,2,1,60,0,0
23753,-100,4,2,1,60,0,0
33353,-83.3333333333333,4,2,1,60,0,0
33803,-71.4285714285714,4,2,1,60,0,0
34853,-200,4,2,1,60,0,0
35153,-100,4,2,1,60,0,0
62153,-83.3333333333333,4,2,1,60,0,0
63353,-125,4,2,1,60,0,0
63653,-100,4,2,1,60,0,0
63953,-71.4285714285714,4,2,1,60,0,1
82103,-100,4,2,1,60,0,1
83153,-100,4,2,1,60,0,0
92453,-200,4,2,1,60,0,0
92753,-100,4,2,1,60,0,0
110153,-83.3333333333333,4,2,1,60,0,0
110603,-71.4285714285714,4,2,1,60,0,0
111353,-125,4,2,1,60,0,0
111653,-100,4,2,1,60,0,0
111953,-83.3333333333333,4,2,1,60,0,1
131153,-83.3333333333333,4,2,1,60,0,0
176153,-125,4,2,1,60,0,0
176453,-83.3333333333333,4,2,1,60,0,0
176753,-71.4285714285714,4,2,1,60,0,1
206153,-100,4,2,1,60,0,1
210053,-71.4285714285714,4,2,1,60,0,1
215153,-100,4,2,1,60,0,0

[HitObjects]
252,37,953,6,0,B|246:90|246:90|264:149|264:149|253:213,1,160
295,156,1553,6,0,P|355:162|282:215,1,200,2|2,0:0|0:0,0:0:0:0:
294,229,2753,6,0,P|288:289|235:216,1,200,2|2,0:0|0:0,0:0:0:0:
220,228,3953,6,0,P|160:222|233:169,1,200,2|2,0:0|0:0,0:0:0:0:
220,154,5153,6,0,P|226:94|279:167,1,200,2|2,0:0|0:0,0:0:0:0:
166,296,6053,1,0,0:0:0:0:
293,155,6353,5,2,0:0:0:0:
220,228,6503,1,0,0:0:0:0:
220,154,6653,1,2,0:0:0:0:
294,229,6803,1,0,0:0:0:0:
311,136,6953,5,2,0:0:0:0:
202,246,7103,1,0,0:0:0:0:
202,135,7253,1,2,0:0:0:0:
313,247,7403,1,0,0:0:0:0:
339,108,7553,5,2,0:0:0:0:
175,273,7703,1,0,0:0:0:0:
175,106,7853,1,2,0:0:0:0:
341,275,8003,1,0,0:0:0:0:
149,79,8153,5,2,0:0:0:0:
108,315,8303,1,0,0:0:0:0:
34,27,8453,1,2,0:0:0:0:
219,249,8603,1,0,0:0:0:0:
10,254,8753,1,2,0:0:0:0:
191,71,8903,5,0,0:0:0:0:
171,374,9053,1,2,0:0:0:0:
118,157,9203,1,0,0:0:0:0:
310,321,9353,1,2,0:0:0:0:
50,255,9503,1,0,0:0:0:0:
238,105,9653,1,2,0:0:0:0:
213,375,9803,1,0,0:0:0:0:
96,91,9953,1,2,0:0:0:0:
310,321,10103,5,8,0:0:0:0:
33,250,10253,1,8,0:0:0:0:
245,46,10403,1,8,0:0:0:0:
376,187,10553,2,0,B|214:175,1,150
184,208,10853,2,0,B|227:219|269:198|269:198|315:171|367:193,1,179.999994506836
375,198,11153,5,2,0:0:0:0:
252,13,11303,1,8,0:0:0:0:
204,277,11453,1,2,0:0:0:0:
81,0,11603,1,8,0:0:0:0:
102,225,11753,1,2,0:0:0:0:
373,157,11903,1,8,0:0:0:0:
87,229,12053,1,2,0:0:0:0:
422,248,12203,1,8,0:0:0:0:
199,40,12353,5,2,0:0:0:0:
255,377,12503,1,8,0:0:0:0:
333,27,12653,1,2,0:0:0:0:
119,169,12803,1,8,0:0:0:0:
426,195,12953,1,2,0:0:0:0:
237,3,13103,1,8,0:0:0:0:
207,300,13253,1,2,0:0:0:0:
332,69,13403,5,8,0:0:0:0:
44,109,13553,1,2,0:0:0:0:
278,147,13703,1,8,0:0:0:0:
31,21,13853,1,2,0:0:0:0:
88,357,14003,1,8,0:0:0:0:
165,112,14153,1,2,0:0:0:0:
10,293,14303,1,8,0:0:0:0:
320,212,14453,1,2,0:0:0:0:
87,113,14603,5,8,0:0:0:0:
257,16,14753,1,2,0:0:0:0:
185,363,14903,1,8,0:0:0:0:
102,140,15053,1,2,0:0:0:0:
253,286,15203,1,8,0:0:0:0:
144,20,15353,1,2,0:0:0:0:
73,361,15503,1,8,0:0:0:0:
264,183,15653,1,2,0:0:0:0:
18,117,15803,1,8,0:0:0:0:
18,117,15878,1,0,0:0:0:0:
18,117,15953,1,2,0:0:0:0:
158,381,16103,5,8,0:0:0:0:
198,23,16253,1,2,0:0:0:0:
297,223,16403,1,8,0:0:0:0:
50,129,16553,1,2,0:0:0:0:
394,38,16703,1,8,0:0:0:0:
177,285,16853,1,2,0:0:0:0:
301,5,17003,1,8,0:0:0:0:
360,323,17153,1,2,0:0:0:0:
146,274,17303,5,8,0:0:0:0:
419,194,17453,1,2,0:0:0:0:
111,273,17603,1,8,0:0:0:0:
289,338,17753,1,2,0:0:0:0:
40,357,17903,1,8,0:0:0:0:
299,194,18053,1,2,0:0:0:0:
22,106,18203,1,8,0:0:0:0:
141,379,18353,1,2,0:0:0:0:
184,10,18503,5,8,0:0:0:0:
251,277,18653,1,2,0:0:0:0:
350,60,18803,1,8,0:0:0:0:
134,218,18953,1,2,0:0:0:0:
392,274,19103,1,8,0:0:0:0:
231,13,19253,1,2,0:0:0:0:
296,370,19403,5,8,0:0:0:0:
417,145,19553,1,2,0:0:0:0:
189,117,19703,1,8,0:0:0:0:
459,48,19853,1,2,0:0:0:0:
373,370,20003,1,8,0:0:0:0:
304,13,20153,1,2,0:0:0:0:
176,264,20303,1,8,0:0:0:0:
408,204,20453,1,8,0:0:0:0:
207,14,20603,1,8,0:0:0:0:
84,372,20753,5,4,0:0:0:0:
260,295,20903,1,2,0:0:0:0:
63,253,21053,1,0,0:0:0:0:
207,371,21203,1,2,0:0:0:0:
207,371,21278,1,2,0:0:0:0:
207,371,21353,2,0,P|267:333|191:251,1,200,12|0,0:0|0:0,0:0:0:0:
84,372,21803,1,2,0:0:0:0:
207,248,21953,1,8,0:0:0:0:
39,207,22103,2,0,B|16:116|16:116|29:71|29:71|55:156,1,200,8|2,0:3|0:0,0:0:0:0:
89,282,22553,6,0,B|130:307|176:291|176:291|220:268|276:295,1,179.999994506836,6|0,0:0|0:0,0:0:0:0:
220,365,22853,2,0,P|180:292|262:199,1,194.999991073609,6|0,0:0|0:0,0:0:0:0:
340,206,23153,1,2,0:0:0:0:
105,230,23303,1,2,0:0:0:0:
270,92,23453,1,0,0:0:0:0:
287,289,23603,1,2,0:0:0:0:
287,289,23678,1,2,0:0:0:0:
287,289,23753,2,0,B|292:345|292:345|398:338|398:338|362:289,1,200,12|2,0:0|0:0,0:0:0:0:
279,189,24203,1,8,0:0:0:0:
279,189,24503,5,8,0:0:0:0:
287,289,24653,1,8,0:3:0:0:
270,92,24803,1,8,0:0:0:0:
270,92,24878,1,8,0:0:0:0:
270,92,24953,1,2,0:0:0:0:
201,250,25103,1,4,0:3:0:0:
355,135,25253,1,4,0:3:0:0:
189,44,25403,1,4,0:3:0:0:
287,289,25553,5,4,0:0:0:0:
201,250,25703,1,0,0:0:0:0:
322,210,25853,1,0,0:0:0:0:
121,281,26003,1,2,0:0:0:0:
324,369,26153,1,8,0:0:0:0:
90,280,26303,1,0,0:0:0:0:
291,211,26453,1,2,0:0:0:0:
209,383,26603,1,2,0:0:0:0:
132,129,26753,5,0,0:0:0:0:
246,298,26903,1,8,0:0:0:0:
246,298,26978,1,0,0:0:0:0:
246,298,27053,1,2,0:0:0:0:
352,78,27203,1,2,0:0:0:0:
336,273,27353,1,8,0:0:0:0:
201,48,27503,1,0,0:0:0:0:
201,48,27578,1,0,0:0:0:0:
201,48,27653,1,8,0:0:0:0:
163,321,27803,1,8,0:0:0:0:
287,23,27953,5,2,0:0:0:0:
242,253,28103,1,2,0:0:0:0:
114,78,28253,1,0,0:0:0:0:
163,321,28403,1,2,0:0:0:0:
320,192,28553,1,8,0:0:0:0:
81,77,28703,1,0,0:0:0:0:
81,77,28778,1,0,0:0:0:0:
81,77,28853,1,2,0:0:0:0:
173,349,29003,1,2,0:0:0:0:
47,258,29153,5,0,0:0:0:0:
241,209,29303,1,8,0:0:0:0:
43,77,29453,1,2,0:0:0:0:
267,314,29603,1,2,0:0:0:0:
251,20,29753,1,8,0:0:0:0:
144,232,29903,1,0,0:0:0:0:
382,169,30053,1,0,0:0:0:0:
145,47,30203,1,8,0:0:0:0:
288,265,30353,5,6,0:0:0:0:
493,243,30503,1,0,0:0:0:0:
286,133,30653,1,0,0:0:0:0:
438,301,30803,1,2,0:0:0:0:
202,197,30953,1,8,0:0:0:0:
447,103,31103,1,0,0:0:0:0:
447,103,31178,1,0,0:0:0:0:
447,103,31253,1,2,0:0:0:0:
314,337,31403,1,2,0:0:0:0:
343,76,31553,5,0,0:0:0:0:
202,197,31703,1,8,0:0:0:0:
403,262,31853,1,2,0:0:0:0:
148,353,32003,1,2,0:0:0:0:
148,353,32078,1,0,0:0:0:0:
148,353,32153,1,8,0:0:0:0:
177,69,32303,1,0,0:0:0:0:
256,318,32453,1,2,0:0:0:0:
81,109,32603,1,0,0:0:0:0:
270,28,32753,1,2,0:0:0:0:
95,253,32903,6,0,P|26:240|97:230,1,200,12|2,0:0|0:0,0:0:0:0:
143,347,33278,1,0,0:0:0:0:
190,331,33353,2,0,P|218:285|90:267,1,239.999992675781,12|2,0:0|0:0,0:0:0:0:
25,130,33728,1,0,0:0:0:0:
178,86,33803,2,0,B|188:160|155:213|155:213|132:129,1,209.999993591309,12|0,0:0|0:0,0:0:0:0:
99,7,34103,1,8,0:0:0:0:
190,331,34253,1,8,0:0:0:0:
372,95,34403,1,8,0:0:0:0:
489,337,34553,1,2,0:0:0:0:
489,337,34853,6,0,L|401:331,1,75
361,318,35153,6,0,L|474:306,1,100,6|0,0:0|0:0,0:0:0:0:
256,163,35453,1,0,0:0:0:0:
171,381,35603,1,2,0:0:0:0:
61,132,35753,2,0,B|132:136|132:136|184:160|184:160|270:163,1,200,8|2,0:0|0:0,0:0:0:0:
109,40,36203,1,2,0:0:0:0:
258,260,36353,5,0,0:0:0:0:
76,246,36503,1,0,0:0:0:0:
76,246,36578,1,0,0:0:0:0:
76,246,36653,1,2,0:0:0:0:
195,17,36803,1,0,0:0:0:0:
227,351,36953,2,0,L|341:347,1,100,8|0,0:0|0:0,0:0:0:0:
505,191,37253,2,0,L|393:198,1,100,0|8,0:0|0:0,0:0:0:0:
327,348,37553,5,2,0:0:0:0:
405,197,37703,1,0,0:0:0:0:
219,139,37853,1,0,0:0:0:0:
309,320,38003,1,2,0:0:0:0:
448,103,38153,2,0,P|386:91|308:206,1,200,8|2,0:0|0:0,0:0:0:0:
426,324,38603,5,2,0:0:0:0:
192,245,38753,1,0,0:0:0:0:
405,197,38903,1,8,0:0:0:0:
181,361,39053,1,2,0:0:0:0:
274,104,39203,1,0,0:0:0:0:
325,381,39353,1,8,0:0:0:0:
120,296,39503,1,0,0:0:0:0:
378,197,39653,1,8,0:0:0:0:
116,52,39803,1,8,0:0:0:0:
116,52,39878,1,0,0:0:0:0:
116,52,39953,5,2,0:0:0:0:
211,271,40103,1,0,0:0:0:0:
262,12,40253,1,2,0:0:0:0:
95,135,40403,1,0,0:0:0:0:
310,248,40553,2,0,P|311:301|161:352,1,200,8|2,0:0|0:0,0:0:0:0:
211,271,41003,5,2,0:0:0:0:
310,248,41153,1,0,0:0:0:0:
241,167,41303,1,8,0:0:0:0:
404,215,41453,1,2,0:0:0:0:
325,99,41603,1,0,0:0:0:0:
277,349,41753,1,8,0:0:0:0:
496,218,41903,1,0,0:0:0:0:
496,218,41978,1,0,0:0:0:0:
496,218,42053,1,8,0:0:0:0:
297,79,42203,1,8,0:0:0:0:
234,350,42353,5,2,0:0:0:0:
327,205,42503,1,0,0:0:0:0:
356,366,42653,1,0,0:0:0:0:
205,216,42803,1,2,0:0:0:0:
86,371,42953,2,0,B|66:332|66:332|82:298|82:298|39:241|71:171,1,200,8|2,0:0|0:0,0:0:0:0:
206,216,43403,1,2,0:0:0:0:
330,78,43553,1,0,0:0:0:0:
267,146,43703,5,12,0:0:0:0:
394,205,43853,1,2,0:0:0:0:
210,32,44003,1,8,0:0:0:0:
267,286,44153,1,8,0:0:0:0:
396,11,44303,1,8,0:3:0:0:
396,11,44378,1,0,0:0:0:0:
396,11,44453,1,8,0:3:0:0:
206,216,44603,1,0,0:3:0:0:
481,265,44753,5,6,0:0:0:0:
390,178,44903,1,0,0:0:0:0:
334,359,45053,1,0,0:0:0:0:
291,179,45203,1,2,0:0:0:0:
229,357,45353,2,0,B|147:352|147:352|101:326|101:326|174:331,1,200,8|2,0:0|0:0,0:0:0:0:
383,360,45803,1,2,0:0:0:0:
257,110,45953,1,0,0:0:0:0:
166,330,46103,1,8,0:0:0:0:
320,230,46253,1,2,0:0:0:0:
320,230,46553,5,8,0:0:0:0:
131,177,46703,1,0,0:0:0:0:
131,177,46778,1,0,0:0:0:0:
131,177,46853,1,8,0:0:0:0:
347,77,47003,1,8,0:0:0:0:
99,15,47153,1,2,0:0:0:0:
131,177,47303,1,0,0:0:0:0:
160,336,47453,1,0,0:0:0:0:
13,115,47603,1,2,0:0:0:0:
238,239,47753,6,0,P|309:197|231:158,1,200,8|2,0:0|0:0,0:0:0:0:
53,275,48203,1,2,0:0:0:0:
238,239,48353,1,0,0:0:0:0:
117,107,48503,1,8,0:0:0:0:
165,352,48653,1,2,0:0:0:0:
236,155,48803,1,0,0:0:0:0:
21,293,48953,1,8,0:0:0:0:
23,18,49103,1,2,0:0:0:0:
23,18,49178,1,0,0:0:0:0:
23,18,49253,5,0,0:0:0:0:
145,205,49403,1,2,0:0:0:0:
210,27,49553,1,6,0:0:0:0:
48,136,49703,1,0,0:0:0:0:
285,206,49853,1,0,0:0:0:0:
128,78,50003,1,2,0:0:0:0:
194,335,50153,2,0,P|242:365|378:331,1,200,8|2,0:0|0:0,0:0:0:0:
285,206,50603,5,2,0:0:0:0:
194,335,50753,1,0,0:0:0:0:
397,229,50903,1,8,0:0:0:0:
190,130,51053,1,2,0:0:0:0:
190,130,51353,5,8,0:0:0:0:
376,64,51503,1,0,0:0:0:0:
150,0,51653,1,0,0:0:0:0:
404,177,51803,1,8,0:0:0:0:
91,246,51953,1,2,0:0:0:0:
188,92,52103,1,0,0:0:0:0:
240,344,52253,1,0,0:0:0:0:
61,245,52403,1,2,0:0:0:0:
236,22,52553,2,0,P|272:68|189:174,1,200,8|2,0:0|0:0,0:0:0:0:
93,70,53003,1,2,0:0:0:0:
206,173,53153,5,0,0:0:0:0:
236,22,53303,1,8,0:0:0:0:
93,70,53453,1,2,0:0:0:0:
226,195,53603,1,2,0:0:0:0:
50,246,53753,1,8,0:0:0:0:
93,70,53903,1,4,0:3:0:0:
93,70,53978,1,4,0:3:0:0:
93,70,54053,1,2,0:0:0:0:
167,315,54203,1,4,0:0:0:0:
260,25,54353,5,6,0:0:0:0:
132,192,54503,1,0,0:0:0:0:
332,157,54653,1,8,0:0:0:0:
225,25,54803,1,0,0:0:0:0:
248,264,54953,1,2,0:0:0:0:
368,60,55103,1,0,0:0:0:0:
444,218,55253,1,8,0:0:0:0:
507,32,55403,1,0,0:0:0:0:
414,218,55553,5,2,0:0:0:0:
336,61,55703,1,0,0:0:0:0:
336,61,55778,1,0,0:0:0:0:
336,61,55853,1,8,0:0:0:0:
274,265,56003,1,0,0:0:0:0:
444,218,56153,1,2,0:0:0:0:
298,63,56303,1,0,0:0:0:0:
486,133,56453,1,8,0:0:0:0:
216,178,56603,1,0,0:0:0:0:
471,307,56753,5,2,0:0:0:0:
306,157,56903,1,0,0:0:0:0:
334,379,57053,1,8,0:0:0:0:
343,157,57203,1,0,0:0:0:0:
204,310,57353,1,2,0:0:0:0:
381,158,57503,1,0,0:0:0:0:
381,158,57578,1,0,0:0:0:0:
381,158,57653,1,8,0:0:0:0:
253,376,57803,1,0,0:0:0:0:
195,77,57953,5,2,0:0:0:0:
124,311,58103,1,0,0:0:0:0:
271,162,58253,1,8,0:0:0:0:
45,244,58403,1,0,0:0:0:0:
288,69,58553,1,2,0:0:0:0:
317,366,58703,1,0,0:0:0:0:
317,366,58778,1,0,0:0:0:0:
317,366,58853,1,8,0:0:0:0:
106,191,59003,1,0,0:0:0:0:
329,66,59153,5,6,0:0:0:0:
281,338,59303,1,0,0:0:0:0:
174,103,59453,1,8,0:0:0:0:
371,275,59603,1,0,0:0:0:0:
238,20,59753,1,2,0:0:0:0:
153,343,59903,1,0,0:0:0:0:
407,269,60053,1,8,0:0:0:0:
120,159,60203,1,0,0:0:0:0:
157,379,60353,1,2,0:0:0:0:
299,129,60503,5,0,0:0:0:0:
85,259,60653,1,8,0:0:0:0:
270,338,60803,1,0,0:0:0:0:
55,253,60953,1,2,0:0:0:0:
299,129,61103,1,0,0:0:0:0:
303,346,61253,1,8,0:0:0:0:
68,155,61403,1,0,0:0:0:0:
406,57,61553,1,2,0:0:0:0:
254,42,61703,6,0,P|211:97|269:219,1,200,12|2,0:0|0:0,0:0:0:0:
67,330,62078,1,0,0:0:0:0:
90,288,62153,2,0,B|156:262|205:294|205:294|263:324|326:280,1,239.999992675781,12|2,0:0|0:0,0:0:0:0:
406,171,62528,1,0,0:0:0:0:
364,155,62603,2,0,P|302:188|337:295,1,179.999994506836,12|0,0:0|0:0,0:0:0:0:
468,289,62903,1,8,0:0:0:0:
253,10,63053,1,8,0:0:0:0:
205,383,63203,1,8,0:0:0:0:
364,155,63353,2,0,P|323:139|239:165,1,120
117,177,63653,6,0,P|175:194|260:139,1,150
167,36,63953,5,6,0:0:0:0:
72,356,64103,1,8,0:0:0:0:
15,126,64253,1,2,0:0:0:0:
175,298,64403,1,8,0:0:0:0:
256,17,64553,1,2,0:0:0:0:
98,222,64703,1,8,0:0:0:0:
390,168,64853,1,2,0:0:0:0:
215,17,65003,5,8,0:0:0:0:
281,375,65153,1,2,0:0:0:0:
391,73,65303,1,8,0:0:0:0:
247,358,65453,1,2,0:0:0:0:
177,16,65603,1,8,0:0:0:0:
406,218,65753,1,2,0:0:0:0:
91,168,65903,1,8,0:0:0:0:
391,73,66053,1,2,0:0:0:0:
166,292,66203,1,8,0:0:0:0:
304,12,66353,5,2,0:0:0:0:
395,366,66503,1,8,0:0:0:0:
74,259,66653,1,2,0:0:0:0:
331,191,66803,1,8,0:0:0:0:
107,134,66953,1,2,0:0:0:0:
290,323,67103,1,8,0:0:0:0:
256,7,67253,1,2,0:0:0:0:
130,369,67403,5,8,0:0:0:0:
432,261,67553,1,2,0:0:0:0:
176,61,67703,1,8,0:0:0:0:
291,364,67853,1,2,0:0:0:0:
374,21,68003,1,8,0:0:0:0:
181,268,68153,5,2,0:0:0:0:
322,132,68303,1,8,0:0:0:0:
86,238,68453,5,2,0:0:0:0:
399,160,68603,1,8,0:0:0:0:
49,138,68753,5,2,0:0:0:0:
425,246,68903,1,8,0:0:0:0:
255,11,69053,5,2,0:0:0:0:
185,382,69203,1,8,0:0:0:0:
138,53,69353,5,2,0:0:0:0:
323,383,69503,1,8,0:0:0:0:
77,161,69653,5,2,0:0:0:0:
430,294,69803,1,8,0:0:0:0:
99,283,69953,5,2,0:0:0:0:
456,158,70103,1,8,0:0:0:0:
138,53,70253,1,2,0:0:0:0:
253,383,70403,1,8,0:0:0:0:
332,13,70553,1,2,0:0:0:0:
425,303,70703,1,8,0:0:0:0:
225,182,70853,1,2,0:0:0:0:
505,97,71003,1,8,0:0:0:0:
338,346,71153,1,2,0:0:0:0:
281,13,71303,5,8,0:0:0:0:
194,364,71453,1,2,0:0:0:0:
370,182,71603,1,8,0:0:0:0:
111,228,71753,1,2,0:0:0:0:
338,346,71903,1,8,0:0:0:0:
229,15,72053,1,2,0:0:0:0:
102,383,72203,1,8,0:0:0:0:
253,192,72353,1,2,0:0:0:0:
21,191,72503,5,8,0:0:0:0:
500,195,72653,1,2,0:0:0:0:
115,19,72803,1,8,0:0:0:0:
378,370,72953,1,2,0:0:0:0:
334,6,73103,1,8,0:3:0:0:
153,380,73253,1,8,0:3:0:0:
227,13,73403,1,8,0:3:0:0:
333,372,73553,1,6,0:0:0:0:
83,188,73703,5,0,0:0:0:0:
327,128,73853,1,0,0:0:0:0:
87,86,74003,5,2,0:0:0:0:
334,239,74153,1,8,0:0:0:0:
7,255,74303,5,0,0:0:0:0:
407,57,74453,1,2,0:0:0:0:
236,331,74603,1,2,0:0:0:0:
294,13,74753,1,0,0:0:0:0:
334,239,74903,1,8,0:0:0:0:
407,57,75053,1,0,0:0:0:0:
221,198,75203,1,2,0:0:0:0:
441,40,75353,1,8,0:0:0:0:
186,221,75503,1,0,0:0:0:0:
294,13,75653,1,2,0:0:0:0:
355,343,75803,1,8,0:0:0:0:
152,240,75953,5,2,0:0:0:0:
340,95,76103,1,0,0:0:0:0:
254,376,76253,1,0,0:0:0:0:
172,17,76403,1,2,0:0:0:0:
61,269,76553,1,8,0:0:0:0:
297,231,76703,1,0,0:0:0:0:
64,174,76853,1,2,0:0:0:0:
340,95,77003,1,8,0:0:0:0:
340,95,77078,1,0,0:0:0:0:
340,95,77153,5,2,0:0:0:0:
170,378,77303,1,8,0:0:0:0:
92,18,77453,1,2,0:0:0:0:
297,231,77603,1,2,0:0:0:0:
17,271,77753,1,8,0:0:0:0:
394,198,77903,1,2,0:0:0:0:
195,18,78053,1,8,0:0:0:0:
182,100,78128,1,8,0:0:0:0:
163,182,78203,1,8,0:0:0:0:
147,264,78278,1,8,0:0:0:0:
130,346,78353,1,2,0:0:0:0:
77,39,78503,5,8,0:0:0:0:
239,327,78653,1,2,0:0:0:0:
11,239,78803,1,8,0:0:0:0:
407,41,78953,1,2,0:0:0:0:
265,366,79103,1,8,0:0:0:0:
221,2,79253,1,2,0:0:0:0:
427,265,79403,1,8,0:0:0:0:
94,142,79553,5,2,0:0:0:0:
315,23,79703,1,8,0:0:0:0:
239,366,79853,1,2,0:0:0:0:
111,33,80003,1,8,0:0:0:0:
331,313,80153,1,2,0:0:0:0:
67,257,80303,1,8,0:0:0:0:
353,192,80453,1,2,0:0:0:0:
24,75,80603,1,8,0:0:0:0:
234,329,80753,5,2,0:0:0:0:
306,9,80903,1,8,0:0:0:0:
425,312,81053,1,2,0:0:0:0:
191,148,81203,1,8,0:0:0:0:
502,46,81353,1,2,0:0:0:0:
251,375,81503,1,8,0:0:0:0:
251,375,81578,1,0,0:0:0:0:
251,375,81653,1,8,0:0:0:0:
74,9,81803,1,8,0:0:0:0:
373,211,81953,1,8,0:0:0:0:
192,319,82103,6,0,P|171:237|277:183,1,200
373,211,82553,1,2,0:0:0:0:
115,137,82703,1,8,0:0:0:0:
474,88,82853,1,8,0:0:0:0:
107,6,83003,1,8,0:0:0:0:
256,374,83153,1,12,0:0:0:0:
220,242,90353,5,2,0:0:0:0:
220,242,90428,1,0,0:0:0:0:
220,242,90503,6,0,B|130:272|130:272|80:255|80:255|143:232,1,200,12|2,0:0|0:0,0:0:0:0:
302,162,90953,6,0,B|391:131|391:131|441:148|441:148|378:171,1,200,12|2,0:0|0:0,0:0:0:0:
221,162,91403,6,0,B|190:72|190:72|209:46|209:46|219:68,1,150,12|0,0:0|0:0,0:0:0:0:
295,318,91703,1,8,0:0:0:0:
393,42,91853,1,8,0:0:0:0:
442,354,92003,1,8,0:0:0:0:
218,67,92153,1,12,0:0:0:0:
218,67,92453,6,0,L|296:57,1,75
360,103,92753,6,0,L|235:93,1,100,6|0,0:0|0:0,0:0:0:0:
79,68,93053,1,0,0:0:0:0:
297,297,93203,1,2,0:0:0:0:
189,185,93353,1,8,0:0:0:0:
156,381,93503,1,0,0:0:0:0:
302,172,93653,1,2,0:0:0:0:
79,269,93803,1,2,0:0:0:0:
342,382,93953,5,0,0:0:0:0:
61,174,94103,1,8,0:0:0:0:
317,284,94253,1,0,0:0:0:0:
94,354,94403,1,2,0:0:0:0:
94,354,94478,1,0,0:0:0:0:
94,354,94553,1,8,0:0:0:0:
220,63,94703,1,0,0:0:0:0:
317,284,94853,1,2,0:0:0:0:
96,131,95003,1,0,0:0:0:0:
340,20,95153,5,2,0:0:0:0:
296,317,95303,1,0,0:0:0:0:
220,63,95453,1,0,0:0:0:0:
145,338,95603,1,0,0:0:0:0:
310,171,95753,1,8,0:0:0:0:
45,211,95903,1,0,0:0:0:0:
160,2,96053,1,2,0:0:0:0:
194,341,96203,1,0,0:0:0:0:
194,341,96278,1,0,0:0:0:0:
194,341,96353,1,2,0:0:0:0:
45,170,96503,5,8,0:0:0:0:
329,131,96653,1,0,0:0:0:0:
50,74,96803,1,2,0:0:0:0:
318,237,96953,1,8,0:0:0:0:
138,22,97103,1,0,0:0:0:0:
177,376,97253,1,6,0:0:0:0:
415,193,97403,1,8,0:0:0:0:
138,133,97553,5,2,0:0:0:0:
171,338,97703,1,0,0:0:0:0:
250,29,97853,1,0,0:0:0:0:
153,237,98003,1,2,0:0:0:0:
415,193,98153,1,8,0:0:0:0:
123,33,98303,1,0,0:0:0:0:
248,378,98453,1,2,0:0:0:0:
316,138,98603,1,0,0:0:0:0:
27,186,98753,5,2,0:0:0:0:
274,260,98903,1,8,0:0:0:0:
32,29,99053,1,0,0:0:0:0:
157,223,99203,1,2,0:0:0:0:
251,8,99353,1,8,0:0:0:0:
65,284,99503,1,0,0:0:0:0:
65,284,99578,1,0,0:0:0:0:
65,284,99653,1,2,0:0:0:0:
274,260,99803,1,8,0:0:0:0:
86,139,99953,5,2,0:0:0:0:
320,261,100103,1,0,0:0:0:0:
3,197,100253,1,0,0:0:0:0:
330,148,100403,1,2,0:0:0:0:
83,31,100553,1,8,0:0:0:0:
417,220,100703,1,0,0:0:0:0:
255,12,100853,1,2,0:0:0:0:
204,378,101003,1,2,0:0:0:0:
233,189,101153,1,0,0:0:0:0:
233,189,101303,1,8,0:0:0:0:
95,256,101453,5,2,0:0:0:0:
383,128,101603,1,8,0:0:0:0:
47,129,101753,5,8,0:0:0:0:
370,303,101903,1,4,0:3:0:0:
370,303,101978,1,0,0:0:0:0:
370,303,102053,1,4,0:3:0:0:
131,24,102203,1,4,0:0:0:0:
210,383,102353,1,6,0:0:0:0:
310,134,102503,5,0,0:0:0:0:
200,253,102653,1,8,0:0:0:0:
388,215,102803,1,0,0:0:0:0:
213,95,102953,1,2,0:0:0:0:
156,381,103103,1,0,0:0:0:0:
293,234,103253,1,8,0:0:0:0:
108,160,103403,1,0,0:0:0:0:
324,90,103553,5,2,0:0:0:0:
131,275,103703,1,0,0:0:0:0:
381,333,103853,1,8,0:0:0:0:
255,6,104153,5,2,0:0:0:0:
258,381,104453,5,8,0:0:0:0:
2,192,104753,5,2,0:0:0:0:
131,275,104903,1,0,0:0:0:0:
208,129,105053,1,8,0:0:0:0:
78,69,105203,1,0,0:0:0:0:
112,278,105353,1,2,0:0:0:0:
248,54,105503,1,0,0:0:0:0:
136,253,105653,1,8,0:0:0:0:
350,215,105803,1,0,0:0:0:0:
165,13,105953,5,2,0:0:0:0:
253,285,106103,1,0,0:0:0:0:
348,93,106253,1,8,0:0:0:0:
161,235,106403,1,0,0:0:0:0:
269,24,106553,1,2,0:0:0:0:
350,325,106703,1,0,0:0:0:0:
69,193,106853,1,8,0:0:0:0:
204,371,107003,1,0,0:0:0:0:
204,371,107078,1,0,0:0:0:0:
204,371,107153,5,6,0:0:0:0:
269,108,107303,1,0,0:0:0:0:
121,319,107453,1,8,0:0:0:0:
73,69,107603,1,0,0:0:0:0:
233,261,107753,1,2,0:0:0:0:
284,20,107903,1,0,0:0:0:0:
101,214,108053,1,8,0:0:0:0:
398,159,108203,1,0,0:0:0:0:
398,159,108278,1,0,0:0:0:0:
398,159,108353,5,2,0:0:0:0:
175,12,108503,1,0,0:0:0:0:
254,376,108653,1,8,0:0:0:0:
290,88,108803,1,0,0:0:0:0:
196,300,108953,1,2,0:0:0:0:
412,275,109103,1,0,0:0:0:0:
297,206,109253,1,8,0:0:0:0:
492,162,109403,1,0,0:0:0:0:
255,9,109553,1,2,0:0:0:0:
182,352,109703,6,0,P|232:280|146:263,1,200,12|2,0:0|0:0,0:0:0:0:
89,376,110078,1,0,0:0:0:0:
55,354,110153,2,0,B|0:298|29:207|29:207|62:173|51:120,1,239.999992675781,12|2,0:0|0:0,0:0:0:0:
9,3,110528,1,0,0:0:0:0:
30,42,110603,2,0,B|87:32|124:73|124:73|198:57|198:57|181:124,1,209.999993591309,12|0,0:0|0:0,0:0:0:0:
151,257,110903,1,8,0:0:0:0:
254,8,111053,1,8,0:0:0:0:
348,383,111203,1,8,0:0:0:0:
116,329,111353,2,0,P|81:297|85:213,1,120
200,133,111653,6,0,P|203:205|120:262,1,150
34,122,111953,5,6,0:0:0:0:
255,18,112103,1,8,0:0:0:0:
220,379,112253,1,2,0:0:0:0:
126,84,112403,1,8,0:0:0:0:
25,379,112553,1,2,0:0:0:0:
189,49,112703,1,8,0:0:0:0:
255,381,112853,1,2,0:0:0:0:
71,177,113003,5,8,0:0:0:0:
322,124,113153,1,2,0:0:0:0:
77,50,113303,1,8,0:0:0:0:
323,263,113453,1,2,0:0:0:0:
2,109,113603,1,8,0:0:0:0:
382,22,113753,1,2,0:0:0:0:
257,380,113903,1,8,0:0:0:0:
420,21,114053,1,2,0:0:0:0:
503,331,114203,1,8,0:0:0:0:
274,21,114353,5,2,0:0:0:0:
215,380,114503,1,8,0:0:0:0:
437,160,114653,1,2,0:0:0:0:
156,62,114803,1,8,0:0:0:0:
362,356,114953,1,2,0:0:0:0:
274,21,115103,1,8,0:0:0:0:
170,379,115253,1,2,0:0:0:0:
70,151,115403,5,8,0:0:0:0:
249,328,115553,1,2,0:0:0:0:
0,371,115703,1,8,0:0:0:0:
255,164,115853,1,2,0:0:0:0:
4,91,116003,1,8,0:0:0:0:
89,352,116153,1,2,0:0:0:0:
206,12,116303,1,8,0:0:0:0:
6,244,116453,1,2,0:0:0:0:
366,173,116603,1,8,0:0:0:0:
104,6,116753,5,2,0:0:0:0:
254,379,116903,1,8,0:0:0:0:
392,55,117053,1,2,0:0:0:0:
286,298,117203,1,8,0:0:0:0:
191,6,117353,1,2,0:0:0:0:
445,237,117503,1,8,0:0:0:0:
116,353,117653,1,2,0:0:0:0:
235,174,117803,1,8,0:0:0:0:
319,382,117953,5,2,0:0:0:0:
95,203,118103,1,8,0:0:0:0:
377,149,118253,1,2,0:0:0:0:
69,96,118403,1,8,0:0:0:0:
419,225,118553,1,2,0:0:0:0:
115,0,118703,1,8,0:0:0:0:
375,316,118853,1,2,0:0:0:0:
500,12,119003,1,8,0:0:0:0:
206,283,119153,5,2,0:0:0:0:
65,121,119303,1,8,0:0:0:0:
359,78,119453,1,2,0:0:0:0:
79,254,119603,1,8,0:0:0:0:
214,29,119753,1,2,0:0:0:0:
355,317,119903,1,8,0:0:0:0:
1,194,120053,1,2,0:0:0:0:
414,126,120203,1,8,0:0:0:0:
167,29,120353,5,2,0:0:0:0:
357,363,120503,1,8,0:0:0:0:
1,194,120653,1,2,0:0:0:0:
258,5,120803,1,8,0:0:0:0:
124,376,120953,1,2,0:0:0:0:
454,175,121103,1,8,0:3:0:0:
83,102,121253,1,8,0:3:0:0:
367,374,121403,1,8,0:3:0:0:
258,5,121553,5,6,0:0:0:0:
316,150,121703,1,0,0:0:0:0:
152,218,121853,1,0,0:0:0:0:
281,78,122003,1,2,0:0:0:0:
376,299,122153,1,8,0:0:0:0:
151,82,122303,1,0,0:0:0:0:
143,384,122453,1,2,0:0:0:0:
343,225,122603,1,2,0:0:0:0:
77,149,122753,5,0,0:0:0:0:
240,113,122903,1,8,0:0:0:0:
58,49,123053,1,0,0:0:0:0:
258,222,123203,1,2,0:0:0:0:
258,222,123278,1,2,0:0:0:0:
258,222,123353,1,8,0:0:0:0:
3,108,123503,1,0,0:0:0:0:
383,15,123653,1,2,0:0:0:0:
257,372,123803,1,8,0:0:0:0:
126,4,123953,5,2,0:0:0:0:
231,293,124103,1,2,0:0:0:0:
173,142,124253,1,0,0:0:0:0:
83,383,124403,1,2,0:0:0:0:
360,231,124553,1,8,0:0:0:0:
115,45,124703,1,0,0:0:0:0:
115,45,124853,1,2,0:0:0:0:
41,382,125003,1,2,0:0:0:0:
41,382,125078,1,0,0:0:0:0:
41,382,125153,5,0,0:0:0:0:
285,178,125303,1,8,0:0:0:0:
53,147,125453,1,2,0:0:0:0:
257,3,125603,1,2,0:0:0:0:
336,382,125753,1,8,0:0:0:0:
470,123,125903,1,2,0:0:0:0:
310,284,126053,1,8,0:0:0:0:
226,296,126128,1,8,0:0:0:0:
143,280,126203,1,8,0:0:0:0:
78,225,126278,1,8,0:0:0:0:
42,148,126353,1,2,0:0:0:0:
256,8,126503,5,8,0:0:0:0:
53,329,126653,1,2,0:0:0:0:
286,8,126803,1,8,0:0:0:0:
241,362,126953,1,2,0:0:0:0:
146,7,127103,1,8,0:0:0:0:
399,263,127253,1,2,0:0:0:0:
53,141,127403,1,8,0:0:0:0:
334,8,127553,1,2,0:0:0:0:
436,378,127703,1,8,0:0:0:0:
131,197,127853,5,2,0:0:0:0:
501,152,128003,1,8,0:0:0:0:
292,7,128153,1,2,0:0:0:0:
257,379,128303,1,8,0:0:0:0:
475,173,128453,1,2,0:0:0:0:
89,97,128603,5,8,0:0:0:0:
160,340,128753,1,2,0:0:0:0:
211,12,128903,5,8,0:0:0:0:
227,298,129053,1,2,0:0:0:0:
395,20,129203,5,8,0:0:0:0:
303,305,129353,1,2,0:0:0:0:
510,132,129503,1,8,0:0:0:0:
299,15,129653,1,8,0:0:0:0:
424,355,129803,1,8,0:0:0:0:
28,243,129953,1,8,0:0:0:0:
378,44,130103,2,0,P|333:92|208:10,1,239.999992675781
383,183,130553,5,2,0:0:0:0:
299,15,130703,1,8,0:0:0:0:
63,338,130853,5,10,0:0:0:0:
146,107,131003,1,10,0:0:0:0:
479,366,131153,1,6,0:0:0:0:
95,33,135503,5,8,0:0:0:0:
98,52,135653,5,8,0:0:0:0:
102,70,135803,5,8,0:0:0:0:
105,87,135953,5,6,0:0:0:0:
148,293,136103,1,0,0:0:0:0:
123,190,136253,1,2,0:0:0:0:
253,269,136403,1,0,0:0:0:0:
47,317,136553,1,2,0:0:0:0:
227,162,136703,1,0,0:0:0:0:
281,371,136853,1,2,0:0:0:0:
23,217,137003,1,0,0:0:0:0:
328,142,137153,1,2,0:0:0:0:
140,15,137303,5,0,0:0:0:0:
140,15,137378,1,0,0:0:0:0:
140,15,137453,1,2,0:0:0:0:
190,228,137603,1,0,0:0:0:0:
328,142,137753,1,2,0:0:0:0:
375,346,137903,1,0,0:0:0:0:
375,346,137978,1,0,0:0:0:0:
375,346,138053,1,2,0:0:0:0:
495,112,138203,1,8,0:0:0:0:
328,142,138353,5,2,0:0:0:0:
495,112,138503,1,0,0:0:0:0:
286,24,138653,1,2,0:0:0:0:
189,249,138803,1,0,0:0:0:0:
431,213,138953,1,2,0:0:0:0:
157,95,139103,1,0,0:0:0:0:
215,371,139253,1,2,0:0:0:0:
299,166,139403,1,8,0:0:0:0:
86,274,139553,1,2,0:0:0:0:
307,323,139703,5,8,0:0:0:0:
307,323,139778,1,0,0:0:0:0:
307,323,139853,1,2,0:0:0:0:
155,60,140003,1,0,0:0:0:0:
86,274,140153,1,8,0:0:0:0:
351,112,140303,1,0,0:0:0:0:
351,112,140378,1,0,0:0:0:0:
351,112,140453,1,2,0:0:0:0:
155,23,140603,1,8,0:0:0:0:
255,194,140753,5,6,0:0:0:0:
255,194,140903,1,0,0:0:0:0:
47,128,141053,1,2,0:0:0:0:
209,115,141203,1,0,0:0:0:0:
104,206,141353,1,2,0:0:0:0:
280,59,141503,1,0,0:0:0:0:
30,274,141653,1,2,0:0:0:0:
326,138,141803,1,8,0:0:0:0:
132,4,141953,1,2,0:0:0:0:
181,272,142103,5,8,0:0:0:0:
181,272,142178,1,0,0:0:0:0:
181,272,142253,1,2,0:0:0:0:
305,44,142403,1,0,0:0:0:0:
157,143,142553,1,8,0:0:0:0:
343,325,142703,1,8,0:0:0:0:
343,325,142778,1,0,0:0:0:0:
343,325,142853,1,2,0:0:0:0:
231,91,143003,1,0,0:0:0:0:
119,375,143153,5,12,0:0:0:0:
119,375,143303,1,2,0:0:0:0:
80,183,143453,1,2,0:0:0:0:
254,376,143603,1,8,0:0:0:0:
295,183,143753,1,2,0:0:0:0:
97,279,143903,1,2,0:0:0:0:
56,58,144053,1,12,0:0:0:0:
272,278,144203,2,0,P|346:267|366:118,1,239.999992675781,6|8,0:0|0:0,0:0:0:0:
258,9,144653,5,2,0:0:0:0:
295,183,144803,1,2,0:0:0:0:
440,64,144953,1,12,0:0:0:0:
180,279,145103,1,0,0:0:0:0:
51,56,145253,1,8,0:0:0:0:
134,49,145328,1,8,0:0:0:0:
215,70,145403,1,8,0:0:0:0:
279,123,145478,1,8,0:0:0:0:
306,202,145553,1,6,0:0:0:0:
51,363,145703,5,0,0:0:0:0:
160,157,145853,1,8,0:0:0:0:
256,378,146003,1,0,0:0:0:0:
30,217,146153,1,2,0:0:0:0:
261,6,146303,1,2,0:0:0:0:
154,297,146453,1,8,0:0:0:0:
78,65,146603,1,2,0:0:0:0:
288,210,146753,5,0,0:0:0:0:
132,268,146903,1,2,0:0:0:0:
348,314,147053,1,8,0:0:0:0:
130,159,147203,1,0,0:0:0:0:
430,98,147353,1,2,0:0:0:0:
222,336,147503,1,2,0:0:0:0:
269,46,147653,1,8,0:0:0:0:
347,280,147803,1,0,0:0:0:0:
347,280,147878,1,0,0:0:0:0:
347,280,147953,5,2,0:0:0:0:
131,76,148103,1,0,0:0:0:0:
116,378,148253,1,8,0:0:0:0:
307,163,148403,1,0,0:0:0:0:
381,383,148553,1,2,0:0:0:0:
122,228,148703,1,2,0:0:0:0:
440,122,148853,1,8,0:0:0:0:
136,3,149003,1,2,0:0:0:0:
254,346,149153,5,0,0:0:0:0:
254,38,149303,1,2,0:0:0:0:
177,324,149453,5,8,0:0:0:0:
331,57,149603,1,0,0:0:0:0:
331,326,149753,5,2,0:0:0:0:
177,59,149903,1,2,0:0:0:0:
254,346,150053,1,8,0:0:0:0:
331,57,150203,1,0,0:0:0:0:
331,57,150278,1,0,0:0:0:0:
331,57,150353,1,2,0:0:0:0:
121,267,150503,5,0,0:0:0:0:
388,113,150653,1,8,0:0:0:0:
102,189,150803,5,0,0:0:0:0:
410,190,150953,1,2,0:0:0:0:
123,113,151103,5,2,0:0:0:0:
390,267,151253,1,8,0:0:0:0:
84,89,151403,5,2,0:0:0:0:
430,289,151553,1,0,0:0:0:0:
55,189,151703,5,2,0:0:0:0:
456,189,151853,1,8,0:0:0:0:
81,289,152003,5,0,0:0:0:0:
427,89,152153,1,2,0:0:0:0:
32,59,152303,5,2,0:0:0:0:
482,319,152453,1,8,0:0:0:0:
258,7,152603,1,0,0:0:0:0:
162,373,152753,1,2,0:0:0:0:
116,109,152903,1,0,0:0:0:0:
352,342,153053,1,8,0:0:0:0:
316,8,153203,5,0,0:0:0:0:
115,373,153353,1,2,0:0:0:0:
469,208,153503,1,2,0:0:0:0:
193,11,153653,1,8,0:0:0:0:
254,373,153803,1,2,0:0:0:0:
210,86,153953,5,0,0:0:0:0:
370,290,154103,1,2,0:0:0:0:
93,243,154253,1,8,0:0:0:0:
295,12,154403,1,0,0:0:0:0:
478,266,154553,1,10,0:0:0:0:
417,332,154628,1,8,0:0:0:0:
327,341,154703,1,8,0:0:0:0:
246,300,154778,1,8,0:0:0:0:
156,297,154853,2,0,L|78:309,1,59.9999981689454,10|8,0:0|0:0,0:0:0:0:
313,150,155003,2,0,L|405:137,1,59.9999981689454,8|8,0:0|0:0,0:0:0:0:
60,48,155153,5,6,0:0:0:0:
138,373,155303,1,0,0:0:0:0:
232,214,155453,1,8,0:0:0:0:
312,375,155603,1,0,0:0:0:0:
256,11,155753,1,2,0:0:0:0:
203,373,155903,1,2,0:0:0:0:
131,88,156053,1,8,0:0:0:0:
314,323,156203,1,2,0:0:0:0:
256,11,156353,5,0,0:0:0:0:
126,373,156503,1,2,0:0:0:0:
413,185,156653,1,8,0:0:0:0:
65,138,156803,1,0,0:0:0:0:
256,11,156953,1,2,0:0:0:0:
213,283,157103,1,2,0:0:0:0:
213,283,157178,1,0,0:0:0:0:
213,283,157253,1,8,0:0:0:0:
126,16,157403,1,0,0:0:0:0:
24,372,157553,5,2,0:0:0:0:
301,252,157703,1,0,0:0:0:0:
65,138,157853,1,8,0:0:0:0:
254,381,158003,1,0,0:0:0:0:
340,17,158153,1,2,0:0:0:0:
153,264,158303,1,2,0:0:0:0:
494,222,158453,1,8,0:0:0:0:
250,17,158603,1,2,0:0:0:0:
352,347,158753,1,0,0:0:0:0:
33,157,158903,5,2,0:0:0:0:
33,157,158978,1,0,0:0:0:0:
33,157,159053,1,8,0:0:0:0:
356,56,159203,1,0,0:0:0:0:
140,11,159353,5,2,0:0:0:0:
181,367,159503,1,2,0:0:0:0:
159,189,159653,1,8,0:0:0:0:
429,137,159803,5,0,0:0:0:0:
409,224,159878,1,0,0:0:0:0:
338,270,159953,1,2,0:0:0:0:
273,120,160103,1,0,0:0:0:0:
436,368,160253,1,8,0:0:0:0:
503,22,160403,1,0,0:0:0:0:
223,237,160553,1,2,0:0:0:0:
455,201,160703,1,2,0:0:0:0:
162,105,160853,5,8,0:0:0:0:
360,285,161003,1,2,0:0:0:0:
23,321,161153,1,0,0:0:0:0:
333,151,161303,1,2,0:0:0:0:
91,77,161453,1,8,0:0:0:0:
204,380,161603,1,0,0:0:0:0:
265,14,161753,1,2,0:0:0:0:
371,317,161903,1,2,0:0:0:0:
125,77,162053,1,8,0:0:0:0:
403,61,162203,1,0,0:0:0:0:
102,249,162353,5,2,0:0:0:0:
408,315,162503,1,0,0:0:0:0:
37,152,162653,1,8,0:0:0:0:
253,338,162803,1,0,0:0:0:0:
240,32,162953,1,2,0:0:0:0:
60,350,163103,1,2,0:0:0:0:
358,177,163253,1,8,0:0:0:0:
123,22,163403,1,2,0:0:0:0:
258,381,163553,5,0,0:0:0:0:
507,189,163703,1,2,0:0:0:0:
259,14,163853,1,8,0:0:0:0:
166,383,164003,1,0,0:0:0:0:
507,189,164153,1,2,0:0:0:0:
5,190,164303,1,2,0:0:0:0:
258,190,164453,1,8,0:0:0:0:
18,80,164603,1,0,0:0:0:0:
179,269,164753,5,8,0:0:0:0:
256,39,164903,1,2,0:0:0:0:
308,320,165053,5,8,0:0:0:0:
181,37,165203,1,2,0:0:0:0:
143,358,165353,5,8,0:0:0:0:
330,39,165503,1,2,0:0:0:0:
351,384,165653,5,8,0:0:0:0:
101,35,165803,1,2,0:0:0:0:
252,192,165953,5,0,0:0:0:0:
86,291,166103,1,8,0:0:0:0:
402,89,166253,1,8,0:0:0:0:
28,33,166403,1,8,0:0:0:0:
402,323,166553,1,8,0:0:0:0:
2,170,166703,1,8,0:0:0:0:
510,56,166853,1,8,0:0:0:0:
256,382,167153,5,2,0:0:0:0:
256,382,167753,5,2,0:0:0:0:
59,192,168353,1,2,0:0:0:0:
59,192,168953,5,2,0:0:0:0:
442,192,169553,1,2,0:0:0:0:
442,192,170153,5,2,0:0:0:0:
256,16,170753,1,2,0:0:0:0:
256,16,171353,5,2,0:0:0:0:
257,195,171653,1,0,0:0:0:0:
257,195,171953,1,2,0:0:0:0:
257,195,172253,5,10,0:0:0:0:
226,158,172328,1,8,0:0:0:0:
179,146,172403,1,8,0:0:0:0:
133,159,172478,1,8,0:0:0:0:
104,197,172553,2,0,L|100:104,1,59.9999981689454,10|8,0:0|0:0,0:0:0:0:
291,9,172703,2,0,L|292:96,1,59.9999981689454,8|8,0:0|0:0,0:0:0:0:
106,378,172853,2,0,L|104:313,1,59.9999981689454,10|8,0:0|0:0,0:0:0:0:
335,40,173003,2,0,L|334:113,1,59.9999981689454,8|8,0:0|0:0,0:0:0:0:
499,289,173153,5,10,0:0:0:0:
478,226,173228,1,8,0:0:0:0:
422,190,173303,1,8,0:0:0:0:
356,185,173378,1,8,0:0:0:0:
299,219,173453,2,0,L|218:205,1,59.9999981689454,10|8,0:0|0:0,0:0:0:0:
46,380,173603,2,0,L|54:314,1,59.9999981689454,8|8,0:0|0:0,0:0:0:0:
177,18,173753,5,10,0:0:0:0:
218,69,173828,1,8,0:0:0:0:
229,133,173903,1,8,0:0:0:0:
216,197,173978,1,8,0:0:0:0:
170,244,174053,2,0,L|112:273,1,59.9999981689454,10|8,0:0|0:0,0:0:0:0:
379,341,174203,2,0,L|467:334,1,59.9999981689454,8|8,0:0|0:0,0:0:0:0:
467,125,174353,5,10,0:0:0:0:
395,60,174428,1,8,0:0:0:0:
305,21,174503,1,8,0:0:0:0:
209,21,174578,1,8,0:0:0:0:
115,41,174653,1,10,0:0:0:0:
42,104,174728,1,8,0:0:0:0:
11,195,174803,1,8,0:0:0:0:
55,279,174878,1,8,0:0:0:0:
149,296,174953,1,10,0:0:0:0:
224,236,175028,1,8,0:0:0:0:
304,183,175103,1,8,0:0:0:0:
398,168,175178,1,8,0:0:0:0:
470,230,175253,1,10,0:0:0:0:
469,325,175328,1,8,0:0:0:0:
382,366,175403,1,8,0:0:0:0:
288,342,175478,1,8,0:0:0:0:
223,270,175553,1,2,0:0:0:0:
476,43,175703,5,8,0:0:0:0:
172,340,175853,1,8,0:0:0:0:
254,2,176003,1,8,0:0:0:0:
385,371,176153,6,0,P|428:353|378:332,1,120
303,361,176453,6,0,B|264:381|221:363|221:363|180:340|123:357,1,179.999994506836
95,373,176753,5,6,0:0:0:0:
262,274,176903,1,8,0:0:0:0:
29,194,177053,1,2,0:0:0:0:
252,11,177203,1,8,0:0:0:0:
291,384,177353,1,2,0:0:0:0:
0,194,177503,1,8,0:0:0:0:
354,147,177653,1,2,0:0:0:0:
133,4,177803,1,8,0:0:0:0:
218,301,177953,5,2,0:0:0:0:
436,48,178103,1,8,0:0:0:0:
496,331,178253,1,2,0:0:0:0:
183,296,178403,1,8,0:0:0:0:
461,184,178553,1,2,0:0:0:0:
331,381,178703,1,8,0:0:0:0:
257,8,178853,1,2,0:0:0:0:
183,296,179003,1,8,0:0:0:0:
365,96,179153,5,2,0:0:0:0:
71,202,179303,1,8,0:0:0:0:
141,2,179453,1,2,0:0:0:0:
253,379,179603,1,8,0:0:0:0:
102,97,179753,1,2,0:0:0:0:
356,204,179903,1,8,0:0:0:0:
100,294,180053,1,2,0:0:0:0:
365,96,180203,1,8,0:0:0:0:
17,28,180353,5,2,0:0:0:0:
274,273,180503,1,8,0:0:0:0:
256,5,180653,1,2,0:0:0:0:
59,351,180803,1,8,0:0:0:0:
425,211,180953,1,2,0:0:0:0:
217,4,181103,1,8,0:0:0:0:
337,380,181253,1,2,0:0:0:0:
444,7,181403,1,8,0:0:0:0:
388,49,181478,1,0,0:0:0:0:
334,94,181553,5,2,0:0:0:0:
111,237,181703,1,8,0:0:0:0:
465,207,181853,1,2,0:0:0:0:
217,4,182003,1,8,0:0:0:0:
260,380,182153,1,2,0:0:0:0:
504,120,182303,1,8,0:0:0:0:
189,189,182453,1,2,0:0:0:0:
485,295,182603,1,8,0:0:0:0:
112,84,182753,5,2,0:0:0:0:
386,8,182903,1,8,0:0:0:0:
58,203,183053,1,2,0:0:0:0:
413,273,183203,1,8,0:0:0:0:
212,3,183353,1,2,0:0:0:0:
127,381,183503,1,8,0:0:0:0:
312,136,183653,1,2,0:0:0:0:
15,92,183803,1,8,0:0:0:0:
223,255,183953,5,2,0:0:0:0:
156,3,184103,1,8,0:0:0:0:
38,381,184253,1,2,0:0:0:0:
388,312,184403,1,8,0:0:0:0:
15,92,184553,1,2,0:0:0:0:
356,178,184703,1,8,0:0:0:0:
114,330,184853,1,2,0:0:0:0:
156,3,185003,1,8,0:0:0:0:
325,365,185153,5,2,0:0:0:0:
59,207,185303,1,8,0:0:0:0:
480,164,185453,1,2,0:0:0:0:
200,14,185603,5,8,0:0:0:0:
287,376,185753,1,2,0:0:0:0:
250,6,185903,5,8,0:0:0:0:
240,377,186053,1,2,0:0:0:0:
301,10,186203,5,8,0:0:0:0:
195,367,186353,1,6,0:0:0:0:
455,157,186503,1,8,0:0:0:0:
119,8,186653,1,2,0:0:0:0:
188,343,186803,1,8,0:0:0:0:
328,12,186953,1,2,0:0:0:0:
44,182,187103,1,8,0:0:0:0:
413,156,187253,1,2,0:0:0:0:
119,8,187403,1,8,0:0:0:0:
371,359,187553,5,2,0:0:0:0:
481,100,187703,1,8,0:0:0:0:
251,307,187853,1,2,0:0:0:0:
498,217,188003,1,8,0:0:0:0:
191,138,188153,1,2,0:0:0:0:
511,265,188303,1,8,0:0:0:0:
90,337,188453,1,2,0:0:0:0:
481,100,188603,1,8,0:0:0:0:
115,17,188753,5,2,0:0:0:0:
447,92,188903,1,8,0:0:0:0:
36,172,189053,1,2,0:0:0:0:
335,21,189203,1,8,0:0:0:0:
154,267,189353,1,2,0:0:0:0:
467,244,189503,1,8,0:0:0:0:
108,109,189653,1,2,0:0:0:0:
256,380,189803,1,8,0:0:0:0:
335,21,189953,5,2,0:0:0:0:
405,352,190103,1,8,0:0:0:0:
188,39,190253,1,2,0:0:0:0:
383,329,190403,1,8,0:0:0:0:
171,19,190553,1,2,0:0:0:0:
264,343,190703,1,8,0:0:0:0:
390,119,190853,1,2,0:0:0:0:
61,238,191003,1,8,0:0:0:0:
262,6,191153,5,2,0:0:0:0:
347,381,191303,1,8,0:0:0:0:
164,120,191453,1,2,0:0:0:0:
474,101,191603,1,8,0:0:0:0:
192,296,191753,1,2,0:0:0:0:
491,205,191903,1,8,0:0:0:0:
135,111,192053,1,2,0:0:0:0:
460,195,192203,1,8,0:0:0:0:
62,354,192353,5,2,0:0:0:0:
430,183,192503,1,8,0:0:0:0:
23,22,192653,1,2,0:0:0:0:
188,333,192803,1,8,0:0:0:0:
252,52,192953,1,2,0:0:0:0:
39,270,193103,1,8,0:0:0:0:
150,7,193253,1,2,0:0:0:0:
258,382,193403,1,8,0:0:0:0:
88,129,193553,5,2,0:0:0:0:
349,248,193703,1,8,0:0:0:0:
39,270,193853,1,2,0:0:0:0:
256,6,194003,1,8,0:0:0:0:
395,373,194153,5,2,0:0:0:0:
253,192,194303,1,8,0:0:0:0:
101,373,194453,1,2,0:0:0:0:
255,97,194603,5,8,0:0:0:0:
395,373,194753,1,2,0:0:0:0:
256,6,194903,1,8,0:0:0:0:
101,373,195053,1,2,0:0:0:0:
487,103,195203,5,8,0:0:0:0:
44,103,195353,1,2,0:0:0:0:
447,195,195503,5,8,0:0:0:0:
59,12,195653,1,2,0:0:0:0:
281,381,195803,1,8,0:0:0:0:
256,6,195953,1,6,0:0:0:0:
387,60,196103,5,8,0:0:0:0:
140,343,196253,1,2,0:0:0:0:
442,191,196403,5,8,0:0:0:0:
66,217,196553,1,2,0:0:0:0:
387,323,196703,5,8,0:0:0:0:
104,76,196853,1,2,0:0:0:0:
498,15,197003,1,8,0:0:0:0:
255,375,197153,1,2,0:0:0:0:
14,15,197303,1,8,0:0:0:0:
495,161,197453,5,2,0:0:0:0:
11,161,197603,1,8,0:0:0:0:
493,306,197753,5,2,0:0:0:0:
9,306,197903,1,8,0:0:0:0:
498,15,198053,5,2,0:0:0:0:
14,15,198203,1,8,0:0:0:0:
493,306,198353,5,2,0:0:0:0:
404,32,198503,1,8,0:0:0:0:
347,347,198653,5,2,0:0:0:0:
258,73,198803,1,8,0:0:0:0:
23,306,198953,5,2,0:0:0:0:
112,32,199103,1,8,0:0:0:0:
169,347,199253,5,2,0:0:0:0:
258,73,199403,1,8,0:0:0:0:
345,376,199553,1,2,0:0:0:0:
126,170,199703,1,8,0:0:0:0:
372,14,199853,1,2,0:0:0:0:
243,376,200003,1,8,0:0:0:0:
121,17,200153,1,2,0:0:0:0:
295,292,200303,1,8,0:0:0:0:
17,319,200453,1,2,0:0:0:0:
248,15,200603,1,8,0:0:0:0:
260,83,200678,1,0,0:0:0:0:
275,151,200753,5,2,0:0:0:0:
314,378,200903,1,8,0:0:0:0:
449,17,201053,1,2,0:0:0:0:
266,378,201203,1,8,0:0:0:0:
248,15,201353,1,2,0:0:0:0:
421,379,201503,1,8,0:0:0:0:
449,17,201653,1,2,0:0:0:0:
170,379,201803,1,8,0:0:0:0:
87,14,201953,1,2,0:0:0:0:
2,379,202103,1,8,0:0:0:0:
248,15,202253,1,2,0:0:0:0:
314,378,202403,1,8,0:0:0:0:
11,95,202553,5,2,0:0:0:0:
510,53,202703,1,8,0:0:0:0:
11,188,202853,5,2,0:0:0:0:
507,278,203003,1,8,0:0:0:0:
12,10,203153,5,2,0:0:0:0:
510,136,203303,1,8,0:0:0:0:
7,361,203453,1,2,0:0:0:0:
252,5,203603,1,8,0:0:0:0:
342,383,203753,1,2,0:0:0:0:
133,4,203903,1,8,0:0:0:0:
83,380,204053,1,2,0:0:0:0:
342,142,204203,1,8,0:0:0:0:
94,3,204353,5,2,0:0:0:0:
258,379,204503,1,8,0:0:0:0:
252,5,204653,1,2,0:0:0:0:
9,278,204803,1,8,0:0:0:0:
250,190,204953,1,2,0:0:0:0:
94,3,205103,1,8,0:3:0:0:
39,305,205253,1,8,0:3:0:0:
345,358,205403,1,8,0:3:0:0:
399,52,205553,1,8,0:0:0:0:
399,52,206003,5,2,0:0:0:0:
399,52,206078,1,2,0:0:0:0:
399,52,206153,2,0,B|363:86|307:59|307:59|259:31|206:61,1,200,12|0,0:0|0:0,0:0:0:0:
73,257,206603,1,8,0:0:0:0:
165,194,206678,1,8,0:0:0:0:
260,137,206753,1,2,0:0:0:0:
260,137,206903,1,2,0:0:0:0:
260,137,207203,5,2,0:0:0:0:
260,137,207278,1,2,0:0:0:0:
260,137,207353,2,0,P|300:187|287:321,1,200,12|0,0:0|0:0,0:0:0:0:
121,257,207803,1,8,0:0:0:0:
260,137,207953,1,2,0:0:0:0:
106,105,208103,2,0,B|121:257|121:257|136:208,1,200,2|2,0:0|0:0,0:0:0:0:
173,12,208553,1,8,0:0:0:0:
15,195,208703,1,0,0:0:0:0:
260,137,208853,1,2,0:0:0:0:
23,50,209003,6,0,L|47:266,1,200,2|8,0:0|0:0,0:0:0:0:
63,383,209453,1,2,0:0:0:0:
45,249,209603,1,2,0:0:0:0:
170,303,209753,1,8,0:0:0:0:
173,128,209903,1,0,0:0:0:0:
296,332,210053,1,10,0:0:0:0:
314,250,210128,1,8,0:0:0:0:
332,167,210203,1,8,0:0:0:0:
351,85,210278,1,8,0:0:0:0:
368,2,210353,5,2,0:0:0:0:
487,259,210503,1,8,0:0:0:0:
147,179,210653,1,2,0:0:0:0:
407,3,210803,1,8,0:0:0:0:
434,332,210953,1,2,0:0:0:0:
257,5,211103,1,8,0:0:0:0:
122,378,211253,1,2,0:0:0:0:
507,79,211403,5,8,0:0:0:0:
5,79,211553,1,2,0:0:0:0:
507,305,211703,5,8,0:0:0:0:
5,305,211853,1,2,0:0:0:0:
507,79,212003,5,8,0:0:0:0:
5,305,212153,1,2,0:0:0:0:
507,305,212303,5,8,0:0:0:0:
5,79,212453,1,2,0:0:0:0:
467,280,212603,5,8,0:0:0:0:
110,6,212753,1,2,0:0:0:0:
206,380,212903,1,8,0:0:0:0:
328,4,213053,1,2,0:0:0:0:
182,284,213203,1,8,0:0:0:0:
398,127,213353,1,2,0:0:0:0:
333,379,213503,1,8,0:0:0:0:
220,3,213653,1,2,0:0:0:0:
96,380,213803,1,8,0:0:0:0:
96,380,214103,5,0,0:0:0:0:
96,380,214403,5,0,0:0:0:0:
255,187,214553,1,0,0:0:0:0:
9,14,214703,1,0,0:0:0:0:
499,369,214853,1,0,0:0:0:0:
14,372,215003,1,0,0:0:0:0:
501,14,215153,1,6,0:0:0:0:
309,249,215303,5,2,0:0:0:0:
227,25,215453,1,0,0:0:0:0:
176,170,215603,1,2,0:0:0:0:
176,170,215678,1,0,0:0:0:0:
176,170,215753,2,0,B|255:148|255:148|299:157|299:157|385:128,1,200,8|8,0:0|0:0,0:0:0:0:
182,24,216203,1,8,0:0:0:0:
196,71,216278,1,8,0:0:0:0:
209,112,216353,1,8,0:0:0:0:
10,239,216503,1,8,0:3:0:0:
10,239,216803,5,4,0:3:0:0:
119,350,216953,2,0,L|133:247,1,100,6|0,0:0|0:0,0:0:0:0:
335,228,217253,2,0,L|351:117,1,100,6|0,0:0|0:0,0:0:0:0:
253,16,217553,5,6,0:0:0:0:
349,129,217703,1,0,0:0:0:0:
196,162,217853,1,0,0:0:0:0:
416,47,218003,1,2,0:0:0:0:
416,47,218078,1,2,0:0:0:0:
416,47,218153,2,0,P|446:91|389:229,1,200,12|8,0:0|0:0,0:0:0:0:
231,300,218603,1,8,0:3:0:0:
231,300,218903,5,8,0:3:0:0:
349,129,219053,1,8,0:0:0:0:
400,382,219203,1,8,0:3:0:0:
200,200,219353,1,2,0:0:0:0:
393,119,219503,1,8,0:0:0:0:
87,24,219653,1,2,0:0:0:0:
87,24,219953,5,6,0:0:0:0:
73,133,220103,1,0,0:0:0:0:
174,91,220253,1,0,0:0:0:0:
156,199,220403,1,0,0:0:0:0:
425,24,220553,5,8,0:0:0:0:
439,133,220703,1,0,0:0:0:0:
338,91,220853,1,2,0:0:0:0:
356,199,221003,1,2,0:0:0:0:
156,199,221153,5,0,0:0:0:0:
356,199,221303,1,8,0:0:0:0:
356,199,221378,1,0,0:0:0:0:
356,199,221453,1,2,0:0:0:0:
73,133,221603,1,2,0:0:0:0:
338,91,221753,1,8,0:0:0:0:
240,346,221903,1,0,0:0:0:0:
240,346,221978,1,0,0:0:0:0:
240,346,222053,1,2,0:0:0:0:
197,19,222203,1,8,0:0:0:0:
335,303,222353,5,2,0:0:0:0:
131,184,222503,1,2,0:0:0:0:
446,165,222653,1,0,0:0:0:0:
157,363,222803,1,2,0:0:0:0:
283,66,222953,1,8,0:0:0:0:
348,331,223103,1,0,0:0:0:0:
131,184,223253,1,2,0:0:0:0:
368,110,223403,1,2,0:0:0:0:
66,294,223553,1,0,0:0:0:0:
114,18,223703,5,8,0:0:0:0:
114,18,223778,1,0,0:0:0:0:
114,18,223853,1,0,0:0:0:0:
131,184,224003,1,2,0:0:0:0:
264,75,224153,1,8,0:0:0:0:
278,299,224303,1,0,0:0:0:0:
278,299,224378,1,0,0:0:0:0:
278,299,224453,1,2,0:0:0:0:
36,113,224603,1,8,0:0:0:0:
264,27,224753,5,6,0:0:0:0:
131,184,224903,1,2,0:0:0:0:
370,203,225053,1,0,0:0:0:0:
155,70,225203,1,2,0:0:0:0:
434,16,225353,1,8,0:0:0:0:
364,307,225503,1,0,0:0:0:0:
326,134,225653,1,2,0:0:0:0:
434,16,225803,1,2,0:0:0:0:
364,307,225953,1,0,0:0:0:0:
191,252,226103,5,8,0:0:0:0:
191,252,226178,1,0,0:0:0:0:
191,252,226253,1,2,0:0:0:0:
497,191,226403,1,2,0:0:0:0:
190,55,226553,1,8,0:0:0:0:
434,16,226703,1,0,0:0:0:0:
434,16,226778,1,0,0:0:0:0:
434,16,226853,1,2,0:0:0:0:
372,332,227003,1,0,0:0:0:0:
317,37,227153,5,2,0:0:0:0:
101,130,227303,2,0,P|152:157|184:50,1,200,12|2,0:0|0:0,0:0:0:0:
101,130,227753,6,0,P|92:185|111:125,1,200,8|2,0:0|0:0,0:0:0:0:
34,249,228203,6,0,P|88:279|223:236,1,200,12|2,0:0|0:0,0:0:0:0:
290,11,228653,1,8,0:0:0:0:
371,365,228803,1,8,0:0:0:0:
488,143,228953,1,12,0:0:0:0:
