osu file format v14

[General]
AudioFilename: audio.mp3
AudioLeadIn: 0
PreviewTime: 653
Countdown: 0
SampleSet: Soft
StackLeniency: 0.7
Mode: 0
LetterboxInBreaks: 0
WidescreenStoryboard: 1

[Editor]
Bookmarks: 17753,25553,29603,36953,38603,79553,127253,131753,167153,175253
DistanceSpacing: 1.4
BeatDivisor: 4
GridSize: 8
TimelineZoom: 2

[Metadata]
Title:Soukai Rock
TitleUnicode:爽快ロック
Artist:Silent Siren
ArtistUnicode:Silent Siren
Creator:Rekinaja
Version:New Insane
Source:
Tags:
BeatmapID:1008712
BeatmapSetID:446726

[Difficulty]
HPDrainRate:7
CircleSize:4
OverallDifficulty:8
ApproachRate:9.3
SliderMultiplier:1.8
SliderTickRate:2

[Events]
//Background and Video events
0,0,"wallhaven-181603.jpg",0,0
//Break Periods
//Storyboard Layer 0 (Background)
//Storyboard Layer 1 (Fail)
//Storyboard Layer 2 (Pass)
//Storyboard Layer 3 (Foreground)
//Storyboard Sound Samples

[TimingPoints]
1553,600,4,2,0,50,1,0
6343,-66.6666666666667,4,2,0,50,0,0
11153,300,4,2,0,50,1,0
20753,-133.333333333333,4,2,0,50,0,0
32903,-100,4,2,0,50,0,0
35153,-133.333333333333,4,2,0,50,0,0
63953,-100,4,2,0,50,0,1
73553,-133.333333333333,4,2,0,50,0,0
78353,-100,4,2,0,50,0,1
83153,-133.333333333333,4,2,0,50,0,0
90353,-100,4,2,0,50,0,0
92753,-133.333333333333,4,2,0,50,0,0
111953,-100,4,2,0,50,0,1
121553,-133.333333333333,4,2,0,50,0,0
126353,-100,4,2,0,50,0,1
131153,-100,4,2,0,50,0,0
166553,-133.333333333333,4,2,0,50,0,0
176753,-100,4,2,0,50,0,0

[Colours]
Combo1 : 255,153,0
Combo2 : 0,128,255
Combo3 : 128,255,0
Combo4 : 255,102,204

[HitObjects]
424,288,1553,6,0,B|360:240|328:320|288:256|288:256|232:224|136:296,1,315
88,200,2753,2,0,B|136:168|160:88|160:88|240:168|336:136,1,315
288,56,3953,2,0,B|400:16|432:104|424:152|424:152|480:192,1,270
368,240,5003,2,0,L|288:176,2,90
256,296,5753,1,0,0:0:0:0:
176,192,5903,1,0,0:0:0:0:
297,183,6053,1,0,0:0:0:0:
160,288,6203,1,0,0:0:0:0:
64,208,6353,6,0,P|64:136|96:96,1,67.5000025749208
208,48,6653,2,0,P|208:120|176:160,1,67.5000025749208
176,240,6953,1,0,0:0:0:0:
128,88,7103,1,0,0:0:0:0:
264,216,7253,1,0,0:0:0:0:
80,272,7403,1,0,0:0:0:0:
264,148,7553,6,0,L|264:215,1,67.5000025749208
176,312,7853,2,0,L|176:244,1,67.5000025749208
192,80,8153,2,0,P|224:40|272:32,2,101.250003862381
304,160,8753,5,0,0:0:0:0:
152,160,8903,1,0,0:0:0:0:
232,272,9053,1,0,0:0:0:0:
232,96,9203,1,0,0:0:0:0:
112,272,9353,1,0,0:0:0:0:
352,272,9503,1,0,0:0:0:0:
264,176,9653,2,0,L|184:176,1,67.5000025749208
96,176,10103,5,0,0:0:0:0:
100,181,10253,1,0,0:0:0:0:
100,181,10403,1,0,0:0:0:0:
127,328,11153,6,0,P|96:294|96:238,1,90
241,75,11453,1,0,0:0:0:0:
211,207,11603,1,0,0:0:0:0:
90,123,11753,6,0,P|124:92|180:92,1,90
343,237,12053,1,0,0:0:0:0:
211,207,12203,1,0,0:0:0:0:
312,104,12353,5,0,0:0:0:0:
256,296,12503,1,0,0:0:0:0:
128,144,12653,1,0,0:0:0:0:
312,104,12803,1,0,0:0:0:0:
256,296,12953,6,0,L|152:296,1,90
312,104,13253,2,0,L|402:104,1,90
368,256,13553,5,0,0:0:0:0:
312,104,13703,1,0,0:0:0:0:
456,160,13853,1,0,0:0:0:0:
256,216,14003,1,0,0:0:0:0:
312,104,14153,2,0,P|365:94|413:110,1,90
416,240,14453,1,0,0:0:0:0:
440,40,14603,6,0,P|352:24|264:48,1,180
240,168,15053,1,0,0:0:0:0:
304,280,15203,2,0,P|344:256|360:208,1,90
304,112,15503,1,0,0:0:0:0:
160,112,15653,1,0,0:0:0:0:
240,248,15803,1,0,0:0:0:0:
200,40,15953,6,0,P|152:32|104:48,1,90
0,192,16253,2,0,P|80:224|168:176,1,180
200,40,16703,1,0,0:0:0:0:
160,185,16853,1,0,0:0:0:0:
312,144,17003,1,0,0:0:0:0:
200,40,17153,2,0,L|232:152,1,90
272,312,17453,2,0,L|240:208,1,90
152,152,17753,2,0,P|128:216|136:296,2,135
296,48,18353,6,0,P|312:96|288:144,1,90
240,328,18653,1,0,0:0:0:0:
176,216,18803,1,0,0:0:0:0:
120,96,18953,2,0,P|161:79|203:92,1,90
288,200,19253,1,0,0:0:0:0:
368,304,19403,2,0,P|320:336|200:304,2,180
288,200,20153,1,0,0:0:0:0:
144,96,20303,1,0,0:0:0:0:
344,176,20453,1,0,0:0:0:0:
88,120,20603,1,0,0:0:0:0:
208,144,20753,6,0,B|256:96|256:96|352:96,1,135.000005149842
304,240,21203,1,0,0:0:0:0:
304,240,21278,1,0,0:0:0:0:
304,240,21353,2,0,B|256:288|256:288|160:288,1,135.000005149842
88,240,21803,1,0,0:0:0:0:
96,112,21953,5,0,0:0:0:0:
184,192,22103,2,0,B|248:208|248:208|320:192,1,135.000005149842
256,48,22553,2,0,P|248:96|264:128,1,67.5000025749208
384,224,22853,2,0,P|392:176|376:144,1,67.5000025749208
320,88,23153,5,0,0:0:0:0:
272,256,23303,2,0,P|208:280|144:256,1,135.000005149842
136,248,23678,1,0,0:0:0:0:
120,232,23753,2,0,L|120:88,1,135.000005149842
264,40,24203,2,0,L|264:184,1,135.000005149842
264,304,24653,1,0,0:0:0:0:
384,240,24803,1,0,0:0:0:0:
384,216,24878,1,0,0:0:0:0:
384,184,24953,2,0,P|376:144|352:112,1,67.5000025749208
216,96,25253,2,0,P|224:136|248:168,1,67.5000025749208
360,120,25553,5,0,0:0:0:0:
232,160,25703,1,0,0:0:0:0:
320,216,25853,1,0,0:0:0:0:
264,48,26003,1,0,0:0:0:0:
216,240,26153,2,0,B|160:312|160:312|120:320|104:344,1,135.000005149842
144,176,26603,2,0,B|200:104|200:104|240:96|256:72,1,135.000005149842
400,80,27053,6,0,B|360:144|360:144|280:184,1,135.000005149842
184,208,27503,1,0,0:0:0:0:
368,232,27653,2,0,B|328:296|328:296|248:336,1,135.000005149842
112,240,28103,5,0,0:0:0:0:
120,336,28253,1,0,0:0:0:0:
256,232,28403,1,0,0:0:0:0:
160,160,28553,2,0,B|88:104|88:104|64:112|40:80,1,135.000005149842
208,56,29003,2,0,L|296:56,1,67.5000025749208
416,224,29303,1,0,0:0:0:0:
336,312,29453,1,0,0:0:0:0:
256,224,29603,1,0,0:0:0:0:
208,56,29753,6,0,L|296:56,1,67.5000025749208
416,224,30053,1,0,0:0:0:0:
336,312,30203,1,0,0:0:0:0:
256,224,30353,5,0,0:0:0:0:
256,56,30503,1,0,0:0:0:0:
256,224,30653,1,0,0:0:0:0:
176,128,30803,1,0,0:0:0:0:
104,240,30953,2,0,B|160:320|160:320|184:320|192:344,1,135.000005149842
392,328,31403,2,0,B|336:248|336:248|312:248|304:224,1,135.000005149842
80,152,31853,6,0,B|144:128|144:128|224:152,1,135.000005149842
306,229,32303,1,0,0:0:0:0:
240,64,32453,2,0,B|304:40|304:40|384:64,1,135.000005149842
400,312,32903,6,0,L|264:256,1,135
248,248,33203,1,0,0:0:0:0:
96,224,33353,2,0,L|232:168,1,135
248,160,33653,1,0,0:0:0:0:
400,136,33803,2,0,L|264:80,1,135
248,72,34103,1,0,0:0:0:0:
104,192,34253,5,0,0:0:0:0:
256,312,34403,1,0,0:0:0:0:
400,192,34553,1,0,0:0:0:0:
248,128,35153,5,0,0:0:0:0:
256,48,35303,1,0,0:0:0:0:
328,104,35453,1,0,0:0:0:0:
176,160,35603,1,0,0:0:0:0:
64,136,35753,2,0,L|192:72,1,135.000005149842
328,112,36203,1,0,0:0:0:0:
362,264,36353,2,0,P|306:264|266:184,1,135.000005149842
256,56,36953,2,0,P|312:56|352:136,1,135.000005149842
168,120,37403,1,0,0:0:0:0:
96,168,37553,5,0,0:0:0:0:
168,208,37703,1,0,0:0:0:0:
168,120,37853,1,0,0:0:0:0:
16,216,38003,1,0,0:0:0:0:
32,112,38153,2,0,L|152:40,1,135.000005149842
304,48,38603,1,0,0:0:0:0:
408,88,38753,5,0,0:0:0:0:
272,160,38903,1,0,0:0:0:0:
416,184,39053,1,0,0:0:0:0:
304,48,39203,1,0,0:0:0:0:
264,248,39353,1,0,0:0:0:0:
408,88,39503,1,0,0:0:0:0:
216,96,39653,6,0,P|160:128|120:200,1,135.000005149842
88,256,40103,1,0,0:0:0:0:
48,192,40253,1,0,0:0:0:0:
208,184,40403,1,0,0:0:0:0:
336,248,40553,2,0,B|264:128|264:128|272:128,1,135.000005149842
216,48,41003,1,0,0:0:0:0:
352,24,41153,2,0,L|336:96,1,67.5000025749208
369,167,41453,2,0,P|313:183|265:127,1,135.000005149842
192,176,41903,1,0,0:0:0:0:
88,64,42053,2,0,P|144:48|192:104,1,135.000005149842
192,184,42503,5,0,0:0:0:0:
112,144,42653,1,0,0:0:0:0:
272,72,42803,1,0,0:0:0:0:
376,136,42953,2,0,L|272:232,1,135.000005149842
184,296,43403,1,0,0:0:0:0:
104,184,43553,5,0,0:0:0:0:
256,224,43703,1,0,0:0:0:0:
176,128,43853,1,0,0:0:0:0:
192,296,44003,1,0,0:0:0:0:
264,120,44153,1,0,0:0:0:0:
80,136,44303,1,0,0:0:0:0:
192,296,44453,1,0,0:0:0:0:
168,80,44603,1,0,0:0:0:0:
192,296,44753,5,0,0:0:0:0:
136,232,44903,1,0,0:0:0:0:
232,224,45053,1,0,0:0:0:0:
144,368,45203,1,0,0:0:0:0:
104,280,45353,2,0,L|176:144,1,135.000005149842
280,80,45803,1,0,0:0:0:0:
368,224,45953,2,0,L|296:192,1,67.5000025749208
160,152,46253,2,0,P|152:88|232:56,1,135.000005149842
232,120,46703,1,0,0:0:0:0:
352,24,46853,2,0,P|360:88|280:120,1,135.000005149842
232,120,47303,5,0,0:0:0:0:
280,56,47453,1,0,0:0:0:0:
336,200,47603,1,0,0:0:0:0:
256,256,47753,2,0,L|120:256,1,135.000005149842
56,184,48203,1,0,0:0:0:0:
160,128,48353,5,0,0:0:0:0:
304,192,48503,1,0,0:0:0:0:
248,72,48653,1,0,0:0:0:0:
184,224,48803,1,0,0:0:0:0:
248,8,48953,1,0,0:0:0:0:
336,256,49103,1,0,0:0:0:0:
184,96,49253,6,0,P|168:160|136:248,1,135.000005149842
104,296,49703,1,0,0:0:0:0:
56,232,49853,1,0,0:0:0:0:
240,216,50003,1,0,0:0:0:0:
238,303,50153,2,0,L|86:295,1,135.000005149842
104,160,50603,1,0,0:0:0:0:
240,56,50753,2,0,L|216:128,1,67.5000025749208
256,240,51053,2,0,P|184:256|136:208,1,135.000005149842
216,168,51503,1,0,0:0:0:0:
296,128,51653,2,0,P|368:112|416:160,1,135.000005149842
416,232,52103,5,0,0:0:0:0:
336,192,52253,1,0,0:0:0:0:
480,104,52403,1,0,0:0:0:0:
496,192,52553,2,0,L|464:336,1,135.000005149842
352,272,53003,1,0,0:0:0:0:
232,272,53153,5,0,0:0:0:0:
120,152,53303,1,0,0:0:0:0:
272,120,53453,1,0,0:0:0:0:
104,272,53603,1,0,0:0:0:0:
152,32,53753,1,0,0:0:0:0:
344,200,53903,1,0,0:0:0:0:
120,152,54053,1,0,0:0:0:0:
432,160,54353,5,0,0:0:0:0:
256,328,54653,1,0,0:0:0:0:
104,272,54953,6,0,L|168:224,1,67.5000025749208
144,144,55253,2,0,L|216:88,1,67.5000025749208
256,40,55553,5,0,0:0:0:0:
440,232,55853,1,0,0:0:0:0:
352,160,56153,6,0,L|304:224,1,67.5000025749208
208,248,56453,2,0,L|152:320,1,67.5000025749208
80,344,56753,5,0,0:0:0:0:
296,152,57053,1,0,0:0:0:0:
176,312,57353,6,0,L|136:232,1,67.5000025749208
160,168,57653,2,0,L|128:80,1,67.5000025749208
176,32,57953,6,0,L|232:88,1,67.5000025749208
376,256,58253,1,0,0:0:0:0:
368,48,58403,1,0,0:0:0:0:
248,216,58553,1,0,0:0:0:0:
464,144,58703,1,0,0:0:0:0:
248,80,58853,2,0,L|168:80,1,67.5000025749208
248,320,59153,5,0,0:0:0:0:
248,320,59303,1,0,0:0:0:0:
248,80,59453,1,0,0:0:0:0:
112,192,59753,5,0,0:0:0:0:
376,192,60053,1,0,0:0:0:0:
136,312,60353,5,0,0:0:0:0:
136,312,60503,1,0,0:0:0:0:
328,80,60653,1,0,0:0:0:0:
328,304,60953,5,0,0:0:0:0:
160,80,61253,1,0,0:0:0:0:
368,192,61553,5,0,0:0:0:0:
120,192,61703,2,0,L|256:192,1,135.000005149842
384,304,62153,2,0,L|248:304,1,135.000005149842
112,304,62603,1,0,0:0:0:0:
112,304,62903,5,0,0:0:0:0:
112,104,63053,1,0,0:0:0:0:
272,200,63203,1,0,0:0:0:0:
400,144,63953,6,0,P|400:88|384:48,1,90
240,160,64253,2,0,P|240:216|256:256,1,90
376,280,64553,1,0,0:0:0:0:
304,120,64703,1,0,0:0:0:0:
192,256,64853,1,0,0:0:0:0:
392,168,65003,1,0,0:0:0:0:
192,144,65153,6,0,L|80:144,1,90
192,256,65453,2,0,L|304:256,1,90
280,152,65753,1,0,0:0:0:0:
216,48,65903,1,0,0:0:0:0:
96,264,66053,1,0,0:0:0:0:
192,192,66203,1,0,0:0:0:0:
112,88,66353,6,0,P|88:144|96:192,1,90
184,352,66653,2,0,P|208:296|200:248,1,90
168,160,66953,1,0,0:0:0:0:
104,296,67103,1,0,0:0:0:0:
304,256,67253,1,0,0:0:0:0:
272,72,67403,6,0,P|360:48|456:80,1,180
368,216,67853,1,0,0:0:0:0:
488,184,68003,1,0,0:0:0:0:
352,320,68153,1,0,0:0:0:0:
248,256,68303,1,0,0:0:0:0:
272,72,68453,1,0,0:0:0:0:
352,320,68603,1,0,0:0:0:0:
176,200,68753,6,0,P|160:152|176:104,1,90
328,152,69053,2,0,P|344:200|328:248,1,90
184,296,69353,1,0,0:0:0:0:
304,64,69503,1,0,0:0:0:0:
334,237,69653,1,0,0:0:0:0:
169,114,69803,1,0,0:0:0:0:
328,240,69953,6,0,P|248:264|144:232,1,180
256,64,70403,1,0,0:0:0:0:
304,152,70553,1,0,0:0:0:0:
208,312,70703,2,0,L|176:264,1,45
152,248,70853,2,0,L|200:168,1,90
248,56,71153,6,0,L|360:56,1,90
456,152,71453,2,0,L|344:152,1,90
192,152,71753,1,0,0:0:0:0:
120,272,71903,1,0,0:0:0:0:
240,336,72053,1,0,0:0:0:0:
192,152,72203,2,0,P|112:120|24:168,1,180
40,280,72653,5,0,0:0:0:0:
104,344,72803,1,0,0:0:0:0:
288,256,72953,1,0,0:0:0:0:
224,176,73103,1,0,0:0:0:0:
376,80,73253,1,0,0:0:0:0:
360,320,73403,1,0,0:0:0:0:
104,176,73553,6,0,P|128:128|224:80,1,135.000005149842
336,40,74003,1,0,0:0:0:0:
432,128,74153,2,0,P|408:176|312:224,1,135.000005149842
184,224,74603,1,0,0:0:0:0:
184,224,74903,1,0,0:0:0:0:
184,224,75203,1,0,0:0:0:0:
296,176,75353,6,0,L|296:80,1,67.5000025749208
128,72,75653,1,0,0:0:0:0:
208,128,75803,1,0,0:0:0:0:
296,176,75953,2,0,B|296:280|296:280|208:344,1,202.500007724762
216,344,76478,1,0,0:0:0:0:
216,337,76553,1,0,0:0:0:0:
80,320,76703,1,0,0:0:0:0:
216,344,76853,5,0,0:0:0:0:
136,240,77003,1,0,0:0:0:0:
288,144,77153,1,0,0:0:0:0:
232,256,77303,1,0,0:0:0:0:
120,48,77453,1,0,0:0:0:0:
200,176,77603,1,0,0:0:0:0:
360,40,77753,1,0,0:0:0:0:
184,104,77903,1,0,0:0:0:0:
264,240,78053,1,0,0:0:0:0:
296,248,78128,1,0,0:0:0:0:
329,243,78203,1,0,0:0:0:0:
357,225,78278,1,0,0:0:0:0:
376,208,78353,6,0,P|320:184|192:208,1,180
232,312,78803,1,0,0:0:0:0:
112,248,78953,2,0,L|24:176,1,90
208,64,79253,2,0,L|296:136,1,90
240,240,79553,1,0,0:0:0:0:
272,120,79703,1,0,0:0:0:0:
152,184,79853,1,0,0:0:0:0:
376,184,80003,1,0,0:0:0:0:
264,320,80153,6,0,P|216:304|176:248,1,90
144,120,80453,1,0,0:0:0:0:
48,280,80603,2,0,L|104:192,1,90
280,152,80903,1,0,0:0:0:0:
432,264,81053,2,0,P|384:280|336:256,1,90
400,112,81353,2,0,P|448:96|496:120,1,90
344,264,81653,1,0,0:0:0:0:
344,64,81803,1,0,0:0:0:0:
344,264,81953,1,0,0:0:0:0:
344,264,82553,5,0,0:0:0:0:
152,192,82703,1,0,0:0:0:0:
344,264,82853,1,0,0:0:0:0:
152,192,83003,1,0,0:0:0:0:
256,88,83153,6,0,B|320:72|320:72|400:96,1,135.000005149842
464,184,83603,1,0,0:0:0:0:
328,264,83753,2,0,B|248:304|248:304|232:336|200:320,1,135.000005149842
64,296,84203,2,0,B|144:256|144:256|160:224|192:240,1,135.000005149842
208,112,84653,6,0,P|280:96|352:120,1,135.000005149842
432,184,85103,1,0,0:0:0:0:
78,112,85253,2,0,P|150:96|222:120,1,135.000005149842
251,252,85703,5,0,0:0:0:0:
264,32,85853,1,0,0:0:0:0:
368,144,86003,1,0,0:0:0:0:
368,168,86078,1,0,0:0:0:0:
368,192,86153,2,0,B|288:232|288:232|272:264|240:248,1,135.000005149842
80,248,86603,2,0,L|144:208,1,67.5000025749208
272,112,86903,1,0,0:0:0:0:
184,48,87053,1,0,0:0:0:0:
96,112,87203,1,0,0:0:0:0:
80,248,87353,6,0,L|144:208,1,67.5000025749208
272,112,87653,1,0,0:0:0:0:
184,48,87803,1,0,0:0:0:0:
352,176,87953,6,0,L|464:264,1,135.000005149842
336,312,88403,1,0,0:0:0:0:
208,352,88553,2,0,B|200:264|200:264|176:248|184:216,1,135.000005149842
224,48,89003,2,0,B|232:136|232:136|256:152|248:184,1,135.000005149842
16,152,89453,6,0,B|80:128|80:128|160:160,1,135.000005149842
248,176,89903,1,0,0:0:0:0:
352,216,90053,1,0,0:0:0:0:
