osu file format v14

[General]
AudioFilename: audio.mp3
AudioLeadIn: 0
PreviewTime: 653
Countdown: 0
SampleSet: Soft
StackLeniency: 0.7
Mode: 0
LetterboxInBreaks: 0
WidescreenStoryboard: 0

[Editor]
Bookmarks: 17753,25553,29603,36953,38003,38603,79553,127253,131753,167153,175253
DistanceSpacing: 1.4
BeatDivisor: 4
GridSize: 8
TimelineZoom: 2

[Metadata]
Title:Soukai Rock
TitleUnicode:爽快ロック
Artist:Silent Siren
ArtistUnicode:Silent Siren
Creator:Rekinaja
Version:Insane
Source:
Tags:
BeatmapID:959324
BeatmapSetID:446726

[Difficulty]
HPDrainRate:7
CircleSize:4
OverallDifficulty:8
ApproachRate:9.3
SliderMultiplier:1.8
SliderTickRate:2

[Events]
//Background and Video events
0,0,"wallhaven-181603.jpg",0,0
//Break Periods
2,145753,165999
//Storyboard Layer 0 (Background)
//Storyboard Layer 1 (Fail)
//Storyboard Layer 2 (Pass)
//Storyboard Layer 3 (Foreground)
//Storyboard Sound Samples

[TimingPoints]
1553,600,4,2,0,50,1,0
6343,-66.6666666666667,4,2,0,50,0,0
11153,300,4,2,0,50,1,0
20753,-133.333333333333,4,2,0,50,0,0
32903,-100,4,2,0,50,0,0
35153,-133.333333333333,4,2,0,50,0,0
63953,-100,4,2,0,50,0,1
73553,-133.333333333333,4,2,0,50,0,0
78353,-100,4,2,0,50,0,1
83153,-133.333333333333,4,2,0,50,0,0
90353,-100,4,2,0,50,0,0
92753,-133.333333333333,4,2,0,50,0,0
111953,-100,4,2,0,50,0,1
121553,-133.333333333333,4,2,0,50,0,0
126353,-100,4,2,0,50,0,1
131153,-100,4,2,0,50,0,0
166553,-133.333333333333,4,2,0,50,0,0
176753,-100,4,2,0,50,0,0

[Colours]
Combo1 : 255,153,0
Combo2 : 0,128,255
Combo3 : 128,255,0
Combo4 : 255,102,204

[HitObjects]
384,112,1553,6,0,B|256:112|256:112|240:240|96:208,1,315
128,128,2753,2,0,B|224:144|240:240|240:240|384:240,1,315
368,160,3953,2,0,B|272:144|256:48|256:48|144:48,1,270
80,48,5003,5,0,0:0:0:0:
176,144,5303,2,0,P|192:176|208:240,1,90
208,304,5753,1,0,0:0:0:0:
304,208,5903,1,0,0:0:0:0:
384,128,6053,1,0,0:0:0:0:
432,272,6203,1,0,0:0:0:0:
368,336,6353,6,0,L|272:336,1,67.5000025749208
240,240,6653,2,0,L|144:240,1,67.5000025749208
48,160,6953,2,0,L|144:160,1,67.5000025749208
176,64,7253,2,0,B|288:64|288:64,1,67.5000025749208
368,64,7553,5,0,0:0:0:0:
416,144,7703,1,0,0:0:0:0:
240,64,7853,1,0,0:0:0:0:
192,144,8003,1,0,0:0:0:0:
304,176,8153,2,0,B|272:240|272:272|272:272|240:272,2,90.0000034332277
160,48,8753,6,0,L|80:96,1,67.5000025749208
160,144,9053,2,0,L|80:192,1,67.5000025749208
160,240,9353,2,0,L|80:288,1,67.5000025749208
160,336,9653,1,0,0:0:0:0:
256,240,9803,1,0,0:0:0:0:
256,240,9953,5,0,0:0:0:0:
192,176,10103,1,0,0:0:0:0:
320,128,10253,1,0,0:0:0:0:
176,48,10403,1,0,0:0:0:0:
384,48,11153,6,0,L|384:144,1,90
384,304,11453,1,0,0:0:0:0:
256,160,11603,1,0,0:0:0:0:
256,64,11753,6,0,L|256:160,1,90
256,320,12053,1,0,0:0:0:0:
128,192,12203,1,0,0:0:0:0:
64,80,12353,6,0,P|112:64|176:80,1,90
272,160,12653,1,0,0:0:0:0:
128,144,12803,1,0,0:0:0:0:
320,64,12953,6,0,P|352:112|352:160,1,90
288,288,13253,1,0,0:0:0:0:
256,128,13403,1,0,0:0:0:0:
400,256,13553,6,0,L|352:336,1,90
176,240,13853,2,0,L|224:160,1,90
368,112,14153,2,0,L|321:189,1,90
145,109,14453,2,0,L|192:32,1,90
368,112,14753,6,0,P|336:160|288:176,1,90
176,176,15053,1,0,0:0:0:0:
256,112,15203,1,0,0:0:0:0:
192,288,15353,1,0,0:0:0:0:
80,240,15503,2,0,L|80:144,1,90
80,48,15803,1,0,0:0:0:0:
176,144,15953,6,0,P|208:176|336:160,1,180
288,80,16403,1,0,0:0:0:0:
176,144,16553,1,0,0:0:0:0:
176,272,16703,1,0,0:0:0:0:
288,304,16853,6,0,L|384:256,1,90
368,96,17153,1,0,0:0:0:0:
256,192,17303,1,0,0:0:0:0:
128,128,17453,2,0,L|224:176,1,90
320,224,17753,1,0,0:0:0:0:
192,256,17903,1,0,0:0:0:0:
48,96,18053,1,0,0:0:0:0:
176,64,18203,1,0,0:0:0:0:
288,48,18353,6,0,P|272:128|304:224,1,180
400,176,18803,1,0,0:0:0:0:
304,320,18953,1,0,0:0:0:0:
144,272,19103,2,0,P|176:224|240:208,1,90
64,112,19403,6,0,P|160:80|224:128,1,180
304,224,19853,1,0,0:0:0:0:
128,160,20003,1,0,0:0:0:0:
160,304,20153,5,0,0:0:0:0:
224,112,20303,1,0,0:0:0:0:
160,304,20453,1,0,0:0:0:0:
224,112,20603,1,0,0:0:0:0:
256,240,20753,6,0,P|224:192|240:96,1,135.000005149842
400,144,21203,1,0,0:0:0:0:
400,144,21278,1,0,0:0:0:0:
400,144,21353,2,0,P|400:208|352:272,1,135.000005149842
224,272,21803,1,0,0:0:0:0:
288,176,21953,1,0,0:0:0:0:
224,80,22103,2,0,L|144:192,1,135.000005149842
64,256,22553,6,0,P|64:192|64:112,1,135.000005149842
176,240,23153,5,0,0:0:0:0:
304,192,23303,1,0,0:0:0:0:
176,128,23453,1,0,0:0:0:0:
304,64,23603,1,0,0:0:0:0:
320,64,23678,1,0,0:0:0:0:
336,64,23753,2,0,P|384:80|400:160,1,135.000005149842
368,272,24203,2,0,P|320:256|304:176,1,135.000005149842
208,112,24653,1,0,0:0:0:0:
128,256,24803,5,0,0:0:0:0:
128,240,24878,1,0,0:0:0:0:
128,224,24953,2,0,P|128:176|128:80,1,135.000005149842
336,96,25553,5,0,0:0:0:0:
416,224,25703,1,0,0:0:0:0:
336,96,25853,1,0,0:0:0:0:
304,304,26003,1,0,0:0:0:0:
224,224,26153,2,0,P|176:208|128:288,1,135.000005149842
320,96,26603,1,0,0:0:0:0:
144,80,26753,2,0,L|160:160,1,67.5000025749208
160,320,27053,6,0,L|224:192,1,135.000005149842
272,80,27503,1,0,0:0:0:0:
336,256,27653,2,0,L|400:128,1,135.000005149842
272,80,28103,5,0,0:0:0:0:
160,160,28253,1,0,0:0:0:0:
272,80,28403,1,0,0:0:0:0:
192,240,28553,2,0,P|240:208|288:272,1,135.000005149842
176,64,29003,1,0,0:0:0:0:
48,256,29153,2,0,L|96:192,1,67.5000025749208
320,80,29453,5,0,0:0:0:0:
256,160,29603,1,0,0:0:0:0:
112,336,29753,2,0,L|160:272,1,67.5000025749208
320,80,30053,5,0,0:0:0:0:
256,160,30203,1,0,0:0:0:0:
432,176,30353,6,0,L|352:224,1,67.5000025749208
256,272,30653,1,0,0:0:0:0:
320,80,30803,1,0,0:0:0:0:
128,128,30953,2,0,P|144:176|64:192,1,135.000005149842
144,320,31403,2,0,P|160:272|240:288,1,135.000005149842
304,208,31853,6,0,L|256:144,1,67.5000025749208
208,80,32153,1,0,0:0:0:0:
336,80,32303,1,0,0:0:0:0:
400,176,32453,2,0,L|480:304,1,135.000005149842
416,304,32903,6,0,L|240:272,1,135
256,272,33203,1,0,0:0:0:0:
80,224,33353,2,0,L|256:192,1,135
240,192,33653,1,0,0:0:0:0:
432,160,33803,2,0,L|256:128,1,135
272,128,34103,1,0,0:0:0:0:
128,96,34253,1,0,0:0:0:0:
48,224,34403,1,0,0:0:0:0:
272,128,34553,1,0,0:0:0:0:
272,128,35153,6,0,P|288:208|256:256,1,135.000005149842
144,192,35603,1,0,0:0:0:0:
160,64,35753,1,0,0:0:0:0:
272,128,35903,1,0,0:0:0:0:
144,192,36053,2,0,L|64:240,1,67.5000025749208
176,288,36353,6,0,L|304:208,1,135.000005149842
384,128,36953,2,0,P|328:104|256:136,1,135.000005149842
192,272,37553,5,0,0:0:0:0:
192,176,37703,1,0,0:0:0:0:
96,224,37853,1,0,0:0:0:0:
192,72,38003,1,0,0:0:0:0:
296,216,38153,2,0,P|296:176|328:72,1,135.000005149842
384,240,38603,1,0,0:0:0:0:
224,256,38753,6,0,L|208:176,1,67.5000025749208
192,96,39053,1,0,0:0:0:0:
304,192,39203,1,0,0:0:0:0:
192,96,39353,1,0,0:0:0:0:
304,192,39503,1,0,0:0:0:0:
336,64,39653,1,0,0:0:0:0:
112,120,39803,1,0,0:0:0:0:
160,336,39953,6,0,P|192:272|192:192,1,135.000005149842
192,112,40403,1,0,0:0:0:0:
320,160,40553,1,0,0:0:0:0:
224,256,40703,1,0,0:0:0:0:
192,112,40853,2,0,L|176:32,1,67.5000025749208
288,64,41153,6,0,L|320:208,1,135.000005149842
336,304,41753,2,0,P|304:288|192:320,1,135.000005149842
96,304,42353,5,0,0:0:0:0:
240,208,42503,1,0,0:0:0:0:
80,208,42653,1,0,0:0:0:0:
209,303,42803,1,0,0:0:0:0:
160,144,42953,2,0,P|192:112|304:112,1,135.000005149842
384,144,43403,1,0,0:0:0:0:
320,256,43553,2,0,L|272:336,1,67.5000025749208
192,240,43853,5,0,0:0:0:0:
96,240,44003,1,0,0:0:0:0:
144,160,44153,1,0,0:0:0:0:
48,304,44303,1,0,0:0:0:0:
192,240,44453,1,0,0:0:0:0:
80,80,44603,1,0,0:0:0:0:
192,48,44753,6,0,P|224:96|304:128,1,135.000005149842
416,128,45203,1,0,0:0:0:0:
336,32,45353,1,0,0:0:0:0:
240,224,45503,1,0,0:0:0:0:
352,160,45653,2,0,L|432:112,1,67.5000025749208
384,256,45953,6,0,L|304:304,1,67.5000025749208
256,304,46253,2,0,B|176:304|176:304|128:256,1,135.000005149842
137,265,46853,1,0,0:0:0:0:
141,159,47003,1,0,0:0:0:0:
240,208,47153,5,0,0:0:0:0:
408,80,47303,1,0,0:0:0:0:
336,240,47453,1,0,0:0:0:0:
264,64,47603,1,0,0:0:0:0:
400,176,47753,2,0,P|432:224|400:304,1,135.000005149842
304,320,48203,1,0,0:0:0:0:
192,320,48353,6,0,L|112:320,1,67.5000025749208
64,224,48653,1,0,0:0:0:0:
224,192,48803,1,0,0:0:0:0:
80,112,48953,1,0,0:0:0:0:
192,64,49103,1,0,0:0:0:0:
144,208,49253,2,0,P|192:272|272:272,1,135.000005149842
352,240,49703,5,0,0:0:0:0:
352,80,49853,1,0,0:0:0:0:
256,160,50003,1,0,0:0:0:0:
160,240,50153,2,0,L|304:240,1,135.000005149842
416,240,50603,2,0,P|400:176|320:128,1,135.000005149842
176,144,51053,2,0,P|192:80|272:32,1,135.000005149842
416,96,51503,1,0,0:0:0:0:
288,192,51653,1,0,0:0:0:0:
128,160,51803,1,0,0:0:0:0:
16,272,51953,6,0,L|64:224,1,67.5000025749208
208,80,52253,1,0,0:0:0:0:
224,240,52403,1,0,0:0:0:0:
96,128,52553,2,0,L|240:160,1,135.000005149842
352,160,53003,1,0,0:0:0:0:
416,320,53153,6,0,L|384:240,1,67.5000025749208
320,64,53453,1,0,0:0:0:0:
192,224,53603,1,0,0:0:0:0:
400,176,53753,1,0,0:0:0:0:
320,64,53903,1,0,0:0:0:0:
176,64,54053,1,0,0:0:0:0:
288,256,54203,1,0,0:0:0:0:
256,64,54353,5,0,0:0:0:0:
256,320,54653,1,0,0:0:0:0:
320,81,54953,5,0,0:0:0:0:
192,302,55253,1,0,0:0:0:0:
281,215,55403,1,0,0:0:0:0:
366,127,55553,5,0,0:0:0:0:
145,255,55853,1,0,0:0:0:0:
384,191,56153,5,0,0:0:0:0:
128,191,56453,1,0,0:0:0:0:
249,227,56603,1,0,0:0:0:0:
367,256,56753,5,0,0:0:0:0:
146,128,57053,1,0,0:0:0:0:
320,302,57353,5,0,0:0:0:0:
192,81,57653,1,0,0:0:0:0:
222,200,57803,1,0,0:0:0:0:
256,320,57953,5,0,0:0:0:0:
160,144,58103,1,0,0:0:0:0:
352,144,58253,1,0,0:0:0:0:
144,256,58403,1,0,0:0:0:0:
256,80,58553,1,0,0:0:0:0:
352,256,58703,1,0,0:0:0:0:
160,144,58853,1,0,0:0:0:0:
256,304,59003,1,0,0:0:0:0:
256,160,59153,6,0,L|256:64,1,67.5000025749208
256,48,59453,5,0,0:0:0:0:
80,192,59753,1,0,0:0:0:0:
128,48,60053,5,0,0:0:0:0:
160,144,60203,1,0,0:0:0:0:
192,240,60353,1,0,0:0:0:0:
288,352,60653,5,0,0:0:0:0:
288,80,60953,1,0,0:0:0:0:
400,240,61253,5,0,0:0:0:0:
144,96,61553,1,0,0:0:0:0:
80,144,61703,2,0,L|128:288,1,135.000005149842
170,288,62153,2,0,L|128:160,1,135.000005149842
176,192,62603,2,0,L|224:336,1,135.000005149842
384,192,63053,1,0,0:0:0:0:
256,64,63203,1,0,0:0:0:0:
256,64,63953,6,0,L|160:64,1,90
48,224,64253,1,0,0:0:0:0:
256,160,64403,1,0,0:0:0:0:
352,160,64553,6,0,L|240:160,1,90
128,336,64853,1,0,0:0:0:0:
336,272,65003,1,0,0:0:0:0:
160,112,65153,6,0,L|96:176,1,90
336,272,65453,2,0,L|400:208,1,90
224,208,65753,2,0,L|160:272,1,90
368,128,66053,2,0,L|432:64,1,90
208,64,66353,5,0,0:0:0:0:
128,144,66503,1,0,0:0:0:0:
240,240,66653,1,0,0:0:0:0:
208,64,66803,1,0,0:0:0:0:
96,224,66953,2,0,P|81:265|101:304,1,90
320,160,67253,1,0,0:0:0:0:
240,240,67403,6,0,P|272:288|384:256,1,180
288,96,67853,1,0,0:0:0:0:
240,240,68003,1,0,0:0:0:0:
208,48,68153,1,0,0:0:0:0:
128,192,68303,1,0,0:0:0:0:
336,160,68453,1,0,0:0:0:0:
128,96,68603,1,0,0:0:0:0:
336,160,68753,6,0,P|288:112|192:144,1,180
224,272,69203,1,0,0:0:0:0:
352,272,69353,2,0,L|448:208,1,90
288,64,69653,1,0,0:0:0:0:
464,112,69803,1,0,0:0:0:0:
128,144,69953,2,0,L|224:80,1,90
224,240,70253,1,0,0:0:0:0:
144,288,70403,1,0,0:0:0:0:
144,48,70553,6,0,P|256:32|304:64,2,120
112,240,71153,2,0,L|192:160,1,90
336,144,71453,2,0,L|256:240,1,90
240,304,71753,1,0,0:0:0:0:
384,256,71903,1,0,0:0:0:0:
272,96,72053,1,0,0:0:0:0:
240,304,72203,6,0,P|192:256|208:144,1,180
336,208,72653,1,0,0:0:0:0:
144,48,72803,1,0,0:0:0:0:
144,48,72953,6,0,P|112:112|128:160,1,90
176,336,73253,2,0,P|208:288|208:240,1,90
432,96,73553,6,0,P|320:80|208:112,1,202.500007724762
80,224,74153,2,0,P|144:240|224:208,1,135.000005149842
240,96,74603,1,0,0:0:0:0:
240,96,74903,1,0,0:0:0:0:
240,96,75203,1,0,0:0:0:0:
352,176,75353,5,0,0:0:0:0:
304,272,75503,1,0,0:0:0:0:
128,288,75653,5,0,0:0:0:0:
176,192,75803,1,0,0:0:0:0:
288,64,75953,6,0,P|368:96|416:208,1,202.500007724762
416,224,76478,1,0,0:0:0:0:
417,253,76553,1,0,0:0:0:0:
288,352,76703,1,0,0:0:0:0:
288,224,76853,6,0,L|288:144,1,67.5000025749208
240,32,77153,1,0,0:0:0:0:
128,224,77303,1,0,0:0:0:0:
304,128,77453,1,0,0:0:0:0:
192,32,77603,1,0,0:0:0:0:
320,240,77753,1,0,0:0:0:0:
416,96,77903,1,0,0:0:0:0:
224,112,78053,2,0,L|208:144,3,33.7500012874604
192,176,78353,6,0,P|192:224|208:288,1,90
448,224,78653,1,0,0:0:0:0:
320,192,78803,1,0,0:0:0:0:
240,320,78953,6,0,P|304:336|336:320,1,90
408,104,79253,1,0,0:0:0:0:
320,192,79403,1,0,0:0:0:0:
304,48,79553,6,0,P|240:32|208:48,1,90
152,256,79853,1,0,0:0:0:0:
240,184,80003,1,0,0:0:0:0:
64,216,80153,2,0,P|63:275|94:325,2,120
224,160,80753,5,0,0:0:0:0:
144,80,80903,1,0,0:0:0:0:
160,256,81053,1,0,0:0:0:0:
288,256,81203,1,0,0:0:0:0:
64,320,81353,1,0,0:0:0:0:
96,176,81503,5,0,0:0:0:0:
256,96,81653,1,0,0:0:0:0:
416,176,81803,1,0,0:0:0:0:
256,272,81953,1,0,0:0:0:0:
256,272,82553,5,0,0:0:0:0:
256,96,82703,1,0,0:0:0:0:
256,272,82853,1,0,0:0:0:0:
256,96,83003,1,0,0:0:0:0:
256,272,83153,6,0,P|192:304|128:256,1,135.000005149842
192,160,83603,1,0,0:0:0:0:
304,96,83753,2,0,P|336:160|288:224,1,135.000005149842
128,80,84203,1,0,0:0:0:0:
215,142,84353,1,0,0:0:0:0:
304,208,84503,1,0,0:0:0:0:
256,304,84653,6,0,L|128:208,1,135.000005149842
48,144,85103,1,0,0:0:0:0:
144,64,85253,2,0,L|252:145,1,135.000005149842
384,80,85703,5,0,0:0:0:0:
352,272,85853,1,0,0:0:0:0:
256,144,86003,1,0,0:0:0:0:
240,144,86078,1,0,0:0:0:0:
224,144,86153,2,0,B|144:144|144:144|96:192,1,135.000005149842
96,320,86603,6,0,L|160:256,1,67.5000025749208
288,144,86903,1,0,0:0:0:0:
176,80,87053,1,0,0:0:0:0:
64,144,87203,1,0,0:0:0:0:
144,272,87353,6,0,L|208:208,1,67.5000025749208
336,96,87653,1,0,0:0:0:0:
224,32,87803,1,0,0:0:0:0:
224,160,87953,6,0,P|288:144|336:64,1,135.000005149842
144,80,88403,1,0,0:0:0:0:
112,192,88553,1,0,0:0:0:0:
256,64,88703,1,0,0:0:0:0:
384,192,88853,1,0,0:0:0:0:
320,320,89003,2,0,P|288:288|272:192,1,135.000005149842
112,128,89453,6,0,L|240:80,1,135.000005149842
352,112,89903,1,0,0:0:0:0:
272,208,90053,1,0,0:0:0:0:
352,112,90203,1,0,0:0:0:0:
432,192,90353,1,0,0:0:0:0:
432,192,90503,6,0,L|320:304,1,135
304,320,90803,1,0,0:0:0:0:
128,256,90953,2,0,L|223:160,1,135
256,128,91253,1,0,0:0:0:0:
384,112,91403,2,0,L|272:224,1,135
256,240,91703,1,0,0:0:0:0:
80,192,91853,5,0,0:0:0:0:
256,48,92003,1,0,0:0:0:0:
432,192,92153,1,0,0:0:0:0:
432,192,92753,6,0,L|288:192,1,135.000005149842
160,160,93203,1,0,0:0:0:0:
272,80,93353,1,0,0:0:0:0:
240,240,93503,1,0,0:0:0:0:
144,80,93653,2,0,L|240:80,1,67.5000025749208
368,144,93953,6,0,L|224:144,1,135.000005149842
128,208,94403,1,0,0:0:0:0:
208,320,94553,2,0,P|192:224|192:224,1,67.5000025749208
144,32,94853,2,0,L|160:112,1,67.5000025749208
288,208,95153,6,0,P|304:176|416:160,1,135.000005149842
368,256,95603,2,0,P|352:288|240:304,1,135.000005149842
176,256,96053,1,0,0:0:0:0:
240,144,96203,1,0,0:0:0:0:
112,96,96353,6,0,L|144:176,1,67.5000025749208
176,256,96653,1,0,0:0:0:0:
336,176,96803,1,0,0:0:0:0:
192,112,96953,1,0,0:0:0:0:
288,288,97103,1,0,0:0:0:0:
384,80,97253,1,0,0:0:0:0:
192,112,97403,1,0,0:0:0:0:
320,224,97553,6,0,P|336:176|304:80,1,135.000005149842
128,176,98003,1,0,0:0:0:0:
272,160,98153,1,0,0:0:0:0:
192,48,98303,1,0,0:0:0:0:
128,176,98453,2,0,L|80:256,1,67.5000025749208
80,256,98678,1,0,0:0:0:0:
64,288,98753,1,0,0:0:0:0:
208,304,98903,6,0,L|208:160,1,135.000005149842
272,80,99353,1,0,0:0:0:0:
368,176,99503,1,0,0:0:0:0:
448,80,99653,1,0,0:0:0:0:
288,272,99803,1,0,0:0:0:0:
160,48,99953,6,0,P|144:144|160:176,1,135.000005149842
240,256,100403,1,0,0:0:0:0:
224,128,100553,1,0,0:0:0:0:
96,224,100703,1,0,0:0:0:0:
240,256,100853,2,0,L|320:272,1,67.5000025749208
416,288,101153,5,0,0:0:0:0:
368,144,101303,1,0,0:0:0:0:
160,288,101453,1,0,0:0:0:0:
320,240,101603,1,0,0:0:0:0:
176,80,101753,1,0,0:0:0:0:
224,208,101903,1,0,0:0:0:0:
368,80,102053,1,0,0:0:0:0:
368,80,102353,6,0,L|368:224,1,135.000005149842
208,320,102953,5,0,0:0:0:0:
304,176,103253,1,0,0:0:0:0:
144,96,103553,5,0,0:0:0:0:
144,96,103703,1,0,0:0:0:0:
304,288,103853,1,0,0:0:0:0:
144,288,104153,5,0,0:0:0:0:
144,32,104453,1,0,0:0:0:0:
368,96,104753,5,0,0:0:0:0:
368,96,104903,1,0,0:0:0:0:
208,256,105053,1,0,0:0:0:0:
224,96,105353,5,0,0:0:0:0:
336,304,105653,1,0,0:0:0:0:
384,128,105953,5,0,0:0:0:0:
112,96,106103,2,0,P|128:128|160:144,1,67.5000025749208
336,48,106403,1,0,0:0:0:0:
192,224,106553,1,0,0:0:0:0:
256,16,106703,1,0,0:0:0:0:
256,256,106853,1,0,0:0:0:0:
176,48,107003,1,0,0:0:0:0:
352,224,107153,5,0,0:0:0:0:
352,224,107303,1,0,0:0:0:0:
80,224,107453,1,0,0:0:0:0:
176,128,107753,5,0,0:0:0:0:
432,128,108053,1,0,0:0:0:0:
336,48,108353,5,0,0:0:0:0:
336,48,108503,1,0,0:0:0:0:
128,240,108653,1,0,0:0:0:0:
320,272,108953,5,0,0:0:0:0:
496,80,109253,1,0,0:0:0:0:
96,144,109553,5,0,0:0:0:0:
240,80,109703,2,0,P|256:160|240:224,1,135.000005149842
240,288,110153,2,0,P|320:256|352:208,1,135.000005149842
368,128,110603,1,0,0:0:0:0:
368,128,110903,5,0,0:0:0:0:
128,80,111053,1,0,0:0:0:0:
224,288,111203,1,0,0:0:0:0:
224,288,111953,6,0,L|112:240,1,90
368,80,112253,1,0,0:0:0:0:
256,160,112403,1,0,0:0:0:0:
112,112,112553,6,0,L|208:48,1,90
352,256,112853,1,0,0:0:0:0:
256,160,113003,1,0,0:0:0:0:
304,16,113153,6,0,L|384:96,1,90
144,256,113453,1,0,0:0:0:0:
256,160,113603,1,0,0:0:0:0:
448,208,113753,6,0,L|368:288,1,90
160,48,114053,1,0,0:0:0:0:
256,160,114203,1,0,0:0:0:0:
240,304,114353,6,0,P|176:288|160:240,1,90
160,144,114653,1,0,0:0:0:0:
320,64,114803,1,0,0:0:0:0:
432,176,114953,6,0,P|384:240|352:240,1,90
160,144,115253,1,0,0:0:0:0:
240,64,115403,6,0,P|192:32|80:64,1,180
160,256,115853,1,0,0:0:0:0:
160,144,116003,1,0,0:0:0:0:
48,256,116153,1,0,0:0:0:0:
272,256,116303,1,0,0:0:0:0:
384,80,116453,1,0,0:0:0:0:
384,200,116603,1,0,0:0:0:0:
256,80,116753,6,0,P|208:96|192:160,1,90
304,320,117053,2,0,P|352:304|368:240,1,90
368,64,117353,1,0,0:0:0:0:
272,192,117503,1,0,0:0:0:0:
448,192,117653,1,0,0:0:0:0:
368,64,117803,1,0,0:0:0:0:
192,192,117953,6,0,L|96:192,1,90
64,64,118253,2,0,L|176:64,1,90
272,112,118553,2,0,P|304:176|272:240,2,120
128,176,119153,6,0,P|128:240|160:288,1,90
384,208,119453,2,0,P|384:144|352:96,1,90
256,208,119753,1,0,0:0:0:0:
256,320,119903,1,0,0:0:0:0:
256,112,120053,1,0,0:0:0:0:
256,16,120203,6,0,P|176:32|96:112,1,180
160,208,120653,1,0,0:0:0:0:
352,208,120803,1,0,0:0:0:0:
256,96,120953,1,0,0:0:0:0:
256,336,121103,1,0,0:0:0:0:
256,96,121253,1,0,0:0:0:0:
256,336,121403,1,0,0:0:0:0:
256,208,121553,6,0,B|160:208|128:176|128:176|128:80,1,202.500007724762
272,96,122153,2,0,P|336:112|384:160,1,135.000005149842
208,288,122603,1,0,0:0:0:0:
208,288,122903,1,0,0:0:0:0:
208,288,123203,1,0,0:0:0:0:
112,96,123353,5,0,0:0:0:0:
160,192,123503,1,0,0:0:0:0:
352,192,123653,1,0,0:0:0:0:
304,96,123803,1,0,0:0:0:0:
240,160,123953,6,0,L|304:304,1,135.000005149842
416,304,124403,1,0,0:0:0:0:
416,176,124553,2,0,P|400:128|320:80,1,135.000005149842
176,96,125003,2,0,P|208:160|272:176,1,135.000005149842
336,80,125453,1,0,0:0:0:0:
208,256,125603,1,0,0:0:0:0:
416,256,125753,1,0,0:0:0:0:
224,128,125903,1,0,0:0:0:0:
416,256,126053,5,0,0:0:0:0:
384,256,126128,1,0,0:0:0:0:
352,256,126203,1,0,0:0:0:0:
320,256,126278,1,0,0:0:0:0:
288,256,126353,6,0,P|240:256|160:240,1,90
256,48,126653,1,0,0:0:0:0:
192,256,126803,1,0,0:0:0:0:
80,96,126953,2,0,P|128:80|176:80,1,90
240,320,127253,1,0,0:0:0:0:
168,192,127403,1,0,0:0:0:0:
352,96,127553,6,0,L|256:128,1,90
144,288,127853,2,0,L|256:256,1,90
368,96,128153,2,0,P|432:176|432:240,2,120
208,128,128753,6,0,P|240:176|304:192,1,90
480,128,129053,2,0,P|464:80|416:48,1,90
384,272,129353,1,0,0:0:0:0:
320,128,129503,1,0,0:0:0:0:
144,240,129653,1,0,0:0:0:0:
384,272,129803,1,0,0:0:0:0:
320,128,129953,1,0,0:0:0:0:
304,128,130553,5,0,0:0:0:0:
112,128,130703,1,0,0:0:0:0:
368,128,130853,1,0,0:0:0:0:
160,128,131003,1,0,0:0:0:0:
256,256,131153,1,0,0:0:0:0:
208,32,131453,6,0,L|208:160,1,90
304,80,131753,6,0,L|304:208,1,90
128,128,132053,6,0,L|128:256,1,90
400,160,132353,6,0,L|400:288,1,90
256,208,132653,6,0,L|256:336,1,90
480,240,132953,6,0,L|480:368,1,90
368,240,133253,1,0,0:0:0:0:
496,144,133403,1,0,0:0:0:0:
432,64,133553,6,0,L|320:64,1,90
192,64,133853,1,0,0:0:0:0:
160,192,134003,2,0,P|240:224|288:128,1,180
112,272,134453,1,0,0:0:0:0:
224,128,134603,1,0,0:0:0:0:
416,192,134753,2,0,L|240:288,2,180
368,112,135503,5,0,0:0:0:0:
224,32,135653,1,0,0:0:0:0:
80,128,135803,1,0,0:0:0:0:
64,288,135953,2,0,L|144:224,1,90
224,160,136253,1,0,0:0:0:0:
304,80,136403,2,0,P|352:112|304:224,1,180
208,304,136853,1,0,0:0:0:0:
208,160,137003,2,0,P|160:128|208:16,1,180
320,96,137453,5,0,0:0:0:0:
416,176,137603,1,0,0:0:0:0:
112,272,137753,2,0,L|192:208,1,90
320,96,138053,1,0,0:0:0:0:
416,176,138203,1,0,0:0:0:0:
336,288,138353,6,0,L|272:224,1,90
176,128,138653,1,0,0:0:0:0:
112,240,138803,2,0,P|160:272|272:224,1,180
352,112,139253,1,0,0:0:0:0:
416,272,139403,1,0,0:0:0:0:
160,80,139553,6,0,L|240:144,1,90
368,240,139853,1,0,0:0:0:0:
224,272,140003,1,0,0:0:0:0:
256,80,140153,6,0,L|336:144,1,90
464,240,140453,1,0,0:0:0:0:
320,272,140603,1,0,0:0:0:0:
416,176,140753,6,0,P|464:112|448:80,1,90
320,112,141053,1,0,0:0:0:0:
208,176,141203,2,0,P|240:256|336:272,1,180
448,240,141653,1,0,0:0:0:0:
160,272,141803,2,0,P|112:224|144:128,1,180
336,192,142253,1,0,0:0:0:0:
208,192,142403,1,0,0:0:0:0:
48,128,142553,6,0,L|160:128,1,90
336,192,142853,1,0,0:0:0:0:
208,192,143003,1,0,0:0:0:0:
368,304,143153,6,0,P|416:288|432:224,1,90
352,96,143453,1,0,0:0:0:0:
192,32,143603,2,0,L|192:224,1,180
208,336,144053,1,0,0:0:0:0:
352,288,144203,2,0,P|336:240|192:208,1,180
96,272,144653,1,0,0:0:0:0:
256,304,144803,1,0,0:0:0:0:
224,120,144953,1,0,0:0:0:0:
160,320,145103,1,0,0:0:0:0:
312,192,145253,1,0,0:0:0:0:
112,128,145403,1,0,0:0:0:0:
192,216,145553,5,0,0:0:0:0:
192,80,166553,5,0,0:0:0:0:
384,80,166853,1,0,0:0:0:0:
384,272,167153,2,0,L|224:272,1,135.000005149842
112,192,167753,2,0,L|256:192,1,135.000005149842
376,120,168353,2,0,P|400:184|368:264,1,135.000005149842
208,176,168953,2,0,P|184:112|216:32,1,135.000005149842
296,112,169553,2,0,L|296:272,1,135.000005149842
144,352,170153,2,0,L|144:208,1,135.000005149842
88,96,170753,2,0,P|152:72|224:104,1,135.000005149842
392,256,171353,2,0,P|328:280|256:248,1,135.000005149842
80,208,171953,5,0,0:0:0:0:
176,112,172103,1,0,0:0:0:0:
304,112,172253,1,0,0:0:0:0:
384,208,172403,1,0,0:0:0:0:
304,320,172553,1,0,0:0:0:0:
176,320,172703,1,0,0:0:0:0:
80,208,172853,1,0,0:0:0:0:
160,112,173003,1,0,0:0:0:0:
288,96,173153,5,0,0:0:0:0:
320,105,173228,1,0,0:0:0:0:
348,124,173303,1,0,0:0:0:0:
369,150,173378,1,0,0:0:0:0:
381,181,173453,1,0,0:0:0:0:
384,208,173528,1,0,0:0:0:0:
384,240,173603,2,0,L|384:288,1,33.7500012874604
288,336,173753,2,0,L|288:302,1,33.7500012874604
240,160,173903,2,0,L|240:193,1,33.7500012874604
160,304,174053,2,0,L|160:270,1,33.7500012874604
80,128,174203,2,0,L|80:161,1,33.7500012874604
80,48,174353,5,0,0:0:0:0:
352,48,174503,1,0,0:0:0:0:
224,176,174653,1,0,0:0:0:0:
352,304,174803,1,0,0:0:0:0:
96,304,174953,1,0,0:0:0:0:
352,304,175103,1,0,0:0:0:0:
352,80,175253,5,0,0:0:0:0:
96,304,175403,1,0,0:0:0:0:
96,304,175703,5,0,0:0:0:0:
96,304,175853,1,0,0:0:0:0:
96,304,176003,1,0,0:0:0:0:
240,80,176153,6,0,P|240:112|288:160,1,101.250003862381
368,176,176453,6,0,L|272:256,1,101.250003862381
240,272,176753,6,0,L|192:160,1,90
320,48,177053,1,0,0:0:0:0:
368,304,177203,1,0,0:0:0:0:
144,112,177353,6,0,L|256:64,1,90
368,192,177653,1,0,0:0:0:0:
112,240,177803,1,0,0:0:0:0:
288,48,177953,6,0,L|336:160,1,90
208,272,178253,1,0,0:0:0:0:
160,16,178403,1,0,0:0:0:0:
384,208,178553,6,0,L|272:256,1,90
160,128,178853,1,0,0:0:0:0:
416,80,179003,1,0,0:0:0:0:
