osu file format v14

[General]
AudioFilename: 12.mp3
AudioLeadIn: 0
PreviewTime: 55196
Countdown: 0
SampleSet: Soft
StackLeniency: 0.7
Mode: 0
LetterboxInBreaks: 0
WidescreenStoryboard: 0

[Editor]
Bookmarks: 723,5775,15880,25986,36091,46196,56301,76512,86617,96723
DistanceSpacing: 1.4
BeatDivisor: 4
GridSize: 16
TimelineZoom: 2.7

[Metadata]
Title:Slow Morning (Cut Ver.)
TitleUnicode:スローモーニング (Cut Ver.)
Artist:Silent Siren
ArtistUnicode:Silent Siren
Creator:Wanpachi
Version:Sunrise
Source:
Tags:jpop j-pop japanese pop S short version cayssa cycopton frozz Suu すぅ Hinanchu ひなんちゅ Ainyan あいにゃん Yukarun ゆかるん Sumire Yoshida Hinako Umemura Aina Yamauchi Yukako Kurosaka 吉田 菫 梅村 妃奈子 山内 あいな 黒坂 優香子 female vocals vocalist
BeatmapID:2655883
BeatmapSetID:1243248

[Difficulty]
HPDrainRate:5.5
CircleSize:3.8
OverallDifficulty:8
ApproachRate:9
SliderMultiplier:1.6
SliderTickRate:1

[Events]
//Background and Video events
0,0,"falling falling.jpg",0,0
//Break Periods
//Storyboard Layer 0 (Background)
//Storyboard Layer 1 (Fail)
//Storyboard Layer 2 (Pass)
//Storyboard Layer 3 (Foreground)
//Storyboard Layer 4 (Overlay)
//Storyboard Sound Samples

[TimingPoints]
723,315.789473684211,4,2,1,30,1,0
5144,-100,4,2,1,60,0,0
5617,-100,4,2,1,70,0,0
25196,-111.111111111111,4,2,1,70,0,0
25986,-111.111111111111,4,2,1,60,0,0
36091,-105.263157894737,4,2,1,65,0,0
46196,-117.647058823529,4,2,1,50,0,0
55038,-166.666666666667,4,2,1,40,0,0
56301,-90.9090909090909,4,2,1,80,0,1
76354,-100,4,2,1,70,0,0
96723,-100,4,2,1,60,0,0
97986,-100,4,2,1,50,0,0
99249,-100,4,2,1,30,0,0
100512,-100,4,2,1,20,0,0
101775,-100,4,2,1,10,0,0

[Colours]
Combo1 : 249,174,125
Combo2 : 165,166,211
Combo3 : 235,192,63
Combo4 : 126,188,211

[HitObjects]
107,75,5144,5,8,0:0:0:0:
306,26,5301,1,8,0:0:0:0:
170,293,5617,6,0,L|178:133,1,160,6|2,1:2|1:2,0:0:0:0:
323,40,6091,2,0,P|327:79|318:118,1,80,10|2,0:0|0:0,0:0:0:0:
210,214,6407,1,2,1:2:0:0:
362,207,6565,1,2,1:2:0:0:
239,77,6723,1,10,0:0:0:0:
469,3,6880,6,0,P|459:84|449:165,1,160,4|2,1:2|1:2,0:0:0:0:
337,312,7354,2,0,P|299:325|262:314,1,80,10|2,0:0|0:0,0:0:0:0:
271,103,7670,1,2,1:2:0:0:
299,247,7828,1,2,1:2:0:0:
383,76,7986,1,10,0:0:0:0:
197,194,8144,6,0,B|157:210|117:194|117:194|77:179|37:194,1,160,4|2,1:2|1:2,0:0:0:0:
271,103,8617,2,0,L|353:85,1,80,10|2,0:0|0:0,0:0:0:0:
74,277,8933,1,2,1:2:0:0:
154,93,9091,1,2,1:2:0:0:
182,288,9249,1,10,0:0:0:0:
30,127,9407,6,0,P|19:92|33:47,1,80,6|0,1:2|0:0,0:0:0:0:
245,9,9723,2,0,P|255:43|241:88,1,80,2|8,1:2|0:0,0:0:0:0:
152,219,10038,1,2,0:0:0:0:
279,202,10196,1,10,0:0:0:0:
299,199,10275,1,8,3:0:0:0:
319,197,10354,1,10,3:0:0:0:
339,194,10433,1,4,3:0:0:0:
359,192,10511,1,6,3:0:0:0:
248,348,10670,6,0,L|78:326,1,160,6|2,1:2|1:2,0:0:0:0:
129,156,11144,2,0,P|147:196|129:242,1,80,10|2,0:0|0:0,0:0:0:0:
31,99,11459,1,2,1:2:0:0:
198,110,11617,1,2,1:2:0:0:
64,203,11775,1,10,0:0:0:0:
123,40,11933,6,0,P|201:54|281:62,1,160,6|2,1:2|1:2,0:0:0:0:
255,252,12407,2,0,L|245:170,1,80,10|2,0:0|0:0,0:0:0:0:
431,113,12723,1,2,1:2:0:0:
351,251,12880,1,2,1:2:0:0:
319,80,13038,1,10,0:0:0:0:
440,218,13196,6,0,P|469:308|418:350,1,160,6|2,1:2|1:2,0:0:0:0:
256,310,13670,2,0,L|359:301,1,80,10|2,0:0|0:0,0:0:0:0:
179,364,13986,1,2,1:2:0:0:
286,220,14144,1,2,1:2:0:0:
303,383,14301,1,10,0:0:0:0:
160,238,14459,6,0,L|144:149,1,80,6|0,1:2|0:0,0:0:0:0:
292,19,14775,2,0,L|277:97,1,80,2|8,1:2|0:0,0:0:0:0:
148,22,15091,1,2,0:0:0:0:
242,186,15249,1,10,0:0:0:0:
261,190,15327,1,8,3:0:0:0:
281,191,15406,1,10,3:0:0:0:
301,189,15485,1,4,3:0:0:0:
319,182,15564,1,6,3:0:0:0:
450,312,15723,6,0,L|273:297,1,160,6|2,1:2|1:2,0:0:0:0:
160,238,16196,2,0,P|175:274|169:313,1,80,10|2,0:0|0:0,0:0:0:0:
19,348,16512,1,2,1:2:0:0:
66,197,16670,1,2,1:2:0:0:
104,373,16828,1,10,0:0:0:0:
42,172,16986,6,0,P|137:154|213:136,1,160,4|2,1:2|1:2,0:0:0:0:
107,6,17459,2,0,P|89:46|106:100,1,80,10|2,0:0|0:0,0:0:0:0:
228,171,17775,1,2,1:2:0:0:
170,54,17933,1,2,1:2:0:0:
137,230,18091,1,10,0:0:0:0:
258,81,18249,6,0,B|298:65|338:81|338:81|378:96|418:81,1,160,4|2,1:2|1:2,0:0:0:0:
299,226,18723,2,0,P|287:182|306:145,1,80,10|2,0:0|0:0,0:0:0:0:
452,259,19038,1,2,1:2:0:0:
322,247,19196,1,2,1:2:0:0:
474,154,19354,1,10,0:0:0:0:
299,151,19512,6,0,P|259:158|220:164,1,80,6|0,1:2|0:0,0:0:0:0:
158,356,19828,2,0,P|197:348|236:342,1,80,2|8,1:2|0:0,0:0:0:0:
111,237,20144,1,2,0:0:0:0:
312,178,20301,1,10,0:0:0:0:
307,197,20379,1,8,3:0:0:0:
304,217,20458,1,10,3:0:0:0:
301,236,20537,1,4,3:0:0:0:
298,256,20616,1,6,3:0:0:0:
150,171,20775,6,0,P|124:92|176:39,1,160,6|0,1:2|1:2,0:0:0:0:
320,74,21249,2,0,P|312:113|306:152,1,80,10|0,0:0|0:0,0:0:0:0:
400,242,21565,1,2,1:2:0:0:
493,123,21723,2,0,L|401:136,1,80,2|8,1:2|0:0,0:0:0:0:
288,280,22038,6,0,L|453:303,1,160,6|2,1:2|1:2,0:0:0:0:
286,136,22512,1,8,0:0:0:0:
210,249,22670,2,0,P|199:286|213:323,2,80,2|0|0,0:0|1:2|1:2,0:0:0:0:
348,95,23144,1,8,0:0:0:0:
157,0,23301,6,0,P|68:17|-10:30,1,160,6|2,1:2|1:2,0:0:0:0:
101,172,23775,2,0,P|140:179|179:186,1,80,10|0,0:0|0:0,0:0:0:0:
275,40,24091,2,0,P|260:80|272:122,1,80,2|0,1:2|1:2,0:0:0:0:
388,193,24407,1,8,0:0:0:0:
268,316,24565,6,0,L|279:236,1,80,6|0,1:2|0:0,0:0:0:0:
450,296,24880,2,0,L|461:375,1,80,2|0,1:2|0:0,0:0:0:0:
252,328,25196,2,0,L|274:169,1,143.999995605469,2|0,1:2|0:0,0:0:0:0:
366,149,25670,2,0,P|372:184|365:219,1,71.9999978027344,2|2,0:0|0:0,0:0:0:0:
308,89,25986,6,0,B|272:74|237:89|237:89|202:102|167:89,1,143.999995605469,6|10,1:2|0:0,0:0:0:0:
50,54,26459,2,0,L|64:139,1,71.9999978027344,2|0,0:0|0:0,0:0:0:0:
127,262,26775,2,0,L|139:191,1,71.9999978027344,2|0,1:2|0:0,0:0:0:0:
43,376,27091,2,0,P|112:334|185:375,1,143.999995605469,10|0,0:0|1:2,0:0:0:0:
265,304,27565,1,8,0:0:0:0:
442,367,28038,1,0,1:2:0:0:
360,298,28196,2,0,L|333:384,1,71.9999978027344,10|0,0:0|0:0,0:0:0:0:
447,199,28512,6,0,P|372:210|295:222,1,143.999995605469,2|10,1:2|0:0,0:0:0:0:
240,67,28986,2,0,P|252:102|238:136,1,71.9999978027344,2|0,0:0|0:0,0:0:0:0:
156,253,29301,2,0,P|143:217|157:183,1,71.9999978027344,2|0,1:2|0:0,0:0:0:0:
219,350,29617,2,0,P|147:338|76:328,1,143.999995605469,10|2,0:0|1:2,0:0:0:0:
8,236,30091,1,10,0:0:0:0:
52,52,30565,1,0,1:2:0:0:
0,133,30723,2,0,P|31:146|74:145,1,71.9999978027344,10|0,0:0|0:0,0:0:0:0:
150,37,31038,6,0,B|135:73|150:108|150:108|163:143|150:178,1,143.999995605469,6|10,1:2|0:0,0:0:0:0:
381,88,31512,2,0,L|229:72,1,143.999995605469,2|0,0:0|1:2,0:0:0:0:
165,188,31986,2,0,L|256:178,1,71.9999978027344,2|10,0:0|0:0,0:0:0:0:
305,322,32301,2,0,P|308:281|312:250,1,71.9999978027344,2|0,0:0|1:2,0:0:0:0:
451,369,32617,2,0,P|447:328|443:297,1,71.9999978027344,10|0,0:0|0:0,0:0:0:0:
278,353,32933,2,0,P|285:271|293:209,1,143.999995605469,2|10,0:0|0:0,0:0:0:0:
212,35,33565,6,0,P|137:66|63:92,1,143.999995605469,2|10,1:2|0:0,0:0:0:0:
162,209,34038,2,0,L|174:119,1,71.9999978027344,2|0,0:0|0:0,0:0:0:0:
69,194,34354,2,0,L|78:265,1,71.9999978027344,2|0,1:2|0:0,0:0:0:0:
186,348,34670,2,0,B|150:333|115:348|115:348|80:361|45:348,1,143.999995605469,10|0,0:0|1:2,0:0:0:0:
132,154,35144,2,0,P|133:224|77:265,1,143.999995605469,8|0,0:0|0:0,0:0:0:0:
0,170,35617,1,0,1:2:0:0:
82,28,35775,2,0,P|134:37|173:40,1,71.9999978027344,10|0,0:0|0:0,0:0:0:0:
341,182,36091,6,0,P|265:188|190:201,1,151.999995941162,6|10,1:2|0:0,0:0:0:0:
231,342,36565,2,0,P|241:299|227:257,1,75.9999979705811,2|0,0:0|0:0,0:0:0:0:
115,168,36880,2,0,P|107:205|118:242,1,75.9999979705811,2|0,1:2|0:0,0:0:0:0:
327,86,37196,2,0,P|252:98|176:104,1,151.999995941162,10|0,0:0|1:2,0:0:0:0:
229,6,37670,1,8,0:0:0:0:
341,182,38144,1,0,1:2:0:0:
317,76,38301,2,0,P|282:89|252:111,1,75.9999979705811,10|2,0:0|0:0,0:0:0:0:
331,306,38617,6,0,P|372:234|326:174,1,151.999995941162,2|10,1:2|0:0,0:0:0:0:
194,197,39091,2,0,L|97:186,1,75.9999979705811,2|0,0:0|0:0,0:0:0:0:
102,75,39407,2,0,L|199:64,1,75.9999979705811,2|0,1:2|0:0,0:0:0:0:
400,28,39723,2,0,L|238:9,1,151.999995941162,10|2,0:0|1:2,0:0:0:0:
311,94,40196,1,10,0:0:0:0:
251,289,40670,1,0,1:2:0:0:
246,176,40828,2,0,L|338:200,1,75.9999979705811,10|2,0:0|0:0,0:0:0:0:
495,287,41144,6,0,B|457:302|420:287|420:287|383:273|347:287,1,151.999995941162,6|10,1:2|0:0,0:0:0:0:
474,133,41617,2,0,L|450:225,1,75.9999979705811,2|0,0:0|0:0,0:0:0:0:
355,67,41933,2,0,L|379:159,1,75.9999979705811,2|0,1:2|0:0,0:0:0:0:
258,262,42249,2,0,P|181:241|104:222,1,151.999995941162,10|2,0:0|1:2,0:0:0:0:
195,90,42723,2,0,P|216:138|191:196,1,75.9999979705811,10|0,0:0|0:0,0:0:0:0:
108,52,43038,2,0,P|138:8|200:1,1,75.9999979705811,2|0,0:0|1:2,0:0:0:0:
119,146,43354,1,10,0:0:0:0:
38,114,43511,1,2,0:0:0:0:
203,82,43670,6,0,P|196:157|189:233,1,151.999995941162,2|10,1:2|0:0,0:0:0:0:
276,316,44144,2,0,P|321:311|366:307,1,75.9999979705811,2|0,0:0|1:2,0:0:0:0:
373,186,44459,2,0,P|328:181|282:177,1,75.9999979705811,2|10,1:2|0:0,0:0:0:0:
441,255,44775,2,0,P|469:182|432:112,1,151.999995941162,6|0,1:2|1:2,0:0:0:0:
336,16,45249,2,0,P|291:20|245:24,1,75.9999979705811,8|0,0:0|0:0,0:0:0:0:
110,46,45565,6,0,P|84:43|59:41,2,50.6666653137207,8|8|8,3:0|3:0|3:0,0:0:0:0:
192,106,45880,5,6,3:0:0:0:
194,131,45986,5,4,3:0:0:0:
196,156,46091,5,4,3:0:0:0:
198,181,46196,6,0,P|268:186|340:193,1,136.000002593994,6|2,1:2|1:2,0:0:0:0:
287,346,46670,2,0,L|277:278,1,68.0000012969971,10|8,3:0|3:0,0:0:0:0:
415,249,46986,2,0,L|404:327,1,68.0000012969971,6|4,3:0|3:0,0:0:0:0:
333,192,47301,2,0,P|357:169|469:168,1,136.000002593994,2|2,0:0|0:0,0:0:0:0:
366,75,47775,2,0,B|332:64|299:75|299:75|266:87|233:75,1,136.000002593994,2|8,1:2|3:0,0:0:0:0:
216,60,48407,2,0,L|132:70,1,68.0000012969971,6|2,3:0|0:0,0:0:0:0:
23,14,48723,6,0,L|39:148,1,136.000002593994,6|2,1:2|1:2,0:0:0:0:
24,295,49196,2,0,P|14:259|23:228,1,68.0000012969971,10|8,3:0|3:0,0:0:0:0:
112,120,49512,2,0,P|122:156|113:187,1,68.0000012969971,6|4,3:0|3:0,0:0:0:0:
37,306,49828,2,0,P|96:276|156:302,1,136.000002593994,2|2,0:0|0:0,0:0:0:0:
231,367,50301,2,0,L|373:357,1,136.000002593994,2|8,1:2|3:0,0:0:0:0:
378,346,50933,2,0,P|385:313|387:280,1,68.0000012969971,6|2,3:0|1:2,0:0:0:0:
260,148,51249,6,0,P|264:215|279:281,1,136.000002593994,6|2,1:2|1:2,0:0:0:0:
430,193,51723,2,0,L|346:208,1,68.0000012969971,10|8,3:0|3:0,0:0:0:0:
423,99,52038,2,0,L|507:114,1,68.0000012969971,6|4,3:0|3:0,0:0:0:0:
319,59,52354,2,0,L|184:83,1,136.000002593994,2|2,1:2|0:0,0:0:0:0:
63,29,52828,2,0,P|98:101|76:151,1,136.000002593994,2|8,1:2|3:0,0:0:0:0:
68,164,53459,2,0,L|148:178,1,68.0000012969971,6|0,3:0|1:2,0:0:0:0:
321,270,53775,6,0,B|287:284|254:270|254:270|221:257|188:270,1,136.000002593994,6|10,1:2|0:0,0:0:0:0:
279,97,54249,2,0,P|273:130|268:164,1,68.0000012969971,2|8,0:0|3:0,0:0:0:0:
292,187,54486,1,8,3:0:0:0:
309,184,54565,1,10,3:0:0:0:
326,181,54644,1,8,3:0:0:0:
343,178,54722,1,8,3:0:0:0:
360,175,54801,1,0,0:0:0:0:
377,173,54880,1,10,0:0:0:0:
363,50,55354,6,0,P|410:46|478:38,2,95.9999970703126,2|2|2,0:0|0:0|0:0,0:0:0:0:
206,22,56301,5,6,1:2:0:0:
250,158,56459,2,0,P|287:154|341:148,1,88.000002685547,2|10,1:2|0:0,0:0:0:0:
153,114,56775,2,0,P|146:194|211:264,1,176.000005371094,2|2,0:0|1:2,0:0:0:0:
321,382,57249,2,0,L|330:290,1,88.000002685547,10|2,0:0|0:0,0:0:0:0:
512,254,57565,5,2,1:2:0:0:
408,117,57723,2,0,L|417:204,1,88.000002685547,2|8,1:2|0:0,0:0:0:0:
476,19,58038,2,0,P|435:2|382:2,1,88.000002685547,2|0,0:0|1:2,0:0:0:0:
323,136,58354,2,0,P|366:134|407:117,1,88.000002685547,2|8,1:2|0:0,0:0:0:0:
266,18,58670,1,2,0:0:0:0:
178,151,58828,5,2,1:2:0:0:
106,47,58986,2,0,P|120:123|137:228,1,176.000005371094,2|2,1:2|0:0,0:0:0:0:
91,357,59459,1,2,1:2:0:0:
39,194,59617,1,2,1:2:0:0:
186,321,59775,2,0,L|272:338,1,88.000002685547,10|0,0:0|0:0,0:0:0:0:
381,214,60091,5,2,1:2:0:0:
258,133,60249,2,0,P|247:192|244:242,1,88.000002685547,2|8,1:2|0:0,0:0:0:0:
402,384,60565,2,0,P|397:340|388:297,1,88.000002685547,2|0,0:0|1:2,0:0:0:0:
457,192,60880,1,2,1:2:0:0:
272,142,61038,2,0,L|358:124,1,88.000002685547,8|0,0:0|0:0,0:0:0:0:
209,241,61354,5,0,1:2:0:0:
189,76,61512,1,0,1:2:0:0:
32,187,61670,2,0,P|74:209|129:209,1,88.000002685547,10|0,0:0|0:0,0:0:0:0:
214,360,61986,2,0,P|172:338|117:338,1,88.000002685547,2|0,1:2|1:2,0:0:0:0:
271,167,62301,2,0,P|293:209|293:264,1,88.000002685547,10|0,0:0|0:0,0:0:0:0:
453,355,62617,6,0,L|477:173,1,176.000005371094,2|10,1:2|0:0,0:0:0:0:
395,52,63091,1,0,0:0:0:0:
271,167,63249,2,0,P|320:178|355:161,1,88.000002685547,2|0,1:2|1:2,0:0:0:0:
204,50,63565,2,0,P|155:39|120:56,1,88.000002685547,10|0,0:0|0:0,0:0:0:0:
45,149,63880,5,2,1:2:0:0:
184,227,64038,2,0,L|166:127,1,88.000002685547,2|8,1:2|0:0,0:0:0:0:
334,253,64354,2,0,L|318:339,1,88.000002685547,2|0,0:0|1:2,0:0:0:0:
271,167,64670,2,0,L|357:151,1,88.000002685547,2|8,1:2|0:0,0:0:0:0:
223,384,64986,6,0,P|139:368|49:352,1,176.000005371094,6|0,1:2|1:2,0:0:0:0:
161,151,65459,2,0,P|177:195|160:237,1,88.000002685547,10|0,0:0|0:0,0:0:0:0:
72,43,65775,1,10,3:0:0:0:
93,38,65853,1,8,3:0:0:0:
115,34,65932,1,8,3:0:0:0:
136,30,66011,1,8,3:0:0:0:
158,26,66091,2,0,P|179:30|201:34,1,44.0000013427735,6|4,3:0|3:0,0:0:0:0:
259,156,66249,2,0,P|280:152|302:148,1,44.0000013427735,4|4,3:0|3:0,0:0:0:0:
380,0,66407,5,6,1:2:0:0:
511,60,66565,1,2,1:2:0:0:
377,217,66723,2,0,P|385:175|393:130,1,88.000002685547,10|2,0:0|0:0,0:0:0:0:
497,240,67038,2,0,P|504:283|512:326,1,88.000002685547,2|2,1:2|1:2,0:0:0:0:
391,371,67354,1,10,0:0:0:0:
285,250,67512,6,0,L|316:76,1,176.000005371094,2|2,0:0|1:2,0:0:0:0:
219,0,67986,1,10,0:0:0:0:
126,139,68144,2,0,P|167:152|211:160,1,88.000002685547,2|0,0:0|1:2,0:0:0:0:
108,304,68459,2,0,P|64:312|22:325,1,88.000002685547,2|8,1:2|0:0,0:0:0:0:
126,139,68775,1,2,0:0:0:0:
212,322,68933,5,2,1:2:0:0:
56,218,69091,1,2,1:2:0:0:
248,127,69249,2,0,L|351:143,1,88.000002685547,10|2,0:0|0:0,0:0:0:0:
146,222,69565,1,2,1:2:0:0:
172,27,69723,2,0,L|275:11,1,88.000002685547,2|8,1:2|0:0,0:0:0:0:
406,47,70038,1,2,0:0:0:0:
273,210,70196,5,2,1:2:0:0:
464,269,70354,2,0,P|463:225|455:181,1,88.000002685547,2|8,1:2|0:0,0:0:0:0:
273,298,70670,2,0,P|264:341|264:385,1,88.000002685547,2|0,0:0|1:2,0:0:0:0:
393,358,70986,1,2,1:2:0:0:
311,188,71144,2,0,L|202:174,1,88.000002685547,8|0,0:0|0:0,0:0:0:0:
58,303,71459,5,6,1:2:0:0:
205,274,71617,1,0,1:2:0:0:
115,131,71775,2,0,P|106:181|120:225,1,88.000002685547,10|0,0:0|0:0,0:0:0:0:
280,91,72091,2,0,P|288:40|274:-3,1,88.000002685547,2|0,1:2|1:2,0:0:0:0:
345,239,72407,2,0,P|336:289|350:333,1,88.000002685547,10|0,0:0|0:0,0:0:0:0:
440,125,72723,6,0,P|352:117|264:109,1,176.000005371094,6|10,1:2|0:0,0:0:0:0:
156,167,73196,1,0,0:0:0:0:
311,0,73354,2,0,P|267:3|223:7,1,88.000002685547,2|0,1:2|1:2,0:0:0:0:
69,160,73670,2,0,P|112:163|156:167,1,88.000002685547,10|0,0:0|0:0,0:0:0:0:
322,303,73986,5,6,1:2:0:0:
247,170,74144,1,0,1:2:0:0:
162,359,74301,2,0,P|203:370|248:356,1,88.000002685547,8|0,0:0|1:2,0:0:0:0:
359,197,74617,1,8,0:0:0:0:
204,288,74775,1,0,1:2:0:0:
372,378,74933,1,0,1:2:0:0:
233,156,75091,5,14,0:0:0:0:
96,171,76354,6,0,P|169:181|255:192,1,160,6|2,1:2|1:2,0:0:0:0:
163,339,76828,2,0,P|148:296|161:262,1,80,10|2,0:0|0:0,0:0:0:0:
265,200,77144,1,2,1:2:0:0:
323,374,77302,1,2,1:2:0:0:
227,302,77460,1,10,0:0:0:0:
412,297,77617,6,0,P|436:214|389:149,1,160,4|2,1:2|1:2,0:0:0:0:
290,41,78091,2,0,L|382:35,1,80,10|2,0:0|0:0,0:0:0:0:
268,200,78407,1,2,1:2:0:0:
191,42,78565,1,2,1:2:0:0:
337,113,78723,1,10,0:0:0:0:
161,228,78880,6,0,P|75:216|-8:206,1,160,4|2,1:2|1:2,0:0:0:0:
76,338,79354,2,0,P|127:330|177:324,1,80,10|2,0:0|0:0,0:0:0:0:
341,354,79670,1,2,1:2:0:0:
336,202,79828,1,2,1:2:0:0:
244,339,79986,1,10,0:0:0:0:
300,124,80144,6,0,P|334:116|380:127,1,80,6|0,1:2|0:0,0:0:0:0:
451,212,80459,1,2,1:2:0:0:
478,0,80617,2,0,L|472:90,1,80,8|2,0:0|0:0,0:0:0:0:
336,202,80933,1,10,0:0:0:0:
314,202,81012,1,8,3:0:0:0:
294,204,81091,1,10,3:0:0:0:
274,205,81170,1,4,3:0:0:0:
254,207,81248,1,6,3:0:0:0:
34,294,81407,6,0,B|74:310|114:294|114:294|154:279|194:294,1,160,6|2,1:2|1:2,0:0:0:0:
283,384,81880,2,0,L|303:284,1,80,10|2,0:0|0:0,0:0:0:0:
402,218,82196,1,2,1:2:0:0:
281,165,82354,1,2,1:2:0:0:
378,298,82512,1,10,0:0:0:0:
367,135,82670,6,0,P|304:73|236:82,1,160,6|2,1:2|1:2,0:0:0:0:
109,54,83144,2,0,P|118:107|123:146,1,80,10|2,0:0|0:0,0:0:0:0:
153,257,83460,1,2,1:2:0:0:
281,165,83617,1,2,1:2:0:0:
112,144,83775,1,10,0:0:0:0:
261,265,83933,6,0,L|434:277,1,160,6|2,1:2|1:2,0:0:0:0:
354,119,84407,2,0,P|343:161|357:204,1,80,10|2,0:0|0:0,0:0:0:0:
512,206,84723,1,2,1:2:0:0:
452,115,84881,1,2,1:2:0:0:
420,276,85038,1,10,0:0:0:0:
335,98,85196,6,0,L|246:82,1,80,6|0,1:2|0:0,0:0:0:0:
161,236,85512,2,0,L|250:220,1,80,2|8,1:2|0:0,0:0:0:0:
347,200,85828,1,2,0:0:0:0:
169,57,85986,1,10,0:0:0:0:
172,76,86064,1,8,3:0:0:0:
176,96,86143,1,10,3:0:0:0:
179,116,86222,1,4,3:0:0:0:
183,135,86301,1,6,3:0:0:0:
31,194,86459,6,0,P|113:183|163:250,1,160,6|2,1:2|1:2,0:0:0:0:
66,346,86933,2,0,L|79:256,1,80,10|2,0:0|0:0,0:0:0:0:
234,199,87249,1,2,1:2:0:0:
183,348,87407,1,2,1:2:0:0:
77,266,87565,1,10,0:0:0:0:
263,292,87723,6,0,L|429:266,1,160,4|2,1:2|1:2,0:0:0:0:
495,122,88196,2,0,L|415:109,1,80,10|2,0:0|0:0,0:0:0:0:
276,194,88512,1,2,1:2:0:0:
435,189,88670,1,2,1:2:0:0:
307,108,88828,1,10,0:0:0:0:
316,285,88986,6,0,B|276:301|236:285|236:285|196:270|156:285,1,160,4|2,1:2|1:2,0:0:0:0:
60,184,89460,2,0,L|81:261,1,80,10|2,0:0|0:0,0:0:0:0:
194,363,89775,1,2,1:2:0:0:
175,188,89933,1,2,1:2:0:0:
62,283,90091,1,10,0:0:0:0:
279,255,90249,6,0,P|286:216|295:177,1,80,6|0,1:2|0:0,0:0:0:0:
154,166,90565,1,2,1:2:0:0:
258,87,90723,2,0,P|297:75|333:89,1,80,8|2,0:0|0:0,0:0:0:0:
191,238,91038,1,10,0:0:0:0:
172,246,91117,1,8,3:0:0:0:
153,249,91196,1,10,3:0:0:0:
133,245,91275,1,4,3:0:0:0:
116,236,91353,1,6,3:0:0:0:
338,106,91512,6,0,L|358:272,1,160,6|0,1:2|1:2,0:0:0:0:
258,357,91986,2,0,L|267:277,1,80,10|0,0:0|0:0,0:0:0:0:
396,352,92302,1,2,1:2:0:0:
512,209,92459,2,0,L|432:218,1,80,2|8,1:2|0:0,0:0:0:0:
318,91,92775,6,0,P|403:82|460:136,1,160,6|2,1:2|1:2,0:0:0:0:
341,225,93249,1,8,0:0:0:0:
198,165,93407,2,0,L|204:83,2,80,2|0|0,0:0|1:2|1:2,0:0:0:0:
306,77,93881,1,8,0:0:0:0:
228,257,94038,6,0,P|149:270|71:286,1,160,6|2,1:2|1:2,0:0:0:0:
105,106,94512,2,0,P|117:141|108:184,1,80,10|0,0:0|0:0,0:0:0:0:
222,0,94828,2,0,P|210:35|219:78,1,80,2|0,1:2|1:2,0:0:0:0:
298,219,95144,1,8,0:0:0:0:
367,32,95301,6,0,P|324:38|274:42,1,80,6|0,1:2|0:0,0:0:0:0:
427,159,95617,2,0,P|470:153|520:149,1,80,2|0,1:2|0:0,0:0:0:0:
319,134,95933,2,0,P|313:177|309:227,1,80,2|0,1:2|0:0,0:0:0:0:
400,329,96249,1,10,0:0:0:0:
475,236,96407,1,2,1:2:0:0:
280,323,96565,5,6,1:2:0:0:
256,192,96644,12,0,101775,0:0:0:0:
