osu file format v14

[General]
AudioFilename: 12.mp3
AudioLeadIn: 0
PreviewTime: 55196
Countdown: 0
SampleSet: None
StackLeniency: 0.7
Mode: 0
LetterboxInBreaks: 0
WidescreenStoryboard: 1

[Editor]
Bookmarks: 723,5775,15880,25986,36091,46196,56301,76512,86617,96723
DistanceSpacing: 1
BeatDivisor: 4
GridSize: 32
TimelineZoom: 2.2

[Metadata]
Title:Slow Morning (Cut Ver.)
TitleUnicode:スローモーニング (Cut Ver.)
Artist:Silent Siren
ArtistUnicode:Silent Siren
Creator:Wanpachi
Version:Normal
Source:
Tags:jpop j-pop japanese pop S short version cayssa cycopton frozz Suu すぅ Hinanchu ひなんちゅ Ainyan あいにゃん Yukarun ゆかるん Sumire Yoshida Hinako Umemura Aina Yamauchi Yukako Kurosaka 吉田 菫 梅村 妃奈子 山内 あいな 黒坂 優香子 female vocals vocalist
BeatmapID:2655885
BeatmapSetID:1243248

[Difficulty]
HPDrainRate:4
CircleSize:3
OverallDifficulty:4.5
ApproachRate:5
SliderMultiplier:1
SliderTickRate:1

[Events]
//Background and Video events
0,0,"falling falling.jpg",0,0
//Break Periods
//Storyboard Layer 0 (Background)
//Storyboard Layer 1 (Fail)
//Storyboard Layer 2 (Pass)
//Storyboard Layer 3 (Foreground)
//Storyboard Layer 4 (Overlay)
//Storyboard Sound Samples

[TimingPoints]
723,315.789473684211,4,2,1,30,1,0
5144,-100,4,2,1,60,0,0
5617,-100,4,2,1,70,0,0
25196,-100,4,2,1,70,0,0
25986,-100,4,2,1,60,0,0
36091,-100,4,2,1,65,0,0
46196,-105.263157894737,4,2,1,50,0,0
55038,-105.263157894737,4,2,1,40,0,0
56301,-95.2380952380952,4,2,1,80,0,1
76354,-100,4,2,1,70,0,0
96723,-100,4,2,1,60,0,0
97986,-100,4,2,1,50,0,0
99249,-100,4,2,1,30,0,0
100512,-100,4,2,1,20,0,0
101775,-100,4,2,1,10,0,0

[Colours]
Combo1 : 249,174,125
Combo2 : 165,166,211
Combo3 : 235,192,63
Combo4 : 126,188,211

[HitObjects]
77,71,5144,5,8,0:0:0:0:
77,71,5301,1,8,0:0:0:0:
169,33,5617,6,0,L|276:44,1,100,6|2,1:2|1:2,0:0:0:0:
318,51,6091,1,10,0:0:0:0:
388,121,6407,2,0,L|452:114,2,50,2|2|10,1:2|1:2|0:0,0:0:0:0:
352,156,6880,2,0,P|331:202|352:261,1,100,4|2,1:2|1:2,0:0:0:0:
374,287,7354,1,10,0:0:0:0:
285,333,7670,2,0,P|290:357|292:382,2,50,2|2|10,1:2|1:2|0:0,0:0:0:0:
241,307,8144,6,0,L|137:319,1,100,4|2,1:2|1:2,0:0:0:0:
95,298,8617,1,10,0:0:0:0:
50,208,8933,2,0,L|-12:215,2,50,2|2|10,1:2|1:2|0:0,0:0:0:0:
85,172,9407,2,0,B|101:126|101:126|81:78,1,100,6|2,1:2|1:2,0:0:0:0:
152,7,10038,1,2,0:0:0:0:
152,7,10196,2,0,P|206:32|256:29,1,100,10|6,0:0|3:0,0:0:0:0:
294,20,10670,6,0,L|305:129,1,100,6|2,1:2|1:2,0:0:0:0:
336,158,11144,1,10,0:0:0:0:
432,131,11459,2,0,P|438:105|438:65,2,50,2|2|10,1:2|1:2|0:0,0:0:0:0:
467,166,11933,2,0,P|477:207|477:274,1,100,6|2,1:2|1:2,0:0:0:0:
449,305,12407,1,10,0:0:0:0:
352,332,12723,2,0,L|362:394,2,50,2|2|10,1:2|1:2|0:0,0:0:0:0:
316,296,13196,6,0,B|270:273|270:273|206:278,1,100,6|2,1:2|1:2,0:0:0:0:
175,297,13670,1,10,0:0:0:0:
98,231,13986,2,0,L|32:241,2,50,2|2|10,1:2|1:2|0:0,0:0:0:0:
131,193,14459,2,0,P|143:141|123:84,1,100,6|2,1:2|1:2,0:0:0:0:
207,31,15091,1,2,0:0:0:0:
207,31,15249,2,0,L|306:52,1,100,10|6,0:0|3:0,0:0:0:0:
329,95,15723,6,0,B|343:144|343:144|316:197,1,100,6|2,1:2|1:2,0:0:0:0:
288,226,16196,1,10,0:0:0:0:
255,320,16512,2,0,P|224:332|190:348,2,50,2|2|10,1:2|1:2|0:0,0:0:0:0:
301,338,16986,2,0,P|348:360|421:337,1,100,4|2,1:2|1:2,0:0:0:0:
432,321,17459,1,10,0:0:0:0:
459,224,17775,2,0,L|512:232,2,50,2|2|10,1:2|1:2|0:0,0:0:0:0:
423,188,18249,6,0,L|407:82,1,100,4|2,1:2|1:2,0:0:0:0:
372,53,18723,1,10,0:0:0:0:
272,50,19038,2,0,L|264:-3,2,50,2|2|10,1:2|1:2|0:0,0:0:0:0:
246,93,19512,2,0,P|202:118|153:109,1,100,6|2,1:2|1:2,0:0:0:0:
73,168,20144,1,2,0:0:0:0:
73,168,20301,2,0,B|58:217|58:217|78:268,1,100,10|6,0:0|3:0,0:0:0:0:
116,292,20775,6,0,L|231:287,1,100,6|0,1:2|1:2,0:0:0:0:
266,286,21249,1,10,0:0:0:0:
341,220,21565,2,0,P|340:196|334:166,2,50,2|2|8,1:2|1:2|0:0,0:0:0:0:
378,252,22038,2,0,B|427:266|427:266|474:239,1,100,6|2,1:2|1:2,0:0:0:0:
503,147,22670,2,0,L|480:28,1,100,2|0,0:0|1:2,0:0:0:0:
384,44,23301,6,0,P|337:80|287:80,1,100,6|2,1:2|1:2,0:0:0:0:
249,67,23775,1,10,0:0:0:0:
150,49,24091,2,0,L|137:0,2,50,2|0|8,1:2|1:2|0:0,0:0:0:0:
120,89,24565,1,6,1:2:0:0:
74,177,24880,1,2,1:2:0:0:
139,252,25196,2,0,B|220:272|199:211|281:231,1,150,2|2,1:2|0:0,0:0:0:0:
345,153,25986,6,0,L|458:168,1,100,6|10,1:2|0:0,0:0:0:0:
479,201,26459,2,0,P|493:248|470:306,1,100,2|2,0:0|1:2,0:0:0:0:
395,352,27091,2,0,B|348:335|348:335|288:343,1,100,10|0,0:0|1:2,0:0:0:0:
248,349,27565,1,8,0:0:0:0:
120,270,28038,1,0,1:2:0:0:
120,270,28196,2,0,L|109:211,1,50,10|0,0:0|0:0,0:0:0:0:
75,185,28512,6,0,L|94:80,1,100,2|10,1:2|0:0,0:0:0:0:
128,51,28986,2,0,P|178:29|245:54,1,100,2|2,0:0|1:2,0:0:0:0:
301,96,29617,2,0,L|405:76,1,100,10|2,0:0|1:2,0:0:0:0:
448,65,30091,1,10,0:0:0:0:
496,207,30565,1,0,1:2:0:0:
496,207,30723,1,10,0:0:0:0:
434,285,31038,6,0,B|385:302|385:302|328:289,1,100,6|10,1:2|0:0,0:0:0:0:
296,262,31512,2,0,L|176:279,1,100,2|0,0:0|1:2,0:0:0:0:
146,281,31986,1,2,1:2:0:0:
96,194,32301,1,2,1:2:0:0:
136,102,32617,2,0,P|85:90|41:110,2,100,8|2|10,0:0|0:0|0:0,0:0:0:0:
234,122,33565,6,0,L|338:113,1,100,2|10,1:2|0:0,0:0:0:0:
378,136,34038,1,2,0:0:0:0:
419,226,34354,1,2,1:2:0:0:
364,310,34670,2,0,P|313:328|254:308,1,100,10|0,0:0|1:2,0:0:0:0:
224,295,35144,1,8,0:0:0:0:
266,151,35617,1,0,1:2:0:0:
266,151,35775,2,0,P|255:120|248:86,1,50,10|0,0:0|0:0,0:0:0:0:
261,54,36091,6,0,L|161:43,1,100,6|10,1:2|0:0,0:0:0:0:
115,63,36565,2,0,B|92:108|92:108|103:179,1,100,2|2,0:0|1:2,0:0:0:0:
62,249,37196,2,0,P|104:281|165:281,1,100,10|0,0:0|1:2,0:0:0:0:
189,254,37670,1,8,0:0:0:0:
323,324,38144,1,0,1:2:0:0:
323,324,38301,2,0,P|361:308|397:302,1,50,10|2,0:0|0:0,0:0:0:0:
418,294,38617,6,0,P|443:246|424:192,1,100,2|10,1:2|0:0,0:0:0:0:
398,166,39091,2,0,L|416:58,1,100,2|2,0:0|1:2,0:0:0:0:
329,14,39723,2,0,B|279:5|279:5|211:27,1,100,10|2,0:0|1:2,0:0:0:0:
189,46,40196,1,10,0:0:0:0:
64,129,40670,1,0,1:2:0:0:
64,129,40828,2,0,L|83:203,1,50,10|2,0:0|0:0,0:0:0:0:
65,226,41144,6,0,L|183:195,1,100,6|10,1:2|0:0,0:0:0:0:
210,211,41617,2,0,P|234:262|210:318,1,100,2|2,0:0|1:2,0:0:0:0:
307,357,42249,2,0,L|425:326,1,100,10|2,0:0|1:2,0:0:0:0:
453,337,42723,1,10,0:0:0:0:
488,243,43038,2,0,B|499:195|499:195|486:134,1,100,2|10,0:0|0:0,0:0:0:0:
446,118,43512,1,2,0:0:0:0:
446,118,43670,6,0,P|391:101|336:128,1,100,2|10,1:2|0:0,0:0:0:0:
311,142,44144,2,0,L|200:128,1,100,2|2,0:0|1:2,0:0:0:0:
141,200,44775,2,0,L|155:311,1,100,6|0,1:2|1:2,0:0:0:0:
189,334,45249,1,8,0:0:0:0:
275,282,45565,2,0,B|324:273|324:273|375:285,1,100,8|6,3:0|3:0,0:0:0:0:
420,298,46038,1,2,0:0:0:0:
420,298,46196,6,0,L|406:180,1,94.9999974632264,6|2,1:2|1:2,0:0:0:0:
374,169,46670,1,10,3:0:0:0:
283,198,46986,1,6,3:0:0:0:
219,127,47301,2,0,L|239:13,1,94.9999974632264,2|2,0:0|0:0,0:0:0:0:
278,12,47775,2,0,P|327:44|390:41,1,94.9999974632264,2|8,1:2|3:0,0:0:0:0:
457,51,48407,2,0,P|450:74|445:98,1,47.4999987316132,6|2,3:0|0:0,0:0:0:0:
422,139,48723,6,0,P|435:184|444:231,1,94.9999974632264,6|2,1:2|1:2,0:0:0:0:
433,277,49196,1,10,3:0:0:0:
343,308,49512,1,6,3:0:0:0:
260,260,49828,2,0,L|154:279,1,94.9999974632264,2|2,0:0|0:0,0:0:0:0:
126,250,50301,2,0,P|106:205|125:146,1,94.9999974632264,2|8,1:2|3:0,0:0:0:0:
172,85,50933,2,0,L|235:96,1,47.4999987316132,6|2,3:0|1:2,0:0:0:0:
252,59,51249,6,0,L|353:77,1,94.9999974632264,6|2,1:2|1:2,0:0:0:0:
388,53,51723,1,10,3:0:0:0:
458,116,52038,1,6,3:0:0:0:
408,197,52354,2,0,B|395:242|395:242|411:290,1,94.9999974632264,2|2,1:2|0:0,0:0:0:0:
428,331,52828,2,0,P|375:357|336:350,1,94.9999974632264,2|8,1:2|3:0,0:0:0:0:
263,297,53459,1,6,3:0:0:0:
183,349,53775,6,0,L|55:325,1,94.9999974632264,6|10,1:2|0:0,0:0:0:0:
52,301,54249,1,2,0:0:0:0:
100,219,54565,2,0,P|106:191|110:162,1,47.4999987316132,10|8,3:0|3:0,0:0:0:0:
89,129,54880,1,10,0:0:0:0:
460,167,56301,5,6,1:2:0:0:
460,167,56459,2,0,P|466:131|471:110,1,52.4999983978272,2|10,1:2|0:0,0:0:0:0:
446,68,56775,2,0,P|400:39|338:61,1,104.999996795654,2|2,0:0|1:2,0:0:0:0:
319,89,57249,1,10,0:0:0:0:
258,3,57565,1,2,1:2:0:0:
258,3,57723,2,0,L|186:11,1,52.4999983978272,2|8,1:2|0:0,0:0:0:0:
153,14,58038,1,2,0:0:0:0:
72,80,58354,1,2,1:2:0:0:
139,160,58670,6,0,L|129:223,1,52.4999983978272,2|2,0:0|1:2,0:0:0:0:
92,247,58986,2,0,P|86:316|118:351,1,104.999996795654,2|2,1:2|0:0,0:0:0:0:
158,352,59459,2,0,L|221:362,1,52.4999983978272,2|2,1:2|1:2,0:0:0:0:
261,371,59775,1,10,0:0:0:0:
341,302,60091,1,2,1:2:0:0:
341,302,60249,2,0,P|345:271|354:249,1,52.4999983978272,2|8,1:2|0:0,0:0:0:0:
391,215,60565,1,2,0:0:0:0:
424,115,60880,1,2,1:2:0:0:
424,115,61038,2,0,B|378:90|378:90|325:97,1,104.999996795654,8|0,0:0|1:2,0:0:0:0:
226,132,61670,6,0,L|241:243,2,104.999996795654,10|2|10,0:0|1:2|0:0,0:0:0:0:
171,44,62617,2,0,P|120:30|60:63,1,104.999996795654,2|10,1:2|0:0,0:0:0:0:
23,141,63249,2,0,B|8:194|8:194|30:250,1,104.999996795654,2|10,1:2|0:0,0:0:0:0:
115,295,63880,5,2,1:2:0:0:
115,295,64038,2,0,L|177:283,1,52.4999983978272,2|8,1:2|0:0,0:0:0:0:
203,247,64354,1,2,0:0:0:0:
303,277,64670,1,2,1:2:0:0:
403,244,64986,2,0,P|420:195|404:146,1,104.999996795654,6|0,1:2|1:2,0:0:0:0:
373,103,65459,1,10,0:0:0:0:
295,32,65775,1,10,3:0:0:0:
203,83,66091,1,6,3:0:0:0:
236,182,66407,6,0,L|225:233,1,52.4999983978272,6|2,1:2|1:2,0:0:0:0:
257,275,66723,1,10,0:0:0:0:
174,341,67038,2,0,L|110:328,1,52.4999983978272,2|2,1:2|1:2,0:0:0:0:
77,303,67354,1,10,0:0:0:0:
77,303,67512,2,0,P|49:247|59:195,1,104.999996795654,2|2,0:0|1:2,0:0:0:0:
91,168,67986,1,10,0:0:0:0:
91,168,68144,2,0,B|82:115|82:115|95:63,1,104.999996795654,2|2,0:0|1:2,0:0:0:0:
196,40,68775,1,2,0:0:0:0:
196,40,68933,6,0,P|227:33|269:28,1,52.4999983978272,2|2,1:2|1:2,0:0:0:0:
291,59,69249,2,0,P|316:63|342:69,1,52.4999983978272,10|2,0:0|0:0,0:0:0:0:
389,104,69565,1,2,1:2:0:0:
389,104,69723,1,2,1:2:0:0:
461,187,70038,1,2,0:0:0:0:
461,187,70196,2,0,L|522:200,2,52.4999983978272,2|2|8,1:2|1:2|0:0,0:0:0:0:
429,229,70670,2,0,P|386:248|323:225,1,104.999996795654,2|2,0:0|1:2,0:0:0:0:
294,195,71144,1,8,0:0:0:0:
189,193,71459,5,6,1:2:0:0:
134,282,71775,2,0,B|149:332|149:332|133:382,2,104.999996795654,10|2|10,0:0|1:2|0:0,0:0:0:0:
54,212,72723,2,0,L|77:91,1,104.999996795654,6|10,1:2|0:0,0:0:0:0:
159,48,73354,2,0,L|280:71,1,104.999996795654,2|10,1:2|0:0,0:0:0:0:
354,16,73986,6,0,P|411:11|446:44,1,104.999996795654,6|8,1:2|0:0,0:0:0:0:
456,145,74617,2,0,L|508:151,2,52.4999983978272,8|0|0,0:0|1:2|1:2,0:0:0:0:
431,192,75091,1,14,0:0:0:0:
41,100,76354,6,0,L|60:212,1,100,6|2,1:2|1:2,0:0:0:0:
90,237,76828,1,10,0:0:0:0:
66,334,77144,2,0,L|-1:345,2,50,2|2|10,1:2|1:2|0:0,0:0:0:0:
108,357,77617,2,0,P|156:370|201:350,1,100,4|2,1:2|1:2,0:0:0:0:
235,313,78091,1,10,0:0:0:0:
332,333,78407,2,0,P|327:364|328:393,2,50,2|2|10,1:2|1:2|0:0,0:0:0:0:
356,289,78880,6,0,B|405:268|405:268|451:275,1,100,4|2,1:2|1:2,0:0:0:0:
493,247,79354,1,10,0:0:0:0:
444,159,79670,2,0,B|393:167,2,50,2|2|10,1:2|1:2|0:0,0:0:0:0:
475,119,80144,2,0,P|489:66|471:23,1,100,6|2,1:2|1:2,0:0:0:0:
374,9,80775,1,2,0:0:0:0:
374,9,80933,2,0,L|256:29,1,100,10|6,0:0|3:0,0:0:0:0:
242,64,81407,6,0,B|195:83|195:83|119:61,1,100,6|2,1:2|1:2,0:0:0:0:
99,54,81880,1,10,0:0:0:0:
51,141,82196,2,0,B|-9:123,2,50,2|2|10,1:2|1:2|0:0,0:0:0:0:
94,166,82670,2,0,P|115:220|99:279,1,100,6|2,1:2|1:2,0:0:0:0:
84,304,83144,1,10,0:0:0:0:
179,332,83459,2,0,L|182:382,2,50,2|2|10,1:2|1:2|0:0,0:0:0:0:
214,296,83933,6,0,L|314:302,1,100,6|2,1:2|1:2,0:0:0:0:
349,266,84407,1,10,0:0:0:0:
419,195,84723,2,0,L|479:198,2,50,2|2|10,1:2|1:2|0:0,0:0:0:0:
383,159,85196,2,0,P|397:100|378:50,1,100,6|2,1:2|1:2,0:0:0:0:
291,30,85828,1,2,0:0:0:0:
291,30,85986,2,0,B|241:24|241:24|196:44,1,100,10|6,0:0|3:0,0:0:0:0:
179,91,86459,6,0,L|190:206,1,100,6|2,1:2|1:2,0:0:0:0:
191,240,86933,1,10,0:0:0:0:
239,327,87249,2,0,L|308:320,2,50,2|2|10,1:2|1:2|0:0,0:0:0:0:
199,357,87723,2,0,L|84:346,1,100,4|2,1:2|1:2,0:0:0:0:
59,317,88196,1,10,0:0:0:0:
103,227,88512,2,0,P|124:224|157:223,2,50,2|2|10,1:2|1:2|0:0,0:0:0:0:
70,188,88986,6,0,P|52:138|81:91,1,100,4|2,1:2|1:2,0:0:0:0:
117,77,89459,1,10,0:0:0:0:
215,58,89775,2,0,L|219:-1,2,50,2|2|10,1:2|1:2|0:0,0:0:0:0:
252,92,90249,2,0,B|299:107|299:107|366:89,1,100,6|2,1:2|1:2,0:0:0:0:
424,158,90880,1,2,0:0:0:0:
424,158,91038,2,0,L|434:262,1,100,10|6,0:0|3:0,0:0:0:0:
405,299,91512,6,0,P|365:324|301:315,1,100,6|0,1:2|1:2,0:0:0:0:
271,293,91986,1,10,0:0:0:0:
200,222,92301,2,0,L|205:163,2,50,2|2|8,1:2|1:2|0:0,0:0:0:0:
161,254,92775,2,0,P|99:269|48:240,1,100,6|2,1:2|1:2,0:0:0:0:
19,168,93407,2,0,L|9:50,1,100,2|0,0:0|1:2,0:0:0:0:
98,21,94038,6,0,B|147:35|147:35|209:17,1,100,6|2,1:2|1:2,0:0:0:0:
241,4,94512,1,10,0:0:0:0:
307,78,94828,2,0,L|303:135,2,50,2|0|8,1:2|1:2|0:0,0:0:0:0:
348,50,95301,1,6,1:2:0:0:
439,9,95617,1,2,1:2:0:0:
507,81,95933,1,2,1:2:0:0:
459,168,96249,2,0,P|457:196|463:225,1,50,10|2,0:0|1:2,0:0:0:0:
482,262,96565,5,6,1:2:0:0:
256,192,96723,12,0,101775,0:0:0:0:
