osu file format v14

[General]
AudioFilename: 12.mp3
AudioLeadIn: 0
PreviewTime: 55196
Countdown: 0
SampleSet: Soft
StackLeniency: 0.4
Mode: 0
LetterboxInBreaks: 0
WidescreenStoryboard: 1

[Editor]
Bookmarks: 723,5775,15880,25986,36091,46196,56301,76512,86617,96723
DistanceSpacing: 1.4
BeatDivisor: 4
GridSize: 32
TimelineZoom: 2.2

[Metadata]
Title:Slow Morning (Cut Ver.)
TitleUnicode:スローモーニング (Cut Ver.)
Artist:Silent Siren
ArtistUnicode:Silent Siren
Creator:Wanpachi
Version:Cayssa's Hard
Source:
Tags:jpop j-pop japanese pop S short version cayssa cycopton frozz Suu すぅ Hinanchu ひなんちゅ Ainyan あいにゃん Yukarun ゆかるん Sumire Yoshida Hinako Umemura Aina Yamauchi Yukako Kurosaka 吉田 菫 梅村 妃奈子 山内 あいな 黒坂 優香子 female vocals vocalist
BeatmapID:2655881
BeatmapSetID:1243248

[Difficulty]
HPDrainRate:5
CircleSize:3.7
OverallDifficulty:6
ApproachRate:7.5
SliderMultiplier:1.3
SliderTickRate:1

[Events]
//Background and Video events
0,0,"falling falling.jpg",0,0
//Break Periods
//Storyboard Layer 0 (Background)
//Storyboard Layer 1 (Fail)
//Storyboard Layer 2 (Pass)
//Storyboard Layer 3 (Foreground)
//Storyboard Layer 4 (Overlay)
//Storyboard Sound Samples

[TimingPoints]
723,315.789473684211,4,2,1,30,1,0
5144,-100,4,2,1,60,0,0
5617,-100,4,2,1,70,0,0
25196,-111.111111111111,4,2,1,70,0,0
25986,-111.111111111111,4,2,1,60,0,0
36091,-100,4,2,1,65,0,0
46196,-111.111111111111,4,2,1,50,0,0
55038,-111.111111111111,4,2,1,40,0,0
56301,-100,4,2,1,80,0,1
76354,-100,4,2,1,70,0,0
96723,-100,4,2,1,60,0,0
97986,-100,4,2,1,50,0,0
99249,-100,4,2,1,30,0,0
100512,-100,4,2,1,20,0,0
101775,-100,4,2,1,10,0,0

[Colours]
Combo1 : 249,174,125
Combo2 : 165,166,211
Combo3 : 235,192,63
Combo4 : 126,188,211

[HitObjects]
321,312,5144,5,8,0:0:0:0:
321,312,5301,1,8,0:0:0:0:
226,235,5617,6,0,L|213:92,1,130,6|2,1:2|1:2,0:0:0:0:
307,148,6091,1,10,0:0:0:0:
360,74,6249,1,2,0:0:0:0:
419,142,6407,2,0,P|433:176|424:223,1,65,2|2,1:2|1:2,0:0:0:0:
418,294,6723,1,10,0:0:0:0:
312,350,6880,6,0,B|240:328|260:392|165:362,1,130,4|2,1:2|1:2,0:0:0:0:
159,280,7354,2,0,P|162:244|148:206,1,65,10|2,0:0|0:0,0:0:0:0:
80,161,7670,2,0,P|63:129|61:89,1,65,2|2,1:2|1:2,0:0:0:0:
113,26,7986,1,10,0:0:0:0:
211,115,8144,6,0,P|293:129|349:84,1,130,4|2,1:2|1:2,0:0:0:0:
372,26,8617,1,10,0:0:0:0:
433,93,8775,1,2,0:0:0:0:
410,181,8933,2,0,L|419:264,1,65,2|2,1:2|1:2,0:0:0:0:
430,336,9249,1,10,0:0:0:0:
329,267,9407,6,0,P|294:257|255:263,1,65,6|0,1:2|0:0,0:0:0:0:
195,318,9723,2,0,P|161:328|127:325,1,65,2|8,1:2|0:0,0:0:0:0:
51,285,10038,1,2,0:0:0:0:
83,199,10196,2,0,L|76:161,4,32.5,10|8|10|4|6,0:0|3:0|3:0|3:0|3:0,0:0:0:0:
148,79,10670,6,0,L|283:77,1,130,6|2,1:2|1:2,0:0:0:0:
369,79,11144,1,10,0:0:0:0:
331,161,11301,1,2,0:0:0:0:
415,195,11459,2,0,L|414:262,1,65,2|2,1:2|1:2,0:0:0:0:
391,348,11775,1,10,0:0:0:0:
281,285,11933,6,0,B|210:250|216:306|135:266,1,130,6|2,1:2|1:2,0:0:0:0:
70,239,12407,2,0,L|56:151,1,65,10|2,0:0|0:0,0:0:0:0:
101,93,12723,2,0,L|91:23,1,65,2|2,1:2|1:2,0:0:0:0:
178,2,13038,1,10,0:0:0:0:
268,100,13196,6,0,P|331:106|385:73,1,130,6|2,1:2|1:2,0:0:0:0:
446,2,13670,1,10,0:0:0:0:
488,81,13828,1,2,0:0:0:0:
440,158,13986,2,0,L|452:233,1,65,2|2,1:2|1:2,0:0:0:0:
465,311,14301,1,10,0:0:0:0:
376,287,14459,6,0,L|282:304,1,65,6|0,1:2|0:0,0:0:0:0:
240,355,14775,2,0,L|172:342,1,65,2|8,1:2|0:0,0:0:0:0:
94,301,15091,1,2,0:0:0:0:
143,224,15249,2,0,L|136:189,4,32.5,10|8|10|4|6,0:0|3:0|3:0|3:0|3:0,0:0:0:0:
155,86,15723,6,0,B|228:82|199:132|298:121,1,130,6|2,1:2|1:2,0:0:0:0:
346,64,16196,1,10,0:0:0:0:
355,154,16354,1,2,0:0:0:0:
428,207,16512,2,0,P|440:237|439:269,1,65,2|2,1:2|1:2,0:0:0:0:
406,354,16828,1,10,0:0:0:0:
279,287,16986,6,0,L|133:294,1,130,4|2,1:2|1:2,0:0:0:0:
58,290,17459,2,0,L|72:196,1,65,10|2,0:0|0:0,0:0:0:0:
140,169,17775,2,0,L|131:105,1,65,2|2,1:2|1:2,0:0:0:0:
111,15,18091,1,10,0:0:0:0:
232,63,18249,6,0,B|301:48|289:90|360:69,1,130,4|2,1:2|1:2,0:0:0:0:
442,30,18723,1,10,0:0:0:0:
422,118,18880,1,2,0:0:0:0:
489,179,19038,2,0,L|500:253,1,65,2|2,1:2|1:2,0:0:0:0:
506,334,19354,1,10,0:0:0:0:
401,257,19512,6,0,P|371:246|338:247,1,65,6|0,1:2|0:0,0:0:0:0:
304,332,19828,2,0,P|274:342|241:341,1,65,2|8,1:2|0:0,0:0:0:0:
153,307,20144,1,2,0:0:0:0:
204,232,20301,2,0,L|198:201,4,32.5,10|8|10|4|6,0:0|3:0|3:0|3:0|3:0,0:0:0:0:
223,99,20775,6,0,P|278:68|338:87,1,130,6|0,1:2|1:2,0:0:0:0:
379,169,21249,2,0,L|370:233,1,65,10|0,0:0|0:0,0:0:0:0:
285,261,21565,1,2,1:2:0:0:
285,261,21723,2,0,P|281:228|276:196,1,65,2|8,1:2|0:0,0:0:0:0:
168,147,22038,6,0,P|133:145|105:159,1,65,6|0,1:2|0:0,0:0:0:0:
47,230,22354,2,0,L|55:294,1,65,2|8,1:2|0:0,0:0:0:0:
116,363,22670,2,0,L|272:359,1,130,2|0,0:0|1:2,0:0:0:0:
337,358,23144,1,8,0:0:0:0:
422,253,23301,6,0,B|426:172|366:214|387:109,1,130,6|2,1:2|1:2,0:0:0:0:
308,81,23775,2,0,L|227:101,1,65,10|0,0:0|0:0,0:0:0:0:
192,171,24091,2,0,P|120:198|74:147,1,130,2|8,1:2|0:0,0:0:0:0:
41,288,24565,6,0,L|60:415,1,65,6|0,1:2|0:0,0:0:0:0:
140,365,24880,2,0,L|267:346,1,65,2|0,1:2|0:0,0:0:0:0:
287,340,25196,2,0,L|306:211,1,116.999996429443,2|0,1:2|0:0,0:0:0:0:
370,175,25670,1,2,0:0:0:0:
163,140,25986,6,0,P|72:128|27:124,1,116.999996429443,6|10,1:2|0:0,0:0:0:0:
33,224,26459,2,0,P|46:278|48:308,1,58.4999982147217,2|0,0:0|0:0,0:0:0:0:
133,328,26775,2,0,P|138:299|146:271,1,58.4999982147217,2|0,1:2|0:0,0:0:0:0:
236,288,27091,2,0,P|290:302|335:268,1,116.999996429443,10|0,0:0|1:2,0:0:0:0:
371,192,27565,1,8,0:0:0:0:
247,61,28038,1,0,1:2:0:0:
247,61,28196,2,0,P|220:59|184:71,1,58.4999982147217,10|0,0:0|0:0,0:0:0:0:
171,148,28512,6,0,B|237:145|211:188|294:178,1,116.999996429443,2|10,1:2|0:0,0:0:0:0:
337,119,28986,2,0,L|357:42,1,58.4999982147217,2|0,0:0|0:0,0:0:0:0:
428,37,29301,2,0,L|441:97,1,58.4999982147217,2|0,1:2|0:0,0:0:0:0:
413,171,29617,2,0,L|398:234,1,58.4999982147217,10|0,0:0|0:0,0:0:0:0:
372,308,29933,1,2,1:2:0:0:
372,308,30091,1,10,0:0:0:0:
259,204,30565,1,0,1:2:0:0:
259,204,30723,2,0,P|229:199|200:203,1,58.4999982147217,10|0,0:0|0:0,0:0:0:0:
149,294,31038,6,0,P|93:328|33:322,1,116.999996429443,6|10,1:2|0:0,0:0:0:0:
30,244,31512,2,0,P|14:172|-3:115,1,116.999996429443,2|0,0:0|1:2,0:0:0:0:
50,64,31986,2,0,P|101:45|126:48,1,58.4999982147217,2|10,0:0|0:0,0:0:0:0:
170,92,32301,2,0,P|195:106|224:110,1,58.4999982147217,2|0,0:0|1:2,0:0:0:0:
294,66,32617,2,0,P|345:47|370:50,1,58.4999982147217,10|0,0:0|0:0,0:0:0:0:
407,103,32933,2,0,P|415:131|419:159,1,58.4999982147217,2|0,0:0|1:2,0:0:0:0:
382,233,33249,1,10,0:0:0:0:
275,343,33565,6,0,B|209:340|235:383|152:373,1,116.999996429443,2|10,1:2|0:0,0:0:0:0:
94,335,34038,2,0,P|72:265|67:254,1,58.4999982147217,2|0,0:0|0:0,0:0:0:0:
130,223,34354,2,0,P|136:194|146:166,1,58.4999982147217,2|0,1:2|0:0,0:0:0:0:
136,90,34670,2,0,P|184:121|241:121,1,116.999996429443,10|0,0:0|1:2,0:0:0:0:
293,63,35144,2,0,P|341:32|398:32,1,116.999996429443,8|0,0:0|0:0,0:0:0:0:
434,111,35617,1,0,1:2:0:0:
434,111,35775,2,0,L|434:197,1,58.4999982147217,10|0,0:0|0:0,0:0:0:0:
382,275,36091,6,0,P|350:275|313:287,1,65,6|0,1:2|0:0,0:0:0:0:
253,349,36407,1,10,0:0:0:0:
253,349,36565,2,0,P|221:348|184:336,1,65,2|0,0:0|0:0,0:0:0:0:
112,289,36880,2,0,P|102:234|94:204,1,65,2|0,1:2|0:0,0:0:0:0:
165,161,37196,2,0,P|175:96|188:33,1,130,10|0,0:0|1:2,0:0:0:0:
101,4,37670,1,8,0:0:0:0:
286,105,38144,1,0,1:2:0:0:
286,105,38301,2,0,P|335:95|365:78,1,65,10|2,0:0|0:0,0:0:0:0:
437,165,38617,6,0,P|458:226|468:290,1,130,2|10,1:2|0:0,0:0:0:0:
365,313,39091,2,0,P|348:304|298:295,1,65,2|0,0:0|0:0,0:0:0:0:
217,325,39407,2,0,P|200:334|150:343,1,65,2|0,1:2|0:0,0:0:0:0:
68,312,39723,2,0,B|54:265|79:237|53:173,1,130,10|2,0:0|1:2,0:0:0:0:
27,99,40196,1,10,0:0:0:0:
228,173,40670,1,0,1:2:0:0:
228,173,40828,2,0,L|302:147,1,65,10|2,0:0|0:0,0:0:0:0:
332,77,41144,6,0,L|177:57,1,130,6|10,1:2|0:0,0:0:0:0:
112,59,41617,2,0,P|126:116|128:151,1,65,2|0,0:0|0:0,0:0:0:0:
71,195,41933,2,0,P|57:252|55:287,1,65,2|0,1:2|0:0,0:0:0:0:
88,344,42249,2,0,P|153:354|218:309,1,130,10|2,0:0|1:2,0:0:0:0:
254,246,42723,6,0,P|315:227|343:229,1,65,10|0,0:0|0:0,0:0:0:0:
366,302,43038,2,0,P|427:321|455:319,1,65,2|0,0:0|1:2,0:0:0:0:
510,310,43354,1,10,0:0:0:0:
510,310,43512,1,2,0:0:0:0:
491,201,43670,6,0,B|415:192|458:151|379:140,1,130,2|10,1:2|0:0,0:0:0:0:
313,205,44144,2,0,P|252:224|224:222,1,65,2|0,0:0|1:2,0:0:0:0:
173,174,44459,2,0,P|112:155|84:157,1,65,2|10,1:2|0:0,0:0:0:0:
48,256,44775,2,0,P|37:197|11:118,1,130,6|0,1:2|1:2,0:0:0:0:
76,45,45249,2,0,P|100:32|165:32,1,65,8|0,0:0|0:0,0:0:0:0:
232,86,45565,6,0,L|286:96,2,43.3333333333333,8|8|8,3:0|3:0|3:0,0:0:0:0:
199,136,45880,2,0,L|144:146,2,43.3333333333333,6|4|4,3:0|3:0|3:0,0:0:0:0:
238,174,46196,6,0,P|243:198|260:305,1,116.999996429443,6|2,1:2|1:2,0:0:0:0:
335,296,46670,2,0,P|339:267|345:238,1,58.4999982147217,10|8,3:0|3:0,0:0:0:0:
418,218,46986,2,0,P|423:246|428:275,2,58.4999982147217,6|4|2,3:0|3:0|0:0,0:0:0:0:
442,139,47459,6,0,P|440:104|430:78,1,58.4999982147217,6|2,1:2|0:0,0:0:0:0:
373,24,47775,2,0,P|308:1|242:30,1,116.999996429443,2|8,1:2|3:0,0:0:0:0:
170,171,48407,2,0,P|205:169|231:159,1,58.4999982147217,6|2,3:0|0:0,0:0:0:0:
325,204,48723,6,0,L|332:320,1,116.999996429443,6|2,1:2|1:2,0:0:0:0:
256,350,49196,2,0,L|187:329,1,58.4999982147217,10|8,3:0|3:0,0:0:0:0:
128,292,49512,2,0,L|57:296,2,58.4999982147217,6|4|2,3:0|3:0|0:0,0:0:0:0:
196,210,49986,6,0,P|197:180|174:131,1,58.4999982147217,6|2,1:2|0:0,0:0:0:0:
121,106,50301,2,0,L|-3:81,1,116.999996429443,2|8,1:2|3:0,0:0:0:0:
161,28,50933,2,0,L|228:14,1,58.4999982147217,6|2,3:0|1:2,0:0:0:0:
310,95,51249,6,0,P|364:109|411:77,1,116.999996429443,6|2,1:2|1:2,0:0:0:0:
478,126,51723,2,0,L|481:193,1,58.4999982147217,10|8,3:0|3:0,0:0:0:0:
411,228,52038,2,0,L|413:286,1,58.4999982147217,6|4,3:0|3:0,0:0:0:0:
418,368,52354,1,2,1:2:0:0:
300,327,52512,6,0,L|230:340,1,58.4999982147217,6|2,1:2|0:0,0:0:0:0:
175,289,52828,2,0,L|45:264,1,116.999996429443,2|8,1:2|3:0,0:0:0:0:
22,108,53459,2,0,L|79:97,1,58.4999982147217,6|0,3:0|1:2,0:0:0:0:
154,130,53775,6,0,P|189:128|215:116,1,58.4999982147217,6|0,1:2|0:0,0:0:0:0:
266,58,54091,2,0,P|301:60|327:72,1,58.4999982147217,10|2,0:0|0:0,0:0:0:0:
388,118,54407,2,0,L|391:149,4,29.2499991073609,8|8|10|8|8,3:0|3:0|3:0|3:0|3:0,0:0:0:0:
437,52,54880,1,10,0:0:0:0:
511,255,56301,5,6,1:2:0:0:
455,184,56459,2,0,P|457:146|444:108,1,65,2|10,1:2|0:0,0:0:0:0:
369,75,56775,2,0,P|361:106|364:138,1,65,2|0,0:0|1:2,0:0:0:0:
380,228,57091,1,2,1:2:0:0:
328,302,57249,2,0,P|294:311|257:303,1,65,10|2,0:0|0:0,0:0:0:0:
174,320,57565,6,0,L|184:384,2,65,2|2|8,1:2|1:2|0:0,0:0:0:0:
91,281,58038,2,0,L|102:216,1,65,2|0,0:0|1:2,0:0:0:0:
30,159,58354,2,0,L|18:94,1,65,2|8,1:2|0:0,0:0:0:0:
90,39,58670,1,2,0:0:0:0:
175,70,58828,5,2,1:2:0:0:
250,18,58986,2,0,B|325:4|302:49|374:36,1,130,2|2,1:2|0:0,0:0:0:0:
455,78,59459,2,0,P|468:113|463:171,1,65,2|2,1:2|1:2,0:0:0:0:
421,218,59775,2,0,P|408:253|413:311,1,65,10|0,0:0|0:0,0:0:0:0:
441,365,60091,1,2,1:2:0:0:
350,378,60249,6,0,L|269:372,1,65,2|8,1:2|0:0,0:0:0:0:
232,298,60565,2,0,L|151:304,1,65,2|0,0:0|1:2,0:0:0:0:
104,368,60880,2,0,P|108:297|77:222,1,130,2|0,1:2|0:0,0:0:0:0:
24,177,61354,5,0,1:2:0:0:
175,87,61670,2,0,L|184:13,1,65,10|0,0:0|0:0,0:0:0:0:
273,34,61986,2,0,L|282:108,1,65,2|0,1:2|1:2,0:0:0:0:
325,178,62301,2,0,P|360:182|393:164,1,65,10|0,0:0|0:0,0:0:0:0:
462,119,62617,5,2,1:2:0:0:
497,202,62775,1,0,1:2:0:0:
441,273,62933,2,0,L|449:366,1,65,10|0,0:0|0:0,0:0:0:0:
360,368,63249,2,0,L|354:303,1,65,2|0,1:2|1:2,0:0:0:0:
277,252,63565,2,0,P|244:251|214:263,1,65,10|0,0:0|0:0,0:0:0:0:
124,276,63880,5,2,1:2:0:0:
148,188,64038,2,0,L|140:123,1,65,2|8,1:2|0:0,0:0:0:0:
207,61,64354,2,0,B|281:51|261:100|333:79,1,130,2|2,0:0|1:2,0:0:0:0:
413,38,64828,1,8,0:0:0:0:
458,145,64986,5,6,1:2:0:0:
350,275,65301,1,0,1:2:0:0:
271,242,65459,2,0,P|241:230|209:230,1,65,10|0,0:0|0:0,0:0:0:0:
136,274,65775,2,0,L|142:325,3,32.5,10|8|8|8,3:0|3:0|3:0|3:0,0:0:0:0:
111,338,66091,2,0,L|108:371,3,32.5,6|4|4|4,3:0|3:0|3:0|3:0,0:0:0:0:
139,384,66407,5,6,1:2:0:0:
214,346,66565,1,2,1:2:0:0:
298,379,66723,2,0,L|380:377,1,65,10|2,0:0|0:0,0:0:0:0:
435,322,67038,2,0,L|436:257,1,65,2|2,1:2|1:2,0:0:0:0:
420,166,67354,1,10,0:0:0:0:
358,98,67512,6,0,P|303:64|230:78,1,130,2|2,0:0|1:2,0:0:0:0:
180,140,67986,1,10,0:0:0:0:
135,219,68144,2,0,L|140:303,1,65,2|0,0:0|1:2,0:0:0:0:
224,316,68459,2,0,L|227:251,1,65,2|8,1:2|0:0,0:0:0:0:
273,172,68775,1,2,0:0:0:0:
333,240,68933,5,2,1:2:0:0:
396,304,69091,1,2,1:2:0:0:
451,231,69249,2,0,P|455:193|438:150,1,65,10|2,0:0|0:0,0:0:0:0:
390,96,69565,1,2,1:2:0:0:
319,38,69723,2,0,L|247:35,1,65,2|8,1:2|0:0,0:0:0:0:
190,95,70038,1,2,0:0:0:0:
108,54,70196,5,2,1:2:0:0:
64,134,70354,2,0,P|52:164|52:196,1,65,2|8,1:2|0:0,0:0:0:0:
126,250,70670,2,0,P|138:280|137:312,1,65,2|0,0:0|1:2,0:0:0:0:
208,369,70986,2,0,L|282:355,1,65,2|8,1:2|0:0,0:0:0:0:
430,254,71459,6,0,L|366:240,1,65,6|0,1:2|1:2,0:0:0:0:
326,157,71775,2,0,L|389:143,1,65,10|0,0:0|0:0,0:0:0:0:
415,55,72091,2,0,L|351:41,1,65,2|0,1:2|1:2,0:0:0:0:
261,25,72407,1,10,0:0:0:0:
185,239,72723,6,0,B|111:254|139:198|60:214,1,130,6|10,1:2|0:0,0:0:0:0:
10,150,73196,1,0,0:0:0:0:
70,81,73354,2,0,P|100:69|132:69,1,65,2|0,1:2|1:2,0:0:0:0:
199,131,73670,2,0,P|229:143|261:143,1,65,10|0,0:0|0:0,0:0:0:0:
326,45,73986,5,6,1:2:0:0:
380,117,74144,1,0,1:2:0:0:
333,194,74301,2,0,L|347:257,1,65,8|0,0:0|1:2,0:0:0:0:
421,310,74617,2,0,L|435:246,1,65,8|0,0:0|1:2,0:0:0:0:
462,159,74933,1,0,1:2:0:0:
401,58,75091,5,14,0:0:0:0:
306,338,76354,6,0,P|246:360|179:340,1,130,6|2,1:2|1:2,0:0:0:0:
101,284,76828,1,10,0:0:0:0:
132,198,76986,1,2,0:0:0:0:
51,155,77144,2,0,L|37:75,1,65,2|2,1:2|1:2,0:0:0:0:
64,3,77460,1,10,0:0:0:0:
193,43,77617,6,0,B|266:29|250:72|340:55,1,130,4|2,1:2|1:2,0:0:0:0:
304,149,78091,2,0,P|294:184|300:223,1,65,10|2,0:0|0:0,0:0:0:0:
377,255,78407,2,0,P|387:290|381:329,1,65,2|2,1:2|1:2,0:0:0:0:
314,377,78723,1,10,0:0:0:0:
212,290,78880,6,0,B|131:279|152:325|65:302,1,130,4|2,1:2|1:2,0:0:0:0:
5,262,79354,1,10,0:0:0:0:
87,223,79512,1,2,0:0:0:0:
19,161,79670,2,0,L|8:93,1,65,2|2,1:2|1:2,0:0:0:0:
4,5,79986,1,10,0:0:0:0:
117,77,80144,6,0,P|149:79|179:68,1,65,6|0,1:2|0:0,0:0:0:0:
266,41,80459,2,0,P|298:38|328:49,1,65,2|8,1:2|0:0,0:0:0:0:
379,124,80775,1,2,0:0:0:0:
317,199,80933,2,0,L|321:244,4,32.5,10|8|10|4|6,0:0|3:0|3:0|3:0|3:0,0:0:0:0:
387,329,81407,6,0,L|242:339,1,130,6|2,1:2|1:2,0:0:0:0:
182,284,81881,1,10,0:0:0:0:
119,349,82038,1,2,0:0:0:0:
44,293,82196,2,0,P|41:261|48:230,1,65,2|2,1:2|1:2,0:0:0:0:
68,139,82512,1,10,0:0:0:0:
198,126,82670,6,0,L|338:115,1,130,6|2,1:2|1:2,0:0:0:0:
402,169,83144,2,0,L|490:183,1,65,10|2,0:0|0:0,0:0:0:0:
420,258,83460,2,0,L|355:267,1,65,2|2,1:2|1:2,0:0:0:0:
264,274,83775,1,10,0:0:0:0:
196,384,83933,6,0,L|172:256,1,130,6|2,1:2|1:2,0:0:0:0:
179,164,84407,1,10,0:0:0:0:
96,203,84565,1,2,0:0:0:0:
13,164,84723,2,0,P|3:194|4:227,1,65,2|2,1:2|1:2,0:0:0:0:
60,299,85038,1,10,0:0:0:0:
185,332,85196,6,0,L|279:315,1,65,6|0,1:2|0:0,0:0:0:0:
320,262,85512,2,0,L|388:275,1,65,2|8,1:2|0:0,0:0:0:0:
461,323,85828,1,2,0:0:0:0:
465,232,85986,2,0,L|471:200,4,32.5,10|8|10|4|6,0:0|3:0|3:0|3:0|3:0,0:0:0:0:
403,134,86459,6,0,L|377:6,1,130,6|2,1:2|1:2,0:0:0:0:
288,25,86933,1,10,0:0:0:0:
215,77,87091,1,2,0:0:0:0:
164,152,87249,2,0,P|132:156|100:149,1,65,2|2,1:2|1:2,0:0:0:0:
27,93,87565,1,10,0:0:0:0:
0,222,87723,6,0,P|11:285|19:350,1,130,4|2,1:2|1:2,0:0:0:0:
108,370,88196,2,0,P|140:365|171:356,1,65,10|2,0:0|0:0,0:0:0:0:
223,280,88512,2,0,P|255:284|286:293,1,65,2|2,1:2|1:2,0:0:0:0:
357,350,88828,1,10,0:0:0:0:
449,257,88986,6,0,B|459:177|404:204|432:110,1,130,4|2,1:2|1:2,0:0:0:0:
456,46,89460,1,10,0:0:0:0:
366,26,89617,1,2,0:0:0:0:
308,96,89775,2,0,L|213:105,1,65,2|2,1:2|1:2,0:0:0:0:
151,107,90091,1,10,0:0:0:0:
28,39,90249,6,0,P|25:70|33:102,1,65,6|0,1:2|0:0,0:0:0:0:
97,168,90565,2,0,P|105:199|102:232,1,65,2|8,1:2|0:0,0:0:0:0:
48,306,90881,1,2,0:0:0:0:
132,338,91038,2,0,L|138:369,4,32.5,10|8|10|4|6,0:0|3:0|3:0|3:0|3:0,0:0:0:0:
208,231,91512,6,0,B|297:225|253:281|350:266,1,130,6|0,1:2|1:2,0:0:0:0:
378,192,91986,2,0,L|441:178,1,65,10|0,0:0|0:0,0:0:0:0:
508,248,92302,1,2,1:2:0:0:
508,248,92460,2,0,L|483:308,1,65,2|8,1:2|0:0,0:0:0:0:
367,364,92775,6,0,P|334:362|303:372,1,65,6|0,1:2|0:0,0:0:0:0:
214,350,93091,2,0,P|181:360|146:357,1,65,2|8,1:2|0:0,0:0:0:0:
82,298,93407,2,0,L|80:143,1,130,2|0,0:0|1:2,0:0:0:0:
141,99,93881,1,8,0:0:0:0:
272,102,94038,6,0,B|353:101|325:148|415:137,1,130,6|2,1:2|1:2,0:0:0:0:
460,201,94512,2,0,L|471:283,1,65,10|0,0:0|0:0,0:0:0:0:
411,345,94828,2,0,P|334:352|297:292,1,130,2|8,1:2|0:0,0:0:0:0:
239,196,95302,6,0,P|207:195|176:205,1,65,6|0,1:2|0:0,0:0:0:0:
107,264,95617,2,0,P|75:266|44:256,1,65,2|0,1:2|0:0,0:0:0:0:
2,171,95933,1,2,1:2:0:0:
2,171,96249,1,2,1:2:0:0:
55,97,96407,1,2,1:2:0:0:
184,116,96565,5,6,1:2:0:0:
256,192,96723,12,0,101775,0:0:0:0:
