osu file format v14

[General]
AudioFilename: routine.mp3
AudioLeadIn: 0
PreviewTime: 55604
Countdown: 0
SampleSet: Soft
StackLeniency: 0.4
Mode: 0
LetterboxInBreaks: 0
WidescreenStoryboard: 0

[Editor]
Bookmarks: 1059,6513,11797,22706,33786,44695,55604,66513,77422,91059
DistanceSpacing: 1
BeatDivisor: 4
GridSize: 32
TimelineZoom: 1.5

[Metadata]
Title:Routine
TitleUnicode:Routine
Artist:Silent Siren
ArtistUnicode:Silent Siren
Creator:zhu
Version:Habi's Advanced
Source:
Tags:habiholic peter petereu walaowey suzuki_1112 matsubara_kanon aeril nifty
BeatmapID:1702734
BeatmapSetID:811298

[Difficulty]
HPDrainRate:6
CircleSize:3
OverallDifficulty:6
ApproachRate:8
SliderMultiplier:1.47
SliderTickRate:1

[Events]
//Background and Video events
0,0,"bg.jpg",0,0
//Break Periods
//Storyboard Layer 0 (Background)
//Storyboard Layer 1 (Fail)
//Storyboard Layer 2 (Pass)
//Storyboard Layer 3 (Foreground)
//Storyboard Sound Samples

[TimingPoints]
1059,340.909090909091,4,2,1,60,1,0
1059,-133.333333333333,4,2,1,60,0,0
6513,-117.647058823529,4,2,1,60,0,0
11797,-111.111111111111,4,2,1,60,0,0
22706,-117.647058823529,4,2,1,50,0,0
44695,-100,4,2,1,60,0,0
55604,-100,4,2,1,80,0,1
77422,-100,4,2,1,60,0,0
78615,-200,4,2,1,60,0,0
79468,-100,4,2,1,60,0,0

[Colours]
Combo1 : 0,155,0
Combo2 : 128,0,0
Combo3 : 255,200,0
Combo4 : 255,100,0
SliderBorder : 255,255,255
SliderTrackOverride : 0,0,0

[HitObjects]
40,348,1059,6,0,L|24:232,1,110.250004205704,2|2,0:0|0:0,0:0:0:0:
72,160,1570,1,0,0:0:0:0:
72,160,1740,2,0,P|100:158|127:165,1,55.1250021028519,2|0,0:0|0:0,0:0:0:0:
208,220,2081,2,0,L|268:212,1,55.1250021028519,2|2,0:0|0:0,0:0:0:0:
336,152,2422,6,0,P|388:140|437:164,1,110.250004205704,2|2,0:0|0:0,0:0:0:0:
488,244,2934,1,0,0:0:0:0:
488,244,3104,2,0,L|480:304,1,55.1250021028519,2|0,0:0|0:0,0:0:0:0:
392,364,3445,2,0,L|384:309,1,55.1250021028519,2|0,0:0|0:0,0:0:0:0:
328,232,3786,6,0,B|292:252|292:252|220:232,1,110.250004205704,2|2,0:0|0:0,0:0:0:0:
152,168,4297,1,0,0:0:0:0:
80,224,4468,2,0,L|88:284,2,55.1250021028519,2|0|2,0:0|0:0|0:0,0:0:0:0:
64,128,4979,1,2,0:0:0:0:
24,52,5149,6,0,P|72:76|125:65,1,110.250004205704,2|2,0:0|0:0,0:0:0:0:
212,24,5661,1,0,0:0:0:0:
284,88,5831,2,0,L|276:144,1,55.1250021028519,2|0,0:0|0:0,0:0:0:0:
200,208,6172,2,0,L|208:268,1,55.1250021028519,2|0,0:0|0:0,0:0:0:0:
256,344,6513,5,4,0:0:0:0:
256,344,6854,2,0,L|320:336,1,62.4750011916161,8|8,0:0|0:0,0:0:0:0:
448,252,7195,2,0,L|384:260,1,62.4750011916161,8|8,0:0|0:0,0:0:0:0:
240,200,7536,2,0,L|304:192,1,62.4750011916161,8|8,0:0|0:0,0:0:0:0:
376,128,7877,6,0,B|384:96|384:96|376:68,1,62.4750011916161,8|8,0:0|0:0,0:0:0:0:
296,16,8218,2,0,L|232:28,1,62.4750011916161,8|8,0:0|0:0,0:0:0:0:
160,92,8559,2,0,L|96:84,1,62.4750011916161,8|8,0:0|0:0,0:0:0:0:
16,136,8899,1,8,0:0:0:0:
16,136,9070,1,8,0:0:0:0:
88,204,9240,6,0,B|92:236|92:236|84:268,1,62.4750011916161,8|8,0:0|0:0,0:0:0:0:
140,340,9581,2,0,L|208:332,1,62.4750011916161,8|8,0:0|0:0,0:0:0:0:
328,244,9922,2,0,L|260:252,1,62.4750011916161,8|8,0:0|0:0,0:0:0:0:
184,192,10263,2,0,P|180:160|184:128,1,62.4750011916161,8|8,0:0|0:0,0:0:0:0:
244,56,10604,6,0,L|276:64,3,31.237500595808,4|4|4|4,0:3|0:3|0:3|0:3,0:0:0:0:
304,68,10945,1,4,0:3:0:0:
304,68,11286,5,2,0:0:0:0:
384,136,11456,2,0,L|448:124,1,62.4750011916161,2|2,0:0|0:0,0:0:0:0:
292,176,11797,6,0,L|160:152,1,132.299995962525,6|0,0:0|0:0,0:0:0:0:
92,84,12309,1,10,0:0:0:0:
20,148,12479,2,0,B|36:192|36:192|12:280,1,132.299995962525,2|2,0:0|0:0,0:0:0:0:
72,348,12990,1,10,0:0:0:0:
148,288,13161,6,0,P|212:288|272:328,1,132.299995962525,2|0,0:0|0:0,0:0:0:0:
348,368,13672,1,10,0:0:0:0:
428,320,13843,1,0,0:0:0:0:
384,244,14013,2,0,P|384:204|396:172,1,66.1499979812623,2|2,0:0|0:0,0:0:0:0:
456,108,14354,1,10,0:0:0:0:
392,32,14524,6,0,B|344:52|344:52|267:27,1,132.299995962525,2|0,0:0|0:0,0:0:0:0:
188,80,15036,1,10,0:0:0:0:
188,80,15206,2,0,L|204:212,1,132.299995962525,2|2,0:0|0:0,0:0:0:0:
152,288,15718,1,10,0:0:0:0:
220,356,15888,6,0,P|256:356|284:348,1,66.1499979812623,2|0,0:0|0:0,0:0:0:0:
352,284,16229,1,0,0:0:0:0:
352,284,16399,2,0,L|344:216,1,66.1499979812623,10|0,0:0|0:0,0:0:0:0:
392,136,16740,2,0,L|428:144,2,33.0749989906311,2|0|2,0:0|0:0|0:0,0:0:0:0:
328,64,17081,1,10,0:0:0:0:
256,127,17252,6,0,P|191:135|139:98,1,132.299995962525,2|0,0:0|0:0,0:0:0:0:
72,28,17763,1,10,0:0:0:0:
8,96,17934,2,0,L|24:228,1,132.299995962525,2|2,0:0|0:0,0:0:0:0:
40,324,18445,1,10,0:0:0:0:
124,280,18615,6,0,P|160:280|188:292,1,66.1499979812623,2|0,0:0|0:0,0:0:0:0:
260,352,18956,1,0,0:0:0:0:
260,352,19127,2,0,L|328:344,1,66.1499979812623,10|0,0:0|0:0,0:0:0:0:
400,280,19468,1,2,0:0:0:0:
476,340,19638,1,2,0:0:0:0:
488,248,19809,1,10,0:0:0:0:
488,248,19894,1,0,0:0:0:0:
487,248,19979,6,0,P|500:183|490:118,1,132.299995962525,2|0,0:0|0:0,0:0:0:0:
424,44,20490,1,10,0:0:0:0:
344,104,20661,1,0,0:0:0:0:
272,40,20831,2,0,P|236:40|208:52,1,66.1499979812623,2|2,0:0|0:0,0:0:0:0:
136,120,21172,1,10,0:0:0:0:
136,120,21343,6,0,B|92:136|92:136|0:112,2,132.299995962525,2|2|2,0:0|0:0|0:0,0:0:0:0:
212,188,22195,1,8,0:0:0:0:
136,248,22365,2,0,L|88:232,2,33.0749989906311,4|4|4,0:3|0:3|0:3,0:0:0:0:
200,320,22706,6,0,L|336:304,1,124.950002383232,6|2,0:0|0:0,0:0:0:0:
400,244,23218,1,8,0:0:0:0:
332,172,23388,2,0,B|320:128|320:128|344:48,1,124.950002383232,2|2,0:0|0:0,0:0:0:0:
416,128,23899,1,8,0:0:0:0:
332,172,24070,1,2,0:0:0:0:
240,128,24240,6,0,P|208:127|179:137,1,62.4750011916161,2|0,0:0|0:0,0:0:0:0:
112,200,24581,1,10,0:0:0:0:
112,200,24752,2,0,L|128:328,1,124.950002383232,2|0,0:0|0:0,0:0:0:0:
208,364,25263,2,0,P|248:344|296:348,1,93.7125017874241,10|0,0:0|0:0,0:0:0:0:
320,360,25604,5,2,0:0:0:0:
404,304,25774,2,0,L|388:168,1,124.950002383232,0|2,0:0|0:0,0:0:0:0:
336,44,26286,2,0,L|320:112,1,62.4750011916161,2|0,0:0|0:0,0:0:0:0:
256,179,26627,1,10,0:0:0:0:
256,179,26797,6,0,P|196:196|140:172,1,124.950002383232,2|0,0:0|0:0,0:0:0:0:
72,104,27309,1,10,0:0:0:0:
4,176,27479,1,2,0:0:0:0:
4,176,27649,2,0,B|8:208|8:208|0:240,1,62.4750011916161,2|0,0:0|0:0,0:0:0:0:
88,312,27990,2,0,B|84:280|84:280|92:248,1,62.4750011916161,10|2,0:0|0:0,0:0:0:0:
164,188,28331,5,0,0:0:0:0:
164,188,28502,2,0,L|292:204,1,124.950002383232,2|2,0:0|0:0,0:0:0:0:
372,148,29013,1,0,0:0:0:0:
372,148,29184,2,0,P|376:112|372:84,1,62.4750011916161,2|10,0:0|0:0,0:0:0:0:
480,48,29524,6,0,P|471:109|485:170,1,124.950002383232,2|0,0:0|0:0,0:0:0:0:
436,248,30036,1,10,0:0:0:0:
356,196,30206,1,2,0:0:0:0:
352,292,30377,1,0,0:0:0:0:
352,292,30547,2,0,L|220:272,1,124.950002383232,2|2,0:0|0:0,0:0:0:0:
160,208,31059,5,2,0:0:0:0:
160,208,31229,2,0,P|128:207|99:217,1,62.4750011916161,0|10,0:0|0:0,0:0:0:0:
20,272,31570,2,0,L|4:144,1,124.950002383232,2|2,0:0|0:0,0:0:0:0:
64,68,32081,1,10,0:0:0:0:
135,131,32252,6,0,P|194:147|246:115,1,124.950002383232,2|2,0:0|0:0,0:0:0:0:
312,44,32763,1,8,0:0:0:0:
388,108,32934,1,2,0:0:0:0:
464,44,33104,1,4,0:3:0:0:
484,144,33274,2,0,L|492:176,2,31.237500595808,4|4|4,0:3|0:3|0:3,0:0:0:0:
360,204,33615,6,0,L|236:186,1,124.950002383232,6|2,0:0|0:0,0:0:0:0:
160,128,34127,1,8,0:0:0:0:
79,176,34297,2,0,P|62:235|82:293,1,124.950002383232,2|2,0:0|0:0,0:0:0:0:
156,352,34809,1,8,0:0:0:0:
232,300,34979,1,2,0:0:0:0:
304,352,35149,6,0,P|340:352|368:344,1,62.4750011916161,2|0,0:0|0:0,0:0:0:0:
432,276,35490,1,10,0:0:0:0:
432,276,35661,2,0,L|416:148,1,124.950002383232,2|0,0:0|0:0,0:0:0:0:
352,24,36172,2,0,L|340:88,1,62.4750011916161,10|2,0:0|0:0,0:0:0:0:
264,148,36513,5,0,0:0:0:0:
264,147,36684,2,0,P|205:163|153:130,1,124.950002383232,2|2,0:0|0:0,0:0:0:0:
88,60,37195,1,0,0:0:0:0:
16,128,37365,2,0,B|20:160|20:160|12:192,1,62.4750011916161,2|8,0:0|0:0,0:0:0:0:
64,264,37706,6,0,L|192:248,1,124.950002383232,2|0,0:0|0:0,0:0:0:0:
260,180,38218,1,8,0:0:0:0:
332,244,38388,1,0,0:0:0:0:
408,184,38559,2,0,P|412:152|408:120,1,62.4750011916161,2|2,0:0|0:0,0:0:0:0:
348,44,38899,2,0,L|288:60,1,62.4750011916161,10|6,0:0|0:0,0:0:0:0:
208,116,39240,5,0,0:0:0:0:
124,72,39411,2,0,P|120:41|123:10,1,62.4750011916161,0|10,0:0|0:0,0:0:0:0:
208,116,39752,2,0,L|188:240,1,124.950002383232,2|0,0:0|0:0,0:0:0:0:
112,296,40263,1,10,0:0:0:0:
184,356,40434,6,0,B|248:344|248:380|312:360,1,124.950002383232,2|0,0:0|0:0,0:0:0:0:
384,300,40945,1,8,0:0:0:0:
320,228,41115,1,2,0:0:0:0:
412,204,41286,2,0,P|416:168|412:140,1,62.4750011916161,0|2,0:0|0:0,0:0:0:0:
352,68,41627,1,10,0:0:0:0:
352,68,41797,6,0,L|216:84,1,124.950002383232,2|0,0:0|0:0,0:0:0:0:
148,32,42309,1,8,0:0:0:0:
72,88,42479,2,0,B|76:120|76:120|68:152,1,62.4750011916161,2|0,0:0|0:0,0:0:0:0:
4,216,42820,1,2,0:0:0:0:
68,284,42990,1,10,0:0:0:0:
136,215,43161,6,0,P|197:214|250:246,1,124.950002383232,6|0,0:0|0:0,0:0:0:0:
320,312,43672,1,10,0:0:0:0:
396,252,43843,1,2,0:0:0:0:
320,192,44013,2,0,L|316:156,3,31.237500595808,4|4|4|4,0:3|0:3|0:3|0:3,0:0:0:0:
352,128,44354,2,0,L|348:96,3,31.237500595808,4|4|4|4,0:3|0:3|0:3|0:3,0:0:0:0:
380,60,44695,5,6,0:0:0:0:
296,24,44865,2,0,B|256:48|256:48|152:20,1,147,2|2,0:0|0:0,0:0:0:0:
72,72,45377,1,2,0:0:0:0:
136,144,45547,2,0,P|136:180|120:216,1,73.5,0|10,0:0|0:0,0:0:0:0:
40,264,45888,1,4,0:3:0:0:
40,264,47422,5,6,0:0:0:0:
108,332,47593,2,0,L|260:312,1,147,2|2,0:0|0:0,0:0:0:0:
320,244,48104,1,2,0:0:0:0:
320,244,48274,2,0,P|312:204|320:168,1,73.5,0|10,0:0|0:0,0:0:0:0:
388,108,48615,1,4,0:3:0:0:
388,108,50149,5,6,0:0:0:0:
328,32,50320,2,0,B|288:52|288:52|188:24,1,147,2|2,0:0|0:0,0:0:0:0:
108,80,50831,1,2,0:0:0:0:
108,80,51002,2,0,L|120:156,1,73.5,0|10,0:0|0:0,0:0:0:0:
64,228,51343,1,4,0:3:0:0:
63,228,52877,6,0,P|132:209|192:248,1,147,6|8,0:0|0:0,0:0:0:0:
256,316,53388,1,8,0:0:0:0:
336,264,53559,2,0,L|352:192,1,73.5,8|8,0:0|0:0,0:0:0:0:
272,96,53899,2,0,L|256:168,1,73.5,8|8,0:0|0:0,0:0:0:0:
168,228,54240,6,0,L|176:264,2,36.75,4|4|4,0:3|0:3|0:3,0:0:0:0:
104,156,54581,2,0,L|112:120,2,36.75,4|4|4,0:3|0:3|0:3,0:0:0:0:
72,248,54922,1,4,0:3:0:0:
8,172,55093,1,8,0:0:0:0:
72,248,55263,2,0,P|72:284|56:324,1,73.5,8|8,0:0|0:0,0:0:0:0:
136,372,55604,6,0,L|288:352,1,147,6|10,0:0|0:0,0:0:0:0:
352,284,56115,1,2,0:0:0:0:
351,284,56286,2,0,P|372:214|351:144,1,147,2|10,0:0|0:0,0:0:0:0:
280,76,56797,6,0,L|124:92,1,147,2|2,0:0|0:0,0:0:0:0:
52,44,57309,1,10,0:0:0:0:
0,124,57479,2,0,P|0:160|8:196,1,73.5,2|0,0:0|0:0,0:0:0:0:
80,256,57820,1,2,0:0:0:0:
80,256,57990,2,0,L|192:240,1,110.25,10|0,0:0|0:0,0:0:0:0:
216,236,58331,6,0,P|199:164|216:94,2,147,2|10|2,0:0|0:0|0:0,0:0:0:0:
288,300,59184,1,0,0:0:0:0:
288,300,59354,2,0,L|368:288,1,73.5,10|2,0:0|0:0,0:0:0:0:
436,228,59695,6,0,P|423:156|441:85,1,147,2|10,0:0|0:0,0:0:0:0:
372,16,60206,1,0,0:3:0:0:
296,84,60377,2,0,L|304:124,2,36.75,4|0|4,0:3|0:0|0:3,0:3:0:0:
216,132,60718,2,0,L|224:172,2,36.75,12|0|12,0:3|0:3|0:3,0:3:0:0:
200,23,61059,6,0,P|149:44|96:34,1,110.25,2|2,0:0|0:0,0:0:0:0:
64,24,61399,2,0,L|76:104,1,73.5,10|0,0:0|0:0,0:0:0:0:
20,188,61740,2,0,B|36:240|36:240|16:300,2,110.25,2|2|0,0:0|0:0|0:0,0:0:0:0:
116,188,62422,6,0,L|232:204,1,110.25,2|2,0:0|0:0,0:0:0:0:
256,203,62763,2,0,P|248:239|252:276,1,73.5,10|0,0:0|0:0,0:0:0:0:
344,244,63104,2,0,L|460:228,2,110.25,2|2|0,0:0|0:0|0:0,0:0:0:0:
279,164,63786,6,0,P|208:165|161:111,1,147,2|8,0:0|0:0,0:0:0:0:
244,80,64297,1,2,0:0:0:0:
244,80,64468,2,0,L|228:232,1,147,2|10,0:0|0:0,0:0:0:0:
156,296,64979,1,0,0:0:0:0:
224,360,65149,6,0,P|264:360|296:352,1,73.5,2|2,0:0|0:0,0:0:0:0:
428,264,65490,2,0,P|388:264|356:272,1,73.5,10|2,0:0|0:0,0:0:0:0:
280,208,65831,2,0,L|288:168,3,36.75,2|0|4|4,0:0|0:0|0:3|0:3,0:0:0:0:
296,144,66172,2,0,L|224:156,1,73.5,4|4,0:3|0:3,0:0:0:0:
147,231,66513,6,0,P|120:165|137:95,1,147,6|10,0:0|0:0,0:0:0:0:
216,28,67024,1,2,0:0:0:0:
216,28,67195,2,0,L|368:44,1,147,2|10,0:0|0:0,0:0:0:0:
472,24,67706,6,0,B|448:64|448:64|472:172,1,147,2|2,0:0|0:0,0:0:0:0:
496,256,68218,1,8,0:0:0:0:
427,324,68388,2,0,P|355:323|297:281,1,147,2|2,0:0|0:0,0:0:0:0:
256,188,68899,1,10,0:0:0:0:
256,188,69240,6,0,P|184:192|132:243,1,147,2|8,0:0|0:0,0:0:0:0:
36,232,69752,1,0,0:0:0:0:
4,124,69922,2,0,P|75:133|137:96,1,147,2|10,0:0|0:0,0:0:0:0:
204,32,70434,1,2,0:0:0:0:
276,96,70604,2,0,L|264:172,1,73.5,2|2,0:0|0:0,0:0:0:0:
168,200,70945,6,0,L|184:312,1,110.25,10|0,0:0|0:0,0:0:0:0:
192,344,71286,1,2,0:0:0:0:
272,280,71456,2,0,L|264:236,2,36.75,8|8|8,0:0|0:0|0:0,0:0:0:0:
335,351,71797,1,4,0:3:0:0:
335,351,71882,1,4,0:3:0:0:
335,351,71968,6,0,P|390:352|438:325,1,110.25,2|2,0:0|0:0,0:0:0:0:
460,304,72309,2,0,L|440:220,1,73.5,10|0,0:0|0:0,0:0:0:0:
368,140,72649,2,0,L|352:260,2,110.25,0|2|0,0:0|0:0|0:0,0:0:0:0:
312,55,73331,6,0,P|263:80|209:74,1,110.25,2|2,0:0|0:0,0:0:0:0:
176,56,73672,2,0,L|188:136,1,73.5,8|0,0:0|0:0,0:0:0:0:
127,208,74013,2,0,P|74:213|29:183,2,110.25,0|2|0,0:0|0:0|0:0,0:0:0:0:
152,295,74695,6,0,P|221:282|275:329,1,147,2|8,0:0|0:0,0:0:0:0:
360,364,75206,1,2,0:0:0:0:
436,300,75377,2,0,B|408:264|408:264|424:164,1,147,2|10,0:0|0:0,0:0:0:0:
448,72,75888,1,0,0:0:0:0:
368,16,76059,6,0,L|332:24,3,36.75,8|8|8|8,0:0|0:0|0:0|0:0,0:0:0:0:
304,56,76399,2,0,L|264:48,3,36.75,8|8|8|8,0:0|0:0|0:0|0:0,0:0:0:0:
223,39,76740,2,0,P|241:110|218:179,2,147,4|4|4,0:3|0:3|0:3,0:0:0:0:
24,136,78615,5,0,0:0:0:0:
24,136,78786,2,0,L|36:216,1,73.5,0|0,0:0|0:0,0:0:0:0:
104,276,79297,1,0,0:0:0:0:
104,276,79468,5,2,0:0:0:0:
176,216,79638,1,2,0:0:0:0:
188,308,79809,1,2,0:0:0:0:
176,216,79979,6,0,L|328:236,1,147,6|0,0:0|0:0,0:0:0:0:
388,316,80490,1,10,0:0:0:0:
388,316,80661,2,0,P|421:252|408:181,1,147,2|2,0:0|0:0,0:0:0:0:
344,108,81172,1,10,0:0:0:0:
344,108,81343,6,0,L|192:128,1,147,2|0,0:0|0:0,0:0:0:0:
116,180,81854,1,10,0:0:0:0:
36,128,82024,1,0,0:0:0:0:
32,224,82195,2,0,L|44:304,1,73.5,2|2,0:0|0:0,0:0:0:0:
108,364,82536,1,10,0:0:0:0:
184,295,82706,6,0,P|256:294|314:337,1,147,2|0,0:0|0:0,0:0:0:0:
404,368,83218,1,10,0:0:0:0:
480,312,83388,2,0,L|460:156,1,147,2|2,0:0|0:0,0:0:0:0:
400,96,83899,1,10,0:0:0:0:
328,160,84070,6,0,P|288:160|252:144,1,73.5,2|0,0:0|0:0,0:0:0:0:
192,80,84411,1,0,0:0:0:0:
192,80,84581,2,0,P|155:78|119:88,1,73.5,10|0,0:0|0:0,0:0:0:0:
36,140,84922,1,2,0:0:0:0:
36,140,85093,2,0,L|-4:128,2,36.75,2|0|10,0:0|0:0|0:0,0:0:0:0:
96,220,85434,6,0,L|248:200,1,147,6|0,0:0|0:0,0:0:0:0:
315,255,85945,1,10,0:0:0:0:
315,255,86115,2,0,P|283:191|299:121,1,147,2|2,0:0|0:0,0:0:0:0:
376,60,86627,1,10,0:0:0:0:
460,104,86797,2,0,P|492:168|476:238,1,147,2|0,0:0|0:0,0:0:0:0:
408,296,87309,6,0,L|324:280,1,73.5,10|0,0:0|0:0,0:0:0:0:
272,216,87649,1,2,0:0:0:0:
200,280,87820,1,2,0:0:0:0:
128,216,87990,1,10,0:0:0:0:
128,216,88076,1,0,0:0:0:0:
128,216,88161,6,0,B|148:172|148:172|120:72,1,147,6|0,0:0|0:0,0:0:0:0:
200,20,88672,2,0,L|276:32,1,73.5,10|0,0:0|0:0,0:0:0:0:
344,100,89013,1,10,0:3:0:0:
436,71,89184,2,0,P|444:36|436:0,1,73.5,2|10,0:0|0:0,0:0:0:0:
344,100,89524,6,0,L|360:256,2,147,10|10|10,0:0|0:0|0:0,0:0:0:0:
280,32,90377,1,14,0:0:0:0:
