osu file format v14

[General]
AudioFilename: forandrew.mp3
AudioLeadIn: 0
PreviewTime: 55506
Countdown: 0
SampleSet: Normal
StackLeniency: 0.7
Mode: 0
LetterboxInBreaks: 0
WidescreenStoryboard: 1

[Editor]
DistanceSpacing: 0.8
BeatDivisor: 4
GridSize: 16
TimelineZoom: 1.6

[Metadata]
Title:Routine
TitleUnicode:Routine
Artist:Silent Siren
ArtistUnicode:サイレントサイレン
Creator:sukiNathan
Version:Normal
Source:
Tags:jpop j-pop aina yamauchi yukako kurosaka hinako umemura sumire yoshida ayana sōgawa sogawa giralda
BeatmapID:881354
BeatmapSetID:396745

[Difficulty]
HPDrainRate:4
CircleSize:3.5
OverallDifficulty:5
ApproachRate:5
SliderMultiplier:1.1
SliderTickRate:1

[Events]
//Background and Video events
0,0,"adoredesu.jpg",0,0
//Break Periods
2,172181,177800
//Storyboard Layer 0 (Background)
//Storyboard Layer 1 (Fail)
//Storyboard Layer 2 (Pass)
//Storyboard Layer 3 (Foreground)
//Storyboard Sound Samples

[TimingPoints]
1046,340.909090909091,4,2,0,60,1,0
2409,-100,4,2,0,60,0,0
6500,-100,4,1,1,40,0,0
7864,-100,4,1,1,50,0,0
9227,-100,4,1,1,60,0,0
11273,-100,4,2,0,60,0,0
11784,-100,4,1,1,70,0,0
22693,-100,4,2,1,60,0,0
43830,-100,4,2,1,70,0,0
44682,-100,4,2,1,60,0,0
55591,-100,4,1,1,70,0,1
61046,-100,4,1,1,70,0,1
63773,-100,4,1,1,70,0,1
71955,-100,4,1,1,70,0,1
74682,-100,4,1,1,70,0,1
77409,-100,4,2,1,70,0,0
79455,-100,4,2,0,60,0,0
79966,-100,4,1,1,70,0,0
90875,-100,4,2,1,65,0,0
112864,-100,4,2,1,60,0,0
123773,-100,4,1,1,70,0,1
129227,-100,4,1,1,70,0,1
131955,-100,4,1,1,70,0,1
140136,-100,4,1,1,70,0,1
142864,-100,4,1,1,70,0,1
145591,-100,4,1,1,60,0,1
146955,-100,4,1,1,70,0,1
148318,-100,4,2,0,40,0,0
149000,340.909090909091,4,1,1,70,1,1
149085,-100,4,1,1,70,0,0
159227,-100,4,1,1,70,0,0
168090,-100,4,1,1,70,0,1
168432,-100,4,1,1,70,0,1
168773,-100,4,1,1,70,0,1
169114,-100,4,1,1,70,0,1
169455,-100,4,1,1,70,0,1
170136,-100,4,1,1,70,0,1
170818,-100,4,1,1,70,0,0
179000,-100,4,1,1,70,0,0
181727,-100,4,1,1,70,0,1
187181,-100,4,1,1,70,0,1
189909,-100,4,1,1,70,0,1
198090,-100,4,1,1,70,0,1
200818,-100,4,1,1,70,0,1
209000,-100,4,1,1,70,0,1
211727,-100,4,1,1,70,0,1
219909,-100,4,1,1,70,0,1
222636,-100,4,1,1,70,0,1
225363,-100,4,1,1,70,0,0
227238,-100,4,2,0,60,0,0
227920,-100,4,1,1,70,0,0
238296,340.909090909091,4,1,1,70,1,0
238296,-100,4,1,1,70,0,0

[Colours]
Combo1 : 249,113,140
Combo2 : 250,56,62
Combo3 : 77,147,253
Combo4 : 88,220,226

[HitObjects]
363,80,1046,6,0,P|428:59|471:66,2,110,6|0|0,0:0|0:0|0:0,0:0:0:0:
328,161,2068,1,0,0:0:0:0:
268,225,2409,2,0,P|203:246|160:239,2,110,2|0|2,0:0|0:0|0:0,0:0:0:0:
328,161,3432,1,0,0:0:0:0:
387,226,3773,6,0,L|400:360,2,110,2|0|0,0:0|0:0|0:0,0:0:0:0:
328,161,4796,1,0,0:0:0:0:
255,210,5136,2,0,L|145:199,1,110,2|0,0:0|0:0,0:0:0:0:
110,118,5818,2,0,P|62:169|67:227,1,110,0|2,0:0|0:0,0:0:0:0:
59,294,6500,6,0,B|187:301,1,110,0|0,1:0|0:0,0:0:0:0:
240,256,7182,1,8,0:0:0:0:
283,332,7523,1,8,0:0:0:0:
353,279,7864,2,0,B|481:272,1,110,8|8,0:0|0:0,0:0:0:0:
472,229,8375,1,8,0:0:0:0:
474,184,8546,2,0,L|469:66,1,110,8|8,0:0|0:0,0:0:0:0:
388,36,9227,6,0,L|379:105,1,55,8|8,0:0|0:0,0:0:0:0:
364,131,9568,2,0,P|330:127|309:117,1,55,8|8,0:0|0:0,0:0:0:0:
280,86,9909,2,0,P|206:84|171:117,1,110,8|8,0:0|0:0,0:0:0:0:
243,165,10591,2,0,L|252:235,1,55,2|2,0:0|0:0,0:0:0:0:
258,262,10932,1,6,0:0:0:0:
334,305,11273,2,0,L|422:277,2,55,2|2|2,0:0|0:0|0:0,0:0:0:0:
307,343,11784,6,0,P|241:349|163:374,1,110,6|2,0:0|0:0,0:0:0:0:
154,357,12296,1,8,0:0:0:0:
67,326,12636,2,0,P|60:366|64:385,2,55,2|2|8,0:0|0:0|0:0,0:0:0:0:
83,284,13148,2,0,P|87:211|75:145,1,110,2|2,0:0|0:0,0:0:0:0:
46,148,13659,1,8,0:0:0:0:
103,81,14000,2,0,P|101:53|97:26,2,55,2|2|8,0:0|0:0|0:0,0:0:0:0:
132,114,14511,6,0,P|218:133|262:98,1,110,2|2,0:0|0:0,0:0:0:0:
267,97,15023,1,8,0:0:0:0:
349,116,15364,2,0,L|349:171,1,55,2|2,0:0|0:0,0:0:0:0:
348,215,15705,1,8,0:0:0:0:
346,258,15875,2,0,P|293:246|244:269,1,110,2|2,0:0|0:0,0:0:0:0:
211,297,16386,1,8,0:0:0:0:
148,235,16727,2,0,P|123:279|122:301,2,55,2|2|8,0:0|0:0|0:0,0:0:0:0:
175,207,17239,6,0,L|168:57,1,110,2|2,0:0|0:0,0:0:0:0:
168,53,17750,1,8,0:0:0:0:
255,61,18091,2,0,L|261:-10,2,55,2|2|8,0:0|0:0|0:0,0:0:0:0:
260,104,18602,2,0,L|412:94,1,110,2|2,0:0|0:0,0:0:0:0:
414,95,19114,1,8,0:0:0:0:
453,173,19455,2,0,P|461:234|448:258,1,55,2|2,0:0|0:0,0:0:0:0:
448,267,19796,1,8,0:0:0:0:
407,284,19966,6,0,L|297:291,1,110,2|2,0:0|0:0,0:0:0:0:
253,295,20477,1,8,0:0:0:0:
168,319,20818,2,0,P|163:288|170:262,1,55,2|2,0:0|0:0,0:0:0:0:
183,223,21159,1,8,0:0:0:0:
216,193,21330,2,0,B|276:168|265:215|356:185,1,110,6|2,0:0|0:0,0:0:0:0:
307,106,22011,1,10,0:0:0:0:
305,61,22182,2,0,P|334:64|384:65,2,55,10|2|2,0:0|0:0|0:0,0:0:0:0:
283,22,22693,6,0,P|226:21|169:27,1,110,6|2,0:0|0:0,0:0:0:0:
130,38,23205,1,8,0:0:0:0:
49,72,23546,2,0,P|44:50|47:10,2,55,2|2|8,0:0|0:0|0:0,0:0:0:0:
68,111,24057,1,2,0:0:0:0:
134,168,24398,2,0,P|135:195|130:222,1,55,2|8,0:0|0:0,0:0:0:0:
129,266,24739,2,0,L|281:259,1,110,2|2,0:0|0:0,0:0:0:0:
282,258,25250,1,8,0:0:0:0:
326,255,25421,6,0,P|349:186|325:128,1,110,2|2,0:0|0:0,0:0:0:0:
329,109,25932,1,8,0:0:0:0:
280,35,26273,2,0,P|353:22|371:27,2,55,2|2|8,0:0|0:0|0:0,0:0:0:0:
251,68,26784,2,0,L|94:66,1,110,2|2,0:0|0:0,0:0:0:0:
96,63,27296,1,8,0:0:0:0:
20,107,27636,2,0,L|3:12,2,55,2|2|8,0:0|0:0|0:0,0:0:0:0:
42,145,28148,6,0,L|33:271,1,110,2|2,0:0|0:0,0:0:0:0:
30,298,28659,1,8,0:0:0:0:
117,308,29000,2,0,L|122:368,2,55,2|2|8,0:0|0:0|0:0,0:0:0:0:
133,267,29511,2,0,P|241:266|271:285,1,110,2|2,0:0|0:0,0:0:0:0:
273,293,30023,1,8,0:0:0:0:
356,321,30364,2,0,P|411:322|427:315,2,55,2|2|8,0:0|0:0|0:0,0:0:0:0:
356,276,30875,6,0,L|352:162,1,110,2|0,0:0|0:0,0:0:0:0:
349,122,31386,1,8,0:0:0:0:
326,36,31727,2,0,P|363:33|395:44,2,55,2|2|8,0:0|0:0|0:0,0:0:0:0:
287,58,32239,2,0,P|215:70|176:64,1,110,2|2,0:0|0:0,0:0:0:0:
139,44,32750,1,8,0:0:0:0:
98,122,33091,2,0,L|97:206,1,55,2|0,1:0|1:0,0:0:0:0:
97,221,33432,1,8,1:0:0:0:
97,264,33602,6,0,P|158:289|215:276,1,110,6|2,0:0|0:0,0:0:0:0:
236,257,34114,1,8,0:0:0:0:
317,291,34455,2,0,L|310:370,2,55,2|2|8,0:0|0:0|0:0,0:0:0:0:
322,247,34966,2,0,L|309:114,1,110,2|2,0:0|0:0,0:0:0:0:
303,94,35477,1,8,0:0:0:0:
219,67,35818,2,0,L|225:12,2,55,2|2|8,0:0|0:0|0:0,0:0:0:0:
186,97,36330,6,0,P|138:123|57:114,1,110,2|2,0:0|0:0,0:0:0:0:
41,109,36841,1,8,0:0:0:0:
46,196,37182,2,0,P|75:205|114:205,2,55,2|2|8,0:0|0:0|0:0,0:0:0:0:
28,236,37693,2,0,P|22:292|46:355,1,110,2|2,0:0|0:0,0:0:0:0:
77,363,38205,1,8,0:0:0:0:
162,342,38546,2,0,P|198:342|229:345,1,55,2|2,0:0|0:0,0:0:0:0:
258,358,38886,1,8,0:0:0:0:
301,362,39057,6,0,P|340:288|333:229,1,110,6|2,0:0|0:0,0:0:0:0:
330,220,39568,1,8,0:0:0:0:
331,131,39909,2,0,L|403:117,2,55,2|2|8,0:0|0:0|0:0,0:0:0:0:
286,136,40421,2,0,L|174:113,1,110,2|2,0:0|0:0,0:0:0:0:
135,104,40932,1,8,0:0:0:0:
53,137,41273,2,0,L|46:67,2,55,2|2|8,0:0|0:0|0:0,0:0:0:0:
39,178,41784,6,0,P|29:240|87:315,1,110,2|2,0:0|0:0,0:0:0:0:
83,306,42296,1,8,0:0:0:0:
170,312,42636,2,0,L|224:308,2,55,2|2|8,0:0|0:0|0:0,0:0:0:0:
160,268,43148,6,0,B|164:128,1,110,6|2,0:0|0:0,0:0:0:0:
165,113,43659,1,8,0:0:0:0:
227,51,44000,2,0,P|255:47|280:53,1,55,0|0,1:0|1:0,0:0:0:0:
321,69,44341,2,0,P|349:73|374:66,1,55,8|8,1:0|1:0,0:0:0:0:
413,44,44682,6,0,B|455:73|455:73|468:163,1,110,6|8,0:0|0:0,0:0:0:0:
466,175,45193,1,2,0:0:0:0:
427,195,45364,2,0,B|385:224|385:224|372:314,1,110,2|8,0:0|0:0,0:0:0:0:
368,325,45875,1,6,0:0:0:0:
45,93,47409,6,0,L|171:75,1,110,6|8,0:0|0:0,0:0:0:0:
197,71,47921,1,2,0:0:0:0:
240,65,48091,2,0,B|271:112|271:112|259:184,1,110,2|8,0:0|0:0,0:0:0:0:
255,208,48602,1,6,0:0:0:0:
428,327,50136,6,0,B|375:346|375:346|307:333,1,110,6|8,0:0|0:0,0:0:0:0:
280,319,50648,1,2,0:0:0:0:
238,304,50818,2,0,B|185:285|185:285|117:298,1,110,2|8,0:0|0:0,0:0:0:0:
89,305,51330,1,6,0:0:0:0:
117,69,52864,6,0,B|165:70|165:70|179:83|179:83|250:87,1,110,6|8,0:0|0:0,0:0:0:0:
293,34,53546,2,0,P|305:77|297:105,1,55,8|2,0:0|0:0,0:0:0:0:
293,129,53886,2,0,P|281:172|289:200,1,55,8|2,0:0|0:0,0:0:0:0:
305,219,54227,5,2,0:0:0:0:
374,273,54568,1,2,0:0:0:0:
292,307,54909,1,0,0:0:0:0:
248,301,55080,2,0,L|241:356,2,55,8|8|8,0:0|0:0|0:0,0:0:0:0:
221,265,55591,6,0,P|189:215|202:157,1,110,6|8,0:0|0:0,0:0:0:0:
242,93,56273,2,0,P|192:61|134:74,1,110,2|8,0:0|0:0,0:0:0:0:
101,77,56784,2,0,L|96:131,1,55,0|2,0:0|0:0,0:0:0:0:
99,175,57125,2,0,L|103:229,1,55,0|8,0:0|0:0,0:0:0:0:
99,273,57466,2,0,L|43:269,2,55,0|2|0,0:0|0:0|0:0,0:0:0:0:
135,298,57977,1,8,0:0:0:0:
201,356,58318,1,2,0:0:0:0:
239,274,58659,6,0,P|233:207|227:198,1,55,12|0,0:0|0:0,0:0:0:0:
210,186,59000,2,0,P|216:119|222:110,1,55,2|0,0:0|0:0,0:0:0:0:
239,99,59341,1,8,0:0:0:0:
327,107,59682,2,0,P|392:82|425:26,2,110,2|8|2,0:0|0:0|0:0,0:0:0:0:
242,82,60705,2,0,P|210:81|178:92,1,55,2|8,0:0|0:0,0:0:0:0:
143,96,61046,6,0,B|103:85|103:85|63:93,2,82.5,6|0|0,0:0|2:0|0:0,0:0:0:0:
134,139,61727,2,0,P|118:191|133:243,1,110,6|8,0:0|0:0,0:0:0:0:
168,270,62239,1,0,0:0:0:0:
207,289,62409,6,0,B|219:328|219:328|210:369,2,82.5,6|0|0,0:0|2:0|0:0,0:0:0:0:
245,267,63091,2,0,P|297:252|348:268,1,110,6|8,0:0|0:0,0:0:0:0:
436,278,63773,6,0,P|451:226|437:174,1,110,6|8,0:0|0:0,0:0:0:0:
397,152,64284,1,0,0:0:0:0:
361,126,64455,2,0,P|345:74|359:22,1,110,6|8,0:0|0:0,0:0:0:0:
271,35,65136,6,0,P|183:44|167:40,1,55,6|0,0:0|0:0,0:0:0:0:
174,36,65477,2,0,P|86:27|70:31,1,55,8|0,0:0|0:0,0:0:0:0:
90,56,65818,2,0,B|108:122|69:99|89:178,1,110,6|8,0:0|0:0,0:0:0:0:
85,208,66330,1,2,0:0:0:0:
116,238,66500,6,0,L|271:241,1,110,6|8,0:0|0:0,0:0:0:0:
255,323,67182,2,0,L|364:320,1,110,2|8,0:0|0:0,0:0:0:0:
408,313,67693,2,0,P|416:240|412:227,1,55,0|2,0:0|0:0,0:0:0:0:
396,221,68034,2,0,P|388:148|392:135,1,55,0|8,0:0|0:0,0:0:0:0:
383,123,68375,2,0,L|463:126,2,55,0|2|0,0:0|0:0|0:0,0:0:0:0:
340,111,68886,1,8,0:0:0:0:
268,162,69227,5,2,0:0:0:0:
189,122,69568,2,0,P|180:148|189:189,1,55,12|0,0:0|0:0,0:0:0:0:
176,219,69909,2,0,L|110:213,1,55,2|0,0:0|0:0,0:0:0:0:
77,211,70250,1,8,0:0:0:0:
72,123,70591,2,0,L|63:-4,2,110,2|8|2,0:0|0:0|0:0,0:0:0:0:
77,211,71614,2,0,L|141:219,1,55,8|2,0:0|0:0,0:0:0:0:
174,228,71955,6,0,B|192:177|192:177|179:122,1,110,6|8,0:0|0:0,0:0:0:0:
217,101,72466,1,0,0:0:0:0:
261,106,72636,2,0,L|388:98,1,110,6|8,0:0|0:0,0:0:0:0:
415,97,73148,1,0,0:0:0:0:
458,92,73318,6,0,B|467:52|467:52|457:11,2,82.5,6|0|0,0:0|2:0|0:0,0:0:0:0:
480,129,74000,2,0,L|483:253,1,110,6|8,0:0|0:0,0:0:0:0:
489,326,74682,6,0,P|423:322|381:343,1,110,6|8,0:0|0:0,0:0:0:0:
341,351,75193,1,0,0:0:0:0:
297,343,75364,2,0,P|231:339|189:360,1,110,6|8,0:0|0:0,0:0:0:0:
108,331,76046,6,0,L|113:276,1,55,6|0,0:0|0:0,0:0:0:0:
130,235,76386,2,0,L|124:180,1,55,8|0,0:0|0:0,0:0:0:0:
116,136,76727,2,0,B|168:118|168:118|226:138,1,110,8|2,0:0|0:0,0:0:0:0:
284,196,77409,5,6,1:0:0:0:
256,192,77580,12,0,78773,0:0:0:0:
446,102,79455,6,0,L|451:37,2,55,2|2|2,0:0|0:0|0:0,0:0:0:0:
438,145,79966,6,0,L|284:153,1,110,6|2,0:0|0:0,0:0:0:0:
284,155,80477,1,8,0:0:0:0:
212,104,80818,2,0,L|217:30,2,55,2|2|8,0:0|0:0|0:0,0:0:0:0:
185,139,81330,2,0,P|116:154|70:122,1,110,2|2,0:0|0:0,0:0:0:0:
57,101,81841,1,8,0:0:0:0:
18,180,82182,2,0,L|21:248,1,55,2|2,0:0|0:0,0:0:0:0:
24,278,82523,1,8,0:0:0:0:
29,321,82693,6,0,P|98:336|144:304,1,110,6|2,0:0|0:0,0:0:0:0:
165,292,83205,1,8,0:0:0:0:
243,252,83546,2,0,P|251:281|248:312,2,55,2|2|8,0:0|0:0|0:0,0:0:0:0:
212,220,84057,6,0,L|213:88,1,110,2|2,0:0|0:0,0:0:0:0:
215,65,84568,1,8,0:0:0:0:
294,103,84909,2,0,L|372:92,1,55,2|2,0:0|0:0,0:0:0:0:
392,89,85250,1,8,0:0:0:0:
435,80,85421,6,0,P|486:152|470:218,1,110,6|2,0:0|0:0,0:0:0:0:
487,214,85932,1,8,0:0:0:0:
429,280,86273,2,0,P|431:316|439:350,2,55,2|2|8,0:0|0:0|0:0,0:0:0:0:
400,245,86784,2,0,L|243:268,1,110,2|2,0:0|0:0,0:0:0:0:
246,264,87296,2,0,L|179:256,1,55,8|2,0:0|0:0,0:0:0:0:
147,251,87636,1,2,0:0:0:0:
115,333,87977,1,8,0:0:0:0:
75,314,88148,6,0,P|54:257|64:206,1,110,6|2,0:0|0:0,0:0:0:0:
85,171,88659,1,8,0:0:0:0:
39,95,89000,2,0,P|61:85|120:90,1,55,2|2,0:0|0:0,0:0:0:0:
134,91,89341,1,0,0:0:0:0:
177,84,89511,6,0,P|257:96|311:127,1,110,6|2,0:0|0:0,0:0:0:0:
350,165,90193,1,2,0:0:0:0:
393,159,90364,2,0,L|386:83,2,55,2|2|2,0:0|0:0|0:0,0:0:0:0:
436,154,90875,6,0,L|446:263,1,110,6|2,0:0|0:0,0:0:0:0:
451,309,91386,1,8,0:0:0:0:
363,300,91727,2,0,L|262:295,1,55,2|2,0:0|0:0,0:0:0:0:
263,294,92068,1,8,0:0:0:0:
219,290,92239,2,0,P|182:239|208:169,1,110,2|2,0:0|0:0,0:0:0:0:
215,160,92750,1,8,0:0:0:0:
200,73,93091,2,0,L|120:60,2,55,2|2|8,0:0|0:0|0:0,0:0:0:0:
244,72,93602,6,0,L|397:54,1,110,2|2,0:0|0:0,0:0:0:0:
397,54,94114,1,8,0:0:0:0:
373,138,94455,2,0,P|367:195|370:211,1,55,2|2,0:0|0:0,0:0:0:0:
373,235,94796,1,8,0:0:0:0:
382,277,94966,2,0,P|312:313|251:303,1,110,2|2,0:0|0:0,0:0:0:0:
239,320,95477,1,8,0:0:0:0:
184,250,95818,2,0,L|115:259,2,55,2|2|8,0:0|0:0|0:0,0:0:0:0:
200,208,96330,6,0,L|204:85,1,110,2|2,0:0|0:0,0:0:0:0:
206,54,96841,1,8,0:0:0:0:
285,91,97182,2,0,P|319:95|352:86,1,55,2|2,0:0|0:0,0:0:0:0:
381,80,97523,1,8,0:0:0:0:
422,93,97693,2,0,P|456:153|455:195,1,110,2|2,0:0|0:0,0:0:0:0:
438,233,98205,1,8,0:0:0:0:
363,280,98546,2,0,L|360:355,2,55,2|2|8,0:0|0:0|0:0,0:0:0:0:
325,256,99057,6,0,L|174:271,1,110,2|2,0:0|0:0,0:0:0:0:
143,317,99739,2,0,P|129:254|132:245,1,55,0|2,0:0|0:0,0:0:0:0:
134,222,100080,2,0,P|148:159|145:150,1,55,2|8,0:0|0:0,0:0:0:0:
147,126,100421,2,0,P|217:122|277:145,1,110,2|2,0:0|0:0,0:0:0:0:
295,148,100932,1,8,0:0:0:0:
381,130,101273,2,0,P|382:162|377:184,1,55,2|0,1:0|1:0,0:0:0:0:
369,227,101614,1,8,1:0:0:0:
349,266,101784,6,0,P|295:278|241:273,1,110,6|2,0:0|0:0,0:0:0:0:
211,239,102296,1,8,0:0:0:0:
123,239,102636,2,0,L|103:327,2,55,2|2|8,0:0|0:0|0:0,0:0:0:0:
139,197,103148,2,0,P|151:143|146:89,1,110,2|2,0:0|0:0,0:0:0:0:
126,49,103659,1,8,0:0:0:0:
212,30,104000,2,0,P|259:29|285:40,1,55,2|2,0:0|0:0,0:0:0:0:
307,47,104341,1,8,0:0:0:0:
345,67,104511,6,0,L|355:200,1,110,2|2,0:0|0:0,0:0:0:0:
359,220,105023,1,8,0:0:0:0:
370,307,105364,2,0,L|453:321,2,55,2|2|8,0:0|0:0|0:0,0:0:0:0:
326,300,105875,2,0,P|248:307|198:334,1,110,2|2,0:0|0:0,0:0:0:0:
182,343,106386,1,8,0:0:0:0:
103,302,106727,2,0,P|97:266|99:227,1,55,2|2,0:0|0:0,0:0:0:0:
113,206,107068,1,8,0:0:0:0:
141,172,107239,6,0,L|250:175,1,110,2|2,0:0|0:0,0:0:0:0:
295,175,107750,1,8,0:0:0:0:
377,143,108091,2,0,L|363:63,2,55,2|2|8,0:0|0:0|0:0,0:0:0:0:
386,186,108602,2,0,P|395:251|388:304,1,110,2|2,0:0|0:0,0:0:0:0:
375,336,109114,1,8,0:0:0:0:
293,303,109455,2,0,P|233:291|219:297,1,55,2|2,0:0|0:0,0:0:0:0:
201,308,109796,1,8,0:0:0:0:
157,301,109966,6,0,P|127:252|139:180,1,110,2|2,0:0|0:0,0:0:0:0:
148,161,110477,1,8,0:0:0:0:
187,140,110648,2,0,L|178:80,2,55,0|2|2,0:0|0:0|0:0,0:0:0:0:
230,143,111159,1,8,0:0:0:0:
265,169,111330,2,0,P|347:169|406:136,1,110,2|2,0:0|0:0,0:0:0:0:
404,129,111841,1,8,0:0:0:0:
468,188,112182,2,0,L|479:255,1,55,8|0,1:0|1:0,0:0:0:0:
474,286,112523,2,0,L|463:353,1,55,10|2,1:0|1:0,0:0:0:0:
424,356,112864,6,0,B|370:372|370:372|279:342,1,110,6|8,0:0|0:0,0:0:0:0:
279,336,113375,1,2,0:0:0:0:
246,306,113546,2,0,L|237:155,1,110,2|8,0:0|0:0,0:0:0:0:
237,152,114057,1,6,0:0:0:0:
466,80,115591,6,0,L|475:198,1,110,6|8,0:0|0:0,0:0:0:0:
480,233,116102,1,2,0:0:0:0:
482,277,116273,2,0,B|428:266|428:266|355:294,1,110,2|8,0:0|0:0,0:0:0:0:
336,302,116784,1,6,0:0:0:0:
54,295,118318,6,0,B|38:241|38:241|56:184,1,110,6|8,0:0|0:0,0:0:0:0:
76,151,118830,1,2,0:0:0:0:
118,139,119000,2,0,B|172:155|172:155|229:136,1,110,2|8,0:0|0:0,0:0:0:0:
264,122,119511,1,6,0:0:0:0:
82,254,121046,6,0,P|74:316|118:339,1,110,6|8,0:0|0:0,0:0:0:0:
189,304,121727,2,0,P|234:300|272:324,1,55,8|2,0:0|0:0,0:0:0:0:
281,323,122068,2,0,P|326:327|364:303,1,55,8|2,0:0|0:0,0:0:0:0:
374,305,122409,1,2,0:0:0:0:
452,344,122750,1,2,0:0:0:0:
449,256,123091,2,0,L|457:198,1,55,2|8,0:0|0:0,0:0:0:0:
453,157,123432,2,0,L|445:99,1,55,8|8,0:0|0:0,0:0:0:0:
435,59,123773,6,0,P|354:53|300:83,1,110,6|8,0:0|0:0,0:0:0:0:
254,110,124455,2,0,P|173:116|119:86,1,110,2|8,0:0|0:0,0:0:0:0:
105,93,124966,2,0,P|91:148|97:188,1,55,0|2,0:0|0:0,0:0:0:0:
99,189,125307,2,0,P|113:244|107:284,1,55,0|8,0:0|0:0,0:0:0:0:
104,285,125648,2,0,L|39:282,2,55,0|2|0,0:0|0:0|0:0,0:0:0:0:
104,329,126159,1,8,0:0:0:0:
184,293,126500,5,2,0:0:0:0:
268,317,126841,2,0,P|270:269|267:257,1,55,12|0,0:0|0:0,0:0:0:0:
264,218,127182,2,0,P|291:214|318:218,1,55,2|0,0:0|0:0,0:0:0:0:
358,237,127523,1,8,0:0:0:0:
422,176,127864,2,0,P|434:112|410:51,2,110,2|8|0,0:0|0:0|0:0,0:0:0:0:
351,228,128886,2,0,P|341:282|352:326,1,55,8|2,0:0|0:0,0:0:0:0:
349,324,129227,6,0,B|389:334|389:334|445:318,2,82.5,6|0|0,0:0|2:0|0:0,0:0:0:0:
310,344,129909,2,0,L|190:355,1,110,6|8,0:0|0:0,0:0:0:0:
163,329,130421,1,0,0:0:0:0:
130,299,130591,6,0,B|90:287|90:287|50:297,2,82.5,6|0|0,0:0|2:0|0:0,0:0:0:0:
137,255,131273,2,0,L|142:130,1,110,6|8,0:0|0:0,0:0:0:0:
95,69,131955,6,0,P|161:55|205:84,1,110,6|8,0:0|0:0,0:0:0:0:
232,98,132466,1,0,0:0:0:0:
275,94,132636,2,0,L|419:85,1,110,6|8,0:0|0:0,0:0:0:0:
454,33,133318,2,0,P|470:85|465:112,1,55,6|0,0:0|0:0,0:0:0:0:
461,128,133659,2,0,P|445:180|450:207,1,55,8|0,0:0|0:0,0:0:0:0:
453,222,134000,2,0,P|409:249|333:249,1,110,2|2,0:0|0:0,0:0:0:0:
310,238,134511,1,8,0:0:0:0:
282,203,134682,6,0,L|262:55,1,110,6|8,0:0|0:0,0:0:0:0:
185,126,135364,2,0,L|47:117,1,110,2|8,0:0|0:0,0:0:0:0:
43,150,135875,2,0,L|51:220,1,55,0|2,0:0|0:0,0:0:0:0:
81,234,136216,2,0,L|73:304,1,55,0|8,0:0|0:0,0:0:0:0:
83,331,136557,2,0,P|61:342|20:343,2,55,0|2|0,0:0|0:0|0:0,0:0:0:0:
120,354,137068,1,8,0:0:0:0:
205,332,137409,5,2,0:0:0:0:
290,354,137750,2,0,L|385:358,1,55,12|0,0:0|0:0,0:0:0:0:
389,354,138091,2,0,P|389:326|386:299,1,55,2|0,0:0|0:0,0:0:0:0:
362,262,138432,1,8,0:0:0:0:
336,177,138773,2,0,B|400:163|376:192|443:179,2,110,2|8|2,0:0|0:0|0:0,0:0:0:0:
263,228,139796,2,0,P|248:185|248:170,1,55,8|2,0:0|0:0,0:0:0:0:
224,138,140136,6,0,B|183:129|183:129|142:138,2,82.5,6|0|0,0:0|2:0|0:0,0:0:0:0:
232,94,140818,2,0,L|354:88,1,110,6|8,0:0|0:0,0:0:0:0:
386,86,141330,1,0,0:0:0:0:
420,112,141500,6,0,B|459:121|459:121|501:112,2,82.5,6|0|0,0:0|2:0|0:0,0:0:0:0:
420,156,142182,2,0,L|426:278,1,110,6|8,0:0|0:0,0:0:0:0:
398,350,142864,6,0,P|327:338|290:363,1,110,6|8,0:0|0:0,0:0:0:0:
253,365,143375,1,0,0:0:0:0:
218,337,143546,2,0,L|224:215,1,110,6|8,0:0|0:0,0:0:0:0:
196,143,144227,2,0,P|240:140|263:155,1,55,6|0,0:0|0:0,0:0:0:0:
291,156,144568,2,0,P|335:159|358:144,1,55,8|0,0:0|0:0,0:0:0:0:
387,147,144909,2,0,P|421:193|424:259,1,110,2|8,0:0|0:0,0:0:0:0:
437,331,145591,6,0,B|393:325|393:325|323:346,1,110,12|2,0:0|0:0,0:0:0:0:
288,357,146102,1,2,0:0:0:0:
257,325,146273,2,0,L|258:271,1,55,8|8,0:0|0:0,0:0:0:0:
267,226,146614,2,0,L|266:172,1,55,8|8,0:0|0:0,0:0:0:0:
261,127,146955,1,8,0:0:0:0:
173,138,147296,2,0,P|127:137|115:133,1,55,8|0,0:0|0:0,0:0:0:0:
75,128,147636,2,0,P|36:177|49:238,1,110,8|2,0:0|0:0,0:0:0:0:
54,263,148148,1,2,0:0:0:0:
263,328,149000,6,0,L|383:324,1,110,6|8,0:0|0:0,0:0:0:0:
456,295,149681,2,0,L|470:371,2,55,2|0|8,0:0|0:0|0:0,0:0:0:0:
454,250,150193,2,0,L|462:119,1,110
443,99,150704,1,8,0:0:0:0:
408,72,150875,2,0,P|342:53|289:81,1,110,0|0,0:0|0:0,0:0:0:0:
270,93,151386,1,8,0:0:0:0:
202,149,151727,6,0,B|160:161|160:161|106:154,2,82.5,2|0|0,0:0|2:0|0:0,0:0:0:0:
245,141,152409,2,0,B|257:183|257:183|250:237,2,82.5,2|0|0,0:0|2:0|0:0,0:0:0:0:
288,132,153090,2,0,B|330:120|330:120|384:127,2,82.5,2|0|0,0:0|2:0|0:0,0:0:0:0:
250,52,153943,1,0,0:0:0:0:
206,45,154113,2,0,L|146:33,1,55,8|0,0:0|0:0,0:0:0:0:
107,32,154454,6,0,P|79:69|96:148,1,110,6|8,0:0|0:0,0:0:0:0:
124,146,154965,2,0,L|250:168,1,110,2|0,0:0|0:0,0:0:0:0:
275,173,155477,1,8,0:0:0:0:
342,116,155818,2,0,P|360:150|360:179,1,55,2|0,0:0|0:0,0:0:0:0:
358,209,156159,2,0,P|356:293|365:328,1,110,8|2,0:0|0:0,0:0:0:0:
274,310,156840,2,0,P|215:307|194:316,1,55,8|8,0:0|0:0,0:0:0:0:
176,313,157181,6,0,B|143:266|143:266|157:199,1,110,6|2,0:0|0:0,0:0:0:0:
175,175,157693,1,0,0:0:0:0:
208,146,157863,2,0,B|241:99|241:99|227:32,1,110,2|2,0:0|0:0,0:0:0:0:
318,55,158545,2,0,L|431:68,1,110,2|2,0:0|0:0,0:0:0:0:
453,102,159056,1,8,0:0:0:0:
477,138,159227,2,0,L|488:235,1,55,2|0,0:0|0:0,0:0:0:0:
487,236,159568,2,0,L|498:333,1,55,8|2,0:0|0:0,0:0:0:0:
499,334,159909,5,6,0:0:0:0:
413,315,160250,2,0,P|344:317|302:338,1,110,12|2,0:0|0:0,0:0:0:0:
222,353,160931,1,8,0:0:0:0:
217,309,161102,2,0,L|208:158,2,110,0|0|0,0:0|0:0|0:0,0:0:0:0:
128,310,162125,2,0,L|124:255,1,55,0|8,0:0|0:0,0:0:0:0:
117,211,162465,1,0,0:0:0:0:
117,166,162636,6,0,P|157:114|213:105,1,110,6|8,0:0|0:0,0:0:0:0:
284,120,163318,2,0,L|295:57,2,55,2|0|8,0:0|0:0|0:0,0:0:0:0:
299,161,163829,2,0,L|452:150,1,110,0|0,0:0|0:0,0:0:0:0:
452,150,164340,1,8,0:0:0:0:
495,145,164511,2,0,P|517:210|500:258,1,110,0|0,0:0|0:0,0:0:0:0:
487,287,165022,1,8,0:0:0:0:
412,333,165363,6,0,B|359:349|359:349|289:323,1,110,6|8,0:0|0:0,0:0:0:0:
271,303,165875,2,0,B|218:287|218:287|148:313,1,110,0|0,0:0|0:0,0:0:0:0:
122,300,166386,2,0,B|126:252|126:252|118:235|118:235|119:191,1,110,8|2,0:0|0:0,0:0:0:0:
120,147,166897,1,0,0:0:0:0:
46,99,167238,1,0,0:0:0:0:
75,65,167409,2,0,P|117:56|150:69,1,55,2|0,0:0|0:0,0:0:0:0:
171,65,167750,2,0,P|213:74|246:61,1,55,8|0,0:0|0:0,0:0:0:0:
267,73,168090,6,0,P|262:153|201:156,1,110,6|2,0:0|0:0,0:0:0:0:
200,164,168602,1,0,0:0:0:0:
156,170,168772,2,0,P|161:250|222:253,1,110,2|2,0:0|0:0,0:0:0:0:
221,269,169284,1,0,0:0:0:0:
264,264,169454,2,0,B|330:255|305:295|397:290,1,110,2|2,0:0|0:0,0:0:0:0:
451,321,170136,2,0,P|456:277|453:264,1,55,0|0,0:0|0:0,0:0:0:0:
448,223,170477,2,0,P|443:179|446:166,1,55,2|2,0:0|0:0,0:0:0:0:
455,126,170818,5,6,0:0:0:0:
229,302,179000,6,0,L|381:308,1,110,6|2,0:0|0:0,0:0:0:0:
421,338,179681,2,0,L|427:262,1,55,0|2,0:0|0:0,0:0:0:0:
429,239,180022,2,0,L|435:163,1,55,2|0,0:0|0:0,0:0:0:0:
440,140,180363,1,2,0:0:0:0:
370,85,180704,1,2,0:0:0:0:
306,145,181045,2,0,P|242:149|226:145,1,55,2|8,0:0|0:0,0:0:0:0:
209,137,181386,2,0,P|145:133|129:137,1,55,8|8,0:0|0:0,0:0:0:0:
111,140,181727,6,0,P|77:202|86:265,1,110,6|8,0:0|0:0,0:0:0:0:
111,321,182409,2,0,L|245:327,1,110,2|8,0:0|0:0,0:0:0:0:
264,331,182920,2,0,P|273:281|270:265,1,55,0|2,0:0|0:0,0:0:0:0:
267,233,183261,2,0,L|350:230,1,55,0|8,0:0|0:0,0:0:0:0:
365,237,183602,2,0,P|373:210|373:183,2,55,0|2|0,0:0|0:0|0:0,0:0:0:0:
395,268,184113,1,8,0:0:0:0:
475,233,184454,5,2,0:0:0:0:
483,145,184795,2,0,P|481:88|474:65,1,55,12|0,0:0|0:0,0:0:0:0:
443,67,185136,2,0,P|386:69|363:76,1,55,2|0,0:0|0:0,0:0:0:0:
352,95,185477,1,8,0:0:0:0:
308,171,185818,2,0,P|268:119|275:58,2,110,0|8|2,0:0|0:0|0:0,0:0:0:0:
389,198,186840,2,0,L|393:266,1,55,8|0,0:0|0:0,0:0:0:0:
397,296,187181,6,0,B|437:304|437:304|477:293,2,82.5,6|0|0,0:0|2:0|0:0,0:0:0:0:
360,320,187863,2,0,P|306:341|247:336,1,110,6|8,0:0|0:0,0:0:0:0:
219,311,188375,1,0,0:0:0:0:
191,276,188545,6,0,B|150:267|150:267|110:278,2,82.5,6|0|0,0:0|2:0|0:0,0:0:0:0:
200,232,189227,2,0,P|205:147|197:115,1,110,6|8,0:0|0:0,0:0:0:0:
142,56,189909,6,0,P|208:34|262:58,1,110,6|8,0:0|0:0,0:0:0:0:
285,61,190420,1,0,0:0:0:0:
328,58,190590,2,0,L|457:48,1,110,6|8,0:0|0:0,0:0:0:0:
415,133,191272,2,0,P|402:193|403:209,1,55,6|0,0:0|0:0,0:0:0:0:
425,223,191613,2,0,P|438:283|437:299,1,55,8|0,0:0|0:0,0:0:0:0:
433,320,191954,2,0,L|323:311,1,110,6|2,0:0|0:0,0:0:0:0:
267,242,192636,6,0,P|232:301|247:359,1,110,6|8,0:0|0:0,0:0:0:0:
152,365,193318,2,0,L|42:373,1,110,2|8,0:0|0:0,0:0:0:0:
43,329,193829,2,0,P|41:272|45:255,1,55,0|2,0:0|0:0,0:0:0:0:
36,230,194170,2,0,P|93:228|110:232,1,55,0|8,0:0|0:0,0:0:0:0:
134,224,194511,2,0,L|128:141,2,55,0|2|0,0:0|0:0|0:0,0:0:0:0:
178,226,195022,1,8,0:0:0:0:
210,307,195363,5,2,0:0:0:0:
297,301,195704,2,0,L|380:307,1,55,12|0,0:0|0:0,0:0:0:0:
395,304,196045,2,0,L|406:178,1,110,2|8,0:0|0:0,0:0:0:0:
351,123,196727,2,0,P|425:106|472:137,2,110,2|8|2,0:0|0:0|0:0,0:0:0:0:
313,43,197750,2,0,P|283:37|249:47,1,55,2|2,0:0|0:0,0:0:0:0:
216,52,198090,6,0,B|176:45|176:45|135:54,2,82.5,6|0|0,0:0|2:0|0:0,0:0:0:0:
213,96,198772,2,0,L|224:215,1,110,6|8,0:0|0:0,0:0:0:0:
228,249,199284,1,0,0:0:0:0:
233,292,199454,6,0,B|240:332|240:332|230:372,2,82.5,6|0|0,0:0|2:0|0:0,0:0:0:0:
277,294,200136,2,0,L|399:302,1,110,6|8,0:0|0:0,0:0:0:0:
464,342,200818,6,0,P|473:289|449:237,1,110,6|8,0:0|0:0,0:0:0:0:
421,206,201329,1,0,0:0:0:0:
391,173,201500,2,0,P|382:120|406:68,1,110,6|8,0:0|0:0,0:0:0:0:
319,45,202181,2,0,L|246:65,1,55,6|8,0:0|0:0,0:0:0:0:
221,59,202522,2,0,L|148:39,1,55,2|0,0:0|0:0,0:0:0:0:
128,24,202863,1,2,0:0:0:0:
71,91,203204,2,0,P|59:153|66:177,1,55,2|8,0:0|0:0,0:0:0:0:
51,187,203545,6,0,P|101:216|161:210,1,110,6|8,0:0|0:0,0:0:0:0:
191,193,204056,1,0,0:0:0:0:
229,170,204227,2,0,P|283:168|329:196,1,110,2|8,0:0|0:0,0:0:0:0:
410,162,204909,2,0,L|403:216,2,55,2|0|8,0:0|0:0|0:0,0:0:0:0:
414,118,205420,2,0,P|370:89|347:87,1,55,2|0,0:0|0:0,0:0:0:0:
329,69,205761,1,0,0:0:0:0:
293,43,205931,2,0,L|216:48,1,55,8|0,0:0|0:0,0:0:0:0:
194,50,206272,5,2,0:0:0:0:
145,121,206613,2,0,L|68:116,1,55,12|0,0:0|0:0,0:0:0:0:
46,110,206954,2,0,P|20:158|50:240,1,110,2|8,0:0|0:0,0:0:0:0:
103,257,207636,2,0,L|113:383,2,110,2|8|2,0:0|0:0|0:0,0:0:0:0:
172,202,208659,2,0,L|247:211,1,55,2|8,0:0|0:0,0:0:0:0:
270,213,209000,6,0,B|282:173|282:173|271:125,2,82.5,6|0|0,0:0|2:0|0:0,0:0:0:0:
286,253,209681,2,0,P|337:239|406:255,1,110,6|8,0:0|0:0,0:0:0:0:
427,275,210193,1,0,0:0:0:0:
468,290,210363,6,0,B|477:329|477:329|465:369,2,82.5,6|0|0,0:0|2:0|0:0,0:0:0:0:
503,264,211045,2,0,P|500:208|508:153,1,110,6|8,0:0|0:0,0:0:0:0:
441,96,211727,6,0,L|327:110,1,110,6|8,0:0|0:0,0:0:0:0:
288,115,212238,1,0,0:0:0:0:
243,113,212409,2,0,L|129:99,1,110,6|8,0:0|0:0,0:0:0:0:
66,43,213090,2,0,P|48:81|49:111,1,55,6|0,0:0|0:0,0:0:0:0:
54,136,213431,2,0,P|72:174|71:204,1,55,12|0,0:0|0:0,0:0:0:0:
66,230,213772,2,0,P|136:256|177:242,1,110,2|2,0:0|0:0,0:0:0:0:
239,195,214454,6,0,L|234:138,1,55,6|0,0:0|0:0,0:0:0:0:
228,96,214795,1,8,0:0:0:0:
315,86,215136,2,0,L|320:143,1,55,2|0,0:0|0:0,0:0:0:0:
326,185,215477,1,8,0:0:0:0:
413,175,215818,1,2,0:0:0:0:
410,218,215988,2,0,P|385:254|355:267,1,55,0|8,0:0|0:0,0:0:0:0:
333,269,216329,2,0,L|339:342,2,55,0|2|0,0:0|0:0|0:0,0:0:0:0:
288,267,216840,2,0,L|215:261,1,55,8|0,0:0|0:0,0:0:0:0:
189,258,217181,5,2,0:0:0:0:
114,304,217522,2,0,P|102:254|104:241,1,55,12|0,0:0|0:0,0:0:0:0:
101,207,217863,2,0,P|106:143|95:74,1,110,2|8,0:0|0:0,0:0:0:0:
132,15,218545,2,0,L|7:20,2,110,2|8|2,0:0|0:0|0:0,0:0:0:0:
220,20,219568,2,0,L|217:74,1,55,8|2,0:0|0:0,0:0:0:0:
205,117,219909,6,0,B|164:125|164:125|124:111,2,82.5,6|0|0,0:0|2:0|0:0,0:0:0:0:
233,149,220590,2,0,L|364:143,1,110,6|8,0:0|0:0,0:0:0:0:
382,124,221102,1,0,0:0:0:0:
424,135,221272,6,0,B|432:95|432:95|418:55,2,82.5,6|0|0,0:0|2:0|0:0,0:0:0:0:
439,176,221954,2,0,L|457:300,1,110,6|8,0:0|0:0,0:0:0:0:
382,335,222636,6,0,P|316:339|265:316,1,110,6|8,0:0|0:0,0:0:0:0:
235,306,223147,1,0,0:0:0:0:
193,319,223318,2,0,P|141:336|87:330,1,110,6|8,0:0|0:0,0:0:0:0:
66,244,224000,2,0,P|63:193|70:174,1,55,6|0,0:0|0:0,0:0:0:0:
87,153,224340,2,0,P|90:102|83:83,1,55,8|0,0:0|0:0,0:0:0:0:
74,57,224681,2,0,L|199:63,1,110,8|2,0:0|0:0,0:0:0:0:
271,68,225363,5,6,0:0:0:0:
256,192,225534,12,0,226727,2:0:0:0:
374,133,227409,6,0,L|457:124,2,55,2|2|2,0:0|0:0|0:0,0:0:0:0:
333,150,227920,6,0,L|186:130,1,110,6|8,0:0|0:0,0:0:0:0:
180,130,228431,2,0,P|132:190|138:234,1,110,12|2,0:0|0:0,0:0:0:0:
170,299,229113,1,8,0:0:0:0:
213,292,229284,2,0,L|321:277,1,110,2|2,0:0|0:0,0:0:0:0:
365,271,229795,1,8,0:0:0:0:
450,291,230136,2,0,L|446:345,2,55,2|2|8,0:0|0:0|0:0,0:0:0:0:
480,259,230647,6,0,P|499:184|472:118,1,110,2|2,0:0|0:0,0:0:0:0:
467,116,231159,1,8,0:0:0:0:
388,75,231500,2,0,L|397:5,2,55,0|2|8,0:0|0:0|0:0,0:0:0:0:
351,100,232011,2,0,L|223:109,1,110,2|2,0:0|0:0,0:0:0:0:
197,113,232522,1,8,0:0:0:0:
120,69,232863,2,0,P|108:93|105:121,1,55,2|2,0:0|0:0,0:0:0:0:
110,165,233204,1,8,0:0:0:0:
121,207,233375,6,0,P|121:265|106:321,1,110,6|2,0:0|0:0,0:0:0:0:
98,358,233886,2,0,P|156:358|212:373,1,110,12|2,0:0|0:0,0:0:0:0:
294,364,234568,1,8,0:0:0:0:
296,320,234738,2,0,L|300:184,1,110,2|2,0:0|0:0,0:0:0:0:
301,165,235250,1,8,0:0:0:0:
342,87,235590,2,0,P|305:76|276:82,1,55,2|2,0:0|0:0,0:0:0:0:
248,96,235931,1,8,0:0:0:0:
204,105,236102,6,0,B|138:108|160:133|83:146,1,110,6|2,0:0|0:0,0:0:0:0:
57,141,236613,1,8,0:0:0:0:
67,228,236954,2,0,L|69:291,1,55,8|2,0:0|0:0,0:0:0:0:
71,326,237295,1,2,0:0:0:0:
113,335,237465,2,0,B|154:332|154:332|184:342|184:342|246:341,1,110,8|8,0:0|0:0,0:0:0:0:
307,322,238147,1,2,0:0:0:0:
342,337,238296,6,0,P|414:319|345:230,1,220,14|0,0:0|2:0,0:0:0:0:
