osu file format v14

[General]
AudioFilename: forandrew.mp3
AudioLeadIn: 0
PreviewTime: 55506
Countdown: 0
SampleSet: Normal
StackLeniency: 0.7
Mode: 0
LetterboxInBreaks: 0
WidescreenStoryboard: 1

[Editor]
DistanceSpacing: 1.4
BeatDivisor: 4
GridSize: 16
TimelineZoom: 1.6

[Metadata]
Title:Routine
TitleUnicode:Routine
Artist:Silent Siren
ArtistUnicode:サイレントサイレン
Creator:sukiNathan
Version:Hard
Source:
Tags:jpop j-pop aina yamauchi yukako kurosaka hinako umemura sumire yoshida ayana sōgawa sogawa giralda
BeatmapID:892469
BeatmapSetID:396745

[Difficulty]
HPDrainRate:5
CircleSize:4
OverallDifficulty:6
ApproachRate:8
SliderMultiplier:1.4
SliderTickRate:1

[Events]
//Background and Video events
0,0,"adoredesu.jpg",0,0
//Break Periods
2,172181,178250
//Storyboard Layer 0 (Background)
//Storyboard Layer 1 (Fail)
//Storyboard Layer 2 (Pass)
//Storyboard Layer 3 (Foreground)
//Storyboard Sound Samples

[TimingPoints]
1046,340.909090909091,4,2,0,60,1,0
1046,-133.333333333333,4,2,0,60,0,0
6500,-100,4,1,1,40,0,0
7864,-100,4,1,1,50,0,0
9227,-100,4,1,1,60,0,0
11273,-100,4,2,0,60,0,0
11784,-100,4,1,1,70,0,0
22693,-117.647058823529,4,2,1,60,0,0
43830,-100,4,2,1,70,0,0
44682,-100,4,2,1,60,0,0
55591,-100,4,1,1,70,0,1
61046,-100,4,1,1,70,0,1
63773,-100,4,1,1,70,0,1
71955,-100,4,1,1,70,0,1
74682,-100,4,1,1,70,0,1
77409,-100,4,1,1,70,0,0
79455,-100,4,2,0,60,0,0
79966,-100,4,1,1,70,0,0
90875,-111.111111111111,4,2,1,65,0,0
112864,-100,4,2,1,60,0,0
123773,-100,4,1,1,70,0,1
129227,-100,4,1,1,70,0,1
131955,-100,4,1,1,70,0,1
140136,-100,4,1,1,70,0,1
142864,-100,4,1,1,70,0,1
145591,-100,4,1,1,60,0,1
146955,-100,4,1,1,70,0,1
148318,-100,4,2,0,40,0,0
149000,340.909090909091,4,1,1,70,1,1
149085,-100,4,1,1,70,0,0
159227,-100,4,1,1,70,0,0
168090,-100,4,1,1,70,0,1
168432,-100,4,1,1,70,0,1
168773,-100,4,1,1,70,0,1
169114,-100,4,1,1,70,0,1
169454,-86.9565217391304,4,1,1,70,0,1
170136,-100,4,1,1,70,0,1
170818,-100,4,1,1,70,0,0
179000,-100,4,1,1,70,0,0
181727,-100,4,1,1,70,0,1
187181,-100,4,1,1,70,0,1
189909,-100,4,1,1,70,0,1
198090,-100,4,1,1,70,0,1
200818,-100,4,1,1,70,0,1
209000,-100,4,1,1,70,0,1
211727,-100,4,1,1,70,0,1
219909,-100,4,1,1,70,0,1
222636,-100,4,1,1,70,0,1
225363,-100,4,1,1,70,0,0
227238,-100,4,2,0,60,0,0
227920,-100,4,1,1,70,0,0
238296,340.909090909091,4,1,1,70,1,0
238296,-100,4,1,1,70,0,0

[Colours]
Combo1 : 249,113,140
Combo2 : 250,56,62
Combo3 : 77,147,253
Combo4 : 88,220,226

[HitObjects]
329,94,1046,6,0,P|373:68|424:77,1,105.000004005432,6|0,0:0|0:0,0:0:0:0:
387,146,1557,1,0,0:0:0:0:
313,173,1727,2,0,P|269:199|218:190,1,105.000004005432,0|0,0:0|0:0,0:0:0:0:
149,149,2239,1,0,0:0:0:0:
149,149,2409,6,0,L|128:277,2,105.000004005432,2|0|2,0:0|0:0|0:0,0:0:0:0:
233,15,3432,2,0,L|247:80,1,52.5000020027161,0|0,0:0|0:0,0:0:0:0:
285,133,3773,6,0,L|416:144,1,105.000004005432,2|0,0:0|0:0,0:0:0:0:
440,81,4284,1,0,0:0:0:0:
440,81,4455,2,0,P|469:133|451:186,1,105.000004005432,0|0,0:0|0:0,0:0:0:0:
397,223,4966,1,0,0:0:0:0:
324,252,5136,6,0,L|237:246,1,52.5000020027161,2|0,0:0|0:0,0:0:0:0:
223,185,5477,2,0,L|170:188,1,52.5000020027161,0|0,0:0|0:0,0:0:0:0:
94,210,5818,2,0,L|102:85,1,105.000004005432,0|2,0:0|0:0,0:0:0:0:
100,105,6500,6,0,B|187:81|142:150|258:125,1,140,0|0,1:0|0:0,0:0:0:0:
221,45,7011,1,0,0:0:0:0:
297,79,7182,2,0,P|315:114|276:201,1,140,8|8,0:0|0:0,0:0:0:0:
194,210,7693,1,8,0:0:0:0:
244,277,7864,6,0,L|336:289,1,70,8|8,0:0|0:0,0:0:0:0:
290,367,8205,2,0,L|198:355,1,70,8|8,0:0|0:0,0:0:0:0:
161,298,8546,2,0,P|148:231|157:210,1,70,8|8,0:0|0:0,0:0:0:0:
181,149,8886,1,8,0:0:0:0:
181,149,9057,1,8,0:0:0:0:
241,247,9227,6,0,L|424:261,1,140,8|8,0:0|0:0,0:0:0:0:
454,299,9739,1,8,0:0:0:0:
450,215,9909,2,0,L|446:133,1,70,8|8,0:0|0:0,0:0:0:0:
367,116,10250,2,0,P|330:122|297:112,1,70,8|0,0:0|0:0,0:0:0:0:
343,42,10591,1,2,0:0:0:0:
343,42,10676,1,2,0:0:0:0:
343,42,10761,1,2,0:0:0:0:
258,40,10932,1,6,0:0:0:0:
258,40,11273,6,0,L|159:49,1,70,2|2,0:0|0:0,0:0:0:0:
105,76,11614,1,2,0:0:0:0:
189,140,11784,6,0,B|213:200|213:200|186:276,1,140,6|2,0:0|0:0,0:0:0:0:
111,308,12296,2,0,P|156:299|234:357,1,140,8|2,0:0|0:0,0:0:0:0:
275,273,12807,1,2,0:0:0:0:
314,348,12977,1,8,0:0:0:0:
359,275,13148,6,0,L|503:264,1,140,2|2,0:0|0:0,0:0:0:0:
456,191,13659,2,0,P|448:133|462:93,1,70,8|2,0:0|0:0,0:0:0:0:
472,41,14000,2,0,L|400:35,1,70,2|2,0:0|0:0,0:0:0:0:
318,30,14341,1,8,0:0:0:0:
353,105,14511,6,0,P|288:109|240:58,1,140,2|2,0:0|0:0,0:0:0:0:
162,23,15023,2,0,B|137:109|188:72|162:170,1,140,8|2,0:0|0:0,0:0:0:0:
84,133,15534,1,2,0:0:0:0:
39,204,15705,1,8,0:0:0:0:
118,231,15875,6,0,P|145:292|99:361,1,140,2|2,0:0|0:0,0:0:0:0:
194,372,16386,2,0,L|284:377,1,70,8|0,0:0|0:0,0:0:0:0:
298,299,16727,2,0,L|367:302,2,70,2|2|8,0:0|0:0|0:0,0:0:0:0:
319,216,17239,6,0,B|272:215|272:215|232:237|232:237|184:236,1,140,2|2,0:0|0:0,0:0:0:0:
108,273,17750,2,0,L|103:119,1,140,8|2,0:0|0:0,0:0:0:0:
39,78,18261,1,2,0:0:0:0:
115,42,18432,1,8,0:0:0:0:
176,99,18602,6,0,P|234:97|300:43,1,140,2|2,0:0|0:0,0:0:0:0:
373,12,19114,2,0,P|380:69|371:89,1,70,8|2,0:0|0:0,0:0:0:0:
334,152,19455,2,0,L|428:165,1,70,2|2,0:0|0:0,0:0:0:0:
459,99,19796,1,8,0:0:0:0:
476,180,19966,6,0,L|484:325,1,140,2|2,0:0|0:0,0:0:0:0:
404,347,20477,2,0,B|335:326|335:326|253:361,1,140,8|2,0:0|0:0,0:0:0:0:
198,310,20989,1,2,0:0:0:0:
258,252,21159,1,8,0:0:0:0:
148,240,21330,6,0,L|9:254,2,140,6|2|10,0:0|0:0|0:0,0:0:0:0:
209,182,22182,1,10,0:0:0:0:
155,117,22352,2,0,L|158:82,2,35,2|2|2,0:0|0:0|0:0,0:0:0:0:
251,106,22693,6,0,P|278:129|276:226,1,119.000002269745,6|2,0:0|0:0,0:0:0:0:
225,256,23205,2,0,P|267:284|299:285,1,59.5000011348725,8|0,0:0|0:0,0:0:0:0:
349,263,23546,2,0,L|357:345,2,59.5000011348725,2|2|8,0:0|0:0|0:0,0:0:0:0:
385,194,24057,6,0,L|398:66,1,119.000002269745,2|2,0:0|0:0,0:0:0:0:
328,38,24568,1,8,0:0:0:0:
328,38,24739,2,0,P|287:60|221:41,1,119.000002269745,2|2,0:0|0:0,0:0:0:0:
157,122,25250,1,8,0:0:0:0:
233,134,25421,6,0,P|253:188|230:241,1,119.000002269745,2|2,0:0|0:0,0:0:0:0:
183,303,25932,1,8,0:0:0:0:
110,277,26102,1,0,0:0:0:0:
110,277,26188,1,0,0:0:0:0:
110,277,26273,2,0,L|101:338,2,59.5000011348725,2|2|8,0:0|0:0|0:0,0:0:0:0:
171,229,26784,6,0,L|41:233,1,119.000002269745,2|2,0:0|0:0,0:0:0:0:
21,160,27296,1,8,0:0:0:0:
103,12,27636,2,0,P|132:12|161:17,1,59.5000011348725,2|2,0:0|0:0,0:0:0:0:
225,75,27977,1,8,0:0:0:0:
188,156,28148,6,0,P|256:158|302:118,1,119.000002269745,2|2,0:0|0:0,0:0:0:0:
302,51,28659,1,8,0:0:0:0:
365,95,28830,2,0,L|442:99,1,59.5000011348725,0|2,0:0|0:0,0:0:0:0:
411,176,29171,2,0,L|414:235,1,59.5000011348725,2|8,0:0|0:0,0:0:0:0:
472,281,29511,6,0,P|415:264|360:283,1,119.000002269745,2|2,0:0|0:0,0:0:0:0:
376,361,30023,1,8,0:0:0:0:
303,335,30193,1,2,0:0:0:0:
303,335,30278,1,0,0:0:0:0:
303,335,30364,2,0,P|287:302|292:264,2,59.5000011348725,2|2|8,0:0|0:0|0:0,0:0:0:0:
227,354,30875,6,0,L|82:358,1,119.000002269745,2|0,0:0|0:0,0:0:0:0:
45,311,31386,2,0,L|49:238,1,59.5000011348725,8|0,0:0|0:0,0:0:0:0:
123,233,31727,2,0,L|119:160,1,59.5000011348725,2|2,0:0|0:0,0:0:0:0:
68,115,32068,1,8,0:0:0:0:
170,109,32239,6,0,B|236:91|217:135|297:119,2,119.000002269745,2|2|0,0:0|0:0|0:0,0:0:0:0:
191,183,33091,2,0,L|196:229,3,29.7500005674362,2|0|0|0,1:0|1:0|1:0|1:0,0:0:0:0:
194,251,33432,1,8,1:0:0:0:
287,234,33602,6,0,L|419:245,1,119.000002269745,6|2,0:0|0:0,0:0:0:0:
476,275,34114,2,0,P|480:224|473:207,1,59.5000011348725,8|0,0:0|0:0,0:0:0:0:
451,144,34455,2,0,P|480:139|508:145,2,59.5000011348725,2|2|8,0:0|0:0|0:0,0:0:0:0:
401,204,34966,6,0,P|343:195|292:136,1,119.000002269745,2|2,0:0|0:0,0:0:0:0:
300,77,35477,1,8,0:0:0:0:
233,117,35648,1,0,0:0:0:0:
233,117,35733,1,0,0:0:0:0:
233,117,35818,2,0,P|220:69|230:39,2,59.5000011348725,0|2|8,0:0|0:0|0:0,0:0:0:0:
229,194,36330,6,0,L|100:186,1,119.000002269745,2|2,0:0|0:0,0:0:0:0:
90,261,36841,2,0,L|150:266,1,59.5000011348725,8|2,0:0|0:0,0:0:0:0:
224,286,37182,2,0,L|208:358,2,59.5000011348725,2|2|8,0:0|0:0|0:0,0:0:0:0:
274,226,37693,6,0,P|312:256|387:248,1,119.000002269745,2|2,0:0|0:0,0:0:0:0:
435,198,38205,2,0,L|441:131,1,59.5000011348725,8|0,0:0|0:0,0:0:0:0:
449,61,38546,1,2,0:0:0:0:
377,90,38716,2,0,P|334:104|304:104,1,59.5000011348725,2|8,0:0|0:0,0:0:0:0:
231,33,39057,6,0,B|210:96|210:96|229:144,1,119.000002269745,6|2,0:0|0:0,0:0:0:0:
259,216,39568,2,0,L|171:221,1,59.5000011348725,8|0,0:0|0:0,0:0:0:0:
129,186,39909,2,0,L|113:258,2,59.5000011348725,2|2|8,0:0|0:0|0:0,0:0:0:0:
170,119,40421,6,0,P|127:106|59:153,1,119.000002269745,2|2,0:0|0:0,0:0:0:0:
46,215,40932,2,0,L|45:293,1,59.5000011348725,8|2,0:0|0:0,0:0:0:0:
73,346,41273,2,0,P|36:353|9:343,2,59.5000011348725,2|2|8,0:0|0:0|0:0,0:0:0:0:
147,295,41784,6,0,B|194:300|194:300|219:318|219:318|284:325,1,119.000002269745,2|2,0:0|0:0,0:0:0:0:
325,363,42296,1,8,0:0:0:0:
340,287,42466,1,0,0:0:0:0:
340,287,42551,1,0,0:0:0:0:
340,287,42636,2,0,L|423:290,2,59.5000011348725,2|2|8,0:0|0:0|0:0,0:0:0:0:
270,228,43148,6,0,B|254:168|254:168|283:111,1,119.000002269745,6|2,0:0|0:0,0:0:0:0:
344,75,43659,2,0,P|322:38|294:20,1,59.5000011348725,12|0,0:0|0:0,0:0:0:0:
225,57,44000,2,0,L|174:53,3,35,2|0|0|0,1:0|0:0|0:0|0:0,0:0:0:0:
144,52,44341,2,0,L|93:48,3,35,8|8|8|8,1:0|1:0|1:0|1:0,0:0:0:0:
68,36,44682,5,6,0:0:0:0:
56,118,44852,2,0,B|53:267,1,140,2|2,0:0|0:0,0:0:0:0:
131,225,45364,1,2,0:0:0:0:
122,308,45534,2,0,B|120:382,1,70,2|8,0:0|0:0,0:0:0:0:
222,341,45875,5,6,0:0:0:0:
450,110,47409,5,6,0:0:0:0:
378,155,47580,2,0,B|316:180|316:180|236:154,1,140,2|2,0:0|0:0,0:0:0:0:
204,84,48091,1,2,0:0:0:0:
159,154,48261,2,0,L|156:237,1,70,2|8,0:0|0:0,0:0:0:0:
154,328,48602,5,6,0:0:0:0:
348,18,50136,5,6,0:0:0:0:
314,95,50307,2,0,L|479:110,1,140,2|2,0:0|0:0,0:0:0:0:
430,189,50818,1,2,0:0:0:0:
482,255,50989,2,0,P|493:309|481:341,1,70,2|8,0:0|0:0,0:0:0:0:
393,303,51330,5,6,0:0:0:0:
247,27,52864,6,0,B|258:51|246:79|246:79|261:104|261:104|246:129|256:166,1,140,6|8,0:0|0:0,0:0:0:0:
343,149,53375,1,2,0:0:0:0:
288,240,53546,2,0,P|236:245|199:224,1,70,8|2,0:0|0:0,0:0:0:0:
367,230,53886,2,0,P|416:227|453:248,1,70,8|2,0:0|0:0,0:0:0:0:
480,163,54227,6,0,L|492:119,2,35,2|2|2,0:0|0:0|0:0,0:0:0:0:
403,128,54568,1,2,0:0:0:0:
403,128,54653,1,2,0:0:0:0:
403,128,54739,1,2,0:0:0:0:
433,50,54909,1,2,0:0:0:0:
349,61,55080,2,0,L|262:69,1,70,8|8,0:0|0:0,0:0:0:0:
198,80,55421,1,8,0:0:0:0:
279,167,55591,6,0,P|287:213|212:279,1,140,6|8,0:0|0:0,0:0:0:0:
146,222,56102,1,0,0:0:0:0:
149,320,56273,2,0,L|304:334,1,140,2|8,0:0|0:0,0:0:0:0:
380,367,56784,6,0,P|386:317|374:288,1,70,0|2,0:0|0:0,0:0:0:0:
437,238,57125,2,0,P|462:261|495:271,1,70,0|8,0:0|0:0,0:0:0:0:
423,155,57466,2,0,P|389:165|364:189,1,70,0|2,0:0|0:0,0:0:0:0:
305,240,57807,1,0,0:0:0:0:
236,192,57977,2,0,L|139:195,1,70,8|0,0:0|0:0,0:0:0:0:
53,201,58318,5,2,0:0:0:0:
53,201,58659,2,0,B|26:146|26:146|23:105|41:60,1,140,12|2,0:0|0:0,0:0:0:0:
118,139,59171,1,0,0:0:0:0:
183,57,59341,2,0,L|273:57,1,70,8|0,0:0|0:0,0:0:0:0:
356,111,59682,6,0,P|372:62|364:27,1,70,2|0,0:0|0:0,0:0:0:0:
278,130,60023,2,0,P|277:164|292:196,1,70,8|0,0:0|0:0,0:0:0:0:
416,235,60364,2,0,B|335:230|369:277|286:279,1,140,2|10,0:0|0:0,0:0:0:0:
206,228,60875,1,8,0:0:0:0:
206,228,60960,1,8,0:0:0:0:
206,228,61046,6,0,L|200:358,2,105,6|0|0,0:0|2:0|0:0,0:0:0:0:
173,135,61727,2,0,L|168:30,2,105,6|0|0,0:0|2:0|0:0,0:0:0:0:
268,158,62409,5,6,0:0:0:0:
178,274,62665,1,0,2:0:0:0:
78,165,62921,1,0,0:0:0:0:
173,184,63091,5,6,0:0:0:0:
158,37,63347,1,0,2:0:0:0:
293,91,63602,1,0,0:0:0:0:
201,127,63773,6,0,P|196:184|220:274,1,140,6|8,0:0|0:0,0:0:0:0:
313,254,64284,1,0,0:0:0:0:
313,254,64455,2,0,P|317:184|298:117,1,140,6|8,0:0|0:0,0:0:0:0:
200,116,64966,1,0,0:0:0:0:
259,38,65136,6,0,P|309:29|342:39,1,70,6|0,0:0|0:0,0:0:0:0:
156,28,65477,2,0,P|121:32|87:22,1,70,8|0,0:0|0:0,0:0:0:0:
48,129,65818,2,0,L|51:175,3,35,6|0|0|0,0:0|0:0|0:0|0:0,0:0:0:0:
63,211,66159,2,0,L|60:257,3,35,8|0|2|2,0:0|0:0|0:0|0:0,0:0:0:0:
61,295,66500,6,0,B|133:275|133:275|207:323,1,140,6|8,0:0|0:0,0:0:0:0:
264,372,67011,1,0,0:0:0:0:
283,275,67182,2,0,L|286:109,1,140,2|8,0:0|0:0,0:0:0:0:
253,41,67693,6,0,P|310:36|338:49,1,70,0|2,0:0|0:0,0:0:0:0:
424,78,68034,2,0,P|446:51|456:18,1,70,0|8,0:0|0:0,0:0:0:0:
350,114,68375,2,0,P|332:166|363:265,1,140,0|0,0:0|0:0,0:0:0:0:
400,331,68886,2,0,L|318:339,1,70,8|0,0:0|0:0,0:0:0:0:
215,349,69227,5,2,0:0:0:0:
215,349,69568,2,0,P|165:320|234:283,1,140,12|2,0:0|0:0,0:0:0:0:
300,301,70080,1,0,0:0:0:0:
280,205,70250,2,0,P|275:157|286:124,1,70,8|0,0:0|0:0,0:0:0:0:
403,135,70591,6,0,P|408:183|397:216,1,70,2|0,0:0|0:0,0:0:0:0:
348,285,70932,2,0,P|313:291|279:285,1,70,8|0,0:0|2:0,0:0:0:0:
239,195,71273,2,0,P|210:189|202:190,3,35,2|0|0|0,0:0|0:0|0:0|0:0,0:0:0:0:
157,203,71614,1,8,0:0:0:0:
91,148,71784,1,2,0:0:0:0:
91,148,71869,1,8,0:0:0:0:
91,148,71955,6,0,B|67:213|67:213|83:269,2,105,6|0|0,0:0|0:0|0:0,0:0:0:0:
184,119,72636,2,0,B|193:84|193:84|169:19,2,105,6|0|0,0:0|2:0|0:0,0:0:0:0:
162,217,73318,5,6,0:0:0:0:
277,125,73574,1,0,2:0:0:0:
323,264,73830,1,0,0:0:0:0:
362,174,74000,5,6,0:0:0:0:
215,185,74256,1,0,2:0:0:0:
281,54,74511,1,0,0:0:0:0:
190,93,74682,6,0,L|45:105,1,140,6|8,0:0|0:0,0:0:0:0:
99,189,75193,1,0,0:0:0:0:
99,189,75364,2,0,L|87:334,1,140,6|8,0:0|0:0,0:0:0:0:
179,364,75875,1,0,0:0:0:0:
189,266,76046,6,0,L|193:209,3,35,12|0|0|0,0:0|0:0|0:0|0:0,0:0:0:0:
224,195,76386,2,0,L|220:138,3,35,8|0|0|0,0:0|0:0|0:0|0:0,0:0:0:0:
193,119,76727,2,0,L|197:62,3,35,8|0|2|2,0:0|0:0|0:0|0:0,0:0:0:0:
220,41,77068,1,2,0:0:0:0:
302,94,77239,1,2,0:0:0:0:
302,94,77324,1,2,0:0:0:0:
302,94,77409,5,6,0:0:0:0:
256,192,77494,12,0,78773,2:0:0:0:
276,24,79455,6,0,L|367:30,1,70,2|2,0:0|0:0,0:0:0:0:
426,78,79796,1,2,0:0:0:0:
327,122,79966,6,0,B|273:119|273:119|239:135|239:135|174:133,1,140,6|2,0:0|0:0,0:0:0:0:
139,66,80477,2,0,P|108:99|127:194,1,140,8|2,0:0|0:0,0:0:0:0:
197,220,80989,1,2,0:0:0:0:
128,268,81159,1,8,0:0:0:0:
204,303,81330,6,0,L|353:304,1,140,2|2,0:0|0:0,0:0:0:0:
422,334,81841,2,0,P|429:300|420:266,1,70,8|0,0:0|0:0,0:0:0:0:
346,226,82182,2,0,P|338:192|347:158,1,70,2|2,0:0|0:0,0:0:0:0:
406,98,82523,1,8,0:0:0:0:
283,94,82693,6,0,B|213:84|213:84|138:142,1,140,6|2,0:0|0:0,0:0:0:0:
223,180,83205,2,0,L|219:249,1,70,8|2,0:0|0:0,0:0:0:0:
159,308,83546,2,0,L|75:324,2,70,2|2|8,0:0|0:0|0:0,0:0:0:0:
230,352,84057,6,0,P|270:329|377:360,1,140,2|2,0:0|0:0,0:0:0:0:
374,260,84568,2,0,P|364:191|371:175,1,70,8|0,0:0|0:0,0:0:0:0:
358,108,84909,2,0,P|289:118|273:111,1,70,2|2,0:0|0:0,0:0:0:0:
307,32,85250,1,8,0:0:0:0:
212,88,85421,6,0,B|186:170|240:135|210:237,1,140,6|2,0:0|0:0,0:0:0:0:
276,279,85932,2,0,P|186:253|137:304,1,140,8|2,0:0|0:0,0:0:0:0:
212,335,86443,1,2,0:0:0:0:
132,363,86614,1,8,0:0:0:0:
72,303,86784,6,0,L|53:140,1,140,2|2,0:0|0:0,0:0:0:0:
99,91,87296,2,0,L|14:77,1,70,8|2,0:0|0:0,0:0:0:0:
68,5,87636,2,0,L|153:19,1,70,2|2,0:0|0:0,0:0:0:0:
221,14,87977,1,8,0:0:0:0:
153,97,88148,6,0,B|144:148|144:148|157:184|157:184|143:258,1,140,6|2,0:0|0:0,0:0:0:0:
185,308,88659,2,0,P|229:288|325:309,1,140,8|2,0:0|0:0,0:0:0:0:
373,366,89171,1,2,0:0:0:0:
399,286,89341,1,8,0:0:0:0:
457,375,89511,6,0,B|500:333|500:333|472:225,2,140,6|2|2,0:0|0:0|0:0,0:0:0:0:
400,301,90364,1,2,0:0:0:0:
314,325,90534,2,0,L|257:319,2,35,2|2|2,0:0|0:0|0:0,0:0:0:0:
321,243,90875,6,0,L|315:105,1,125.999996154785,6|2,0:0|0:0,0:0:0:0:
311,35,91386,1,8,0:0:0:0:
239,75,91557,2,0,P|189:86|154:75,1,62.9999980773926,0|2,0:0|0:0,0:0:0:0:
96,80,91898,1,2,0:0:0:0:
130,154,92068,1,8,0:0:0:0:
47,149,92239,5,2,0:0:0:0:
201,203,92580,2,0,P|212:263|208:281,1,62.9999980773926,2|8,0:0|0:0,0:0:0:0:
172,335,92921,1,2,0:0:0:0:
172,335,93006,1,0,0:0:0:0:
172,335,93091,2,0,P|140:335|110:345,2,62.9999980773926,2|2|8,0:0|0:0|0:0,0:0:0:0:
254,335,93602,6,0,B|323:314|295:368|388:343,1,125.999996154785,2|2,0:0|0:0,0:0:0:0:
354,266,94114,1,8,0:0:0:0:
460,141,94455,2,0,P|471:188|468:216,1,62.9999980773926,2|2,0:0|0:0,0:0:0:0:
437,277,94796,1,8,0:0:0:0:
389,187,94966,6,0,P|330:182|275:231,1,125.999996154785,2|2,0:0|0:0,0:0:0:0:
215,183,95477,1,8,0:0:0:0:
208,264,95648,2,0,L|145:271,1,62.9999980773926,2|2,0:0|0:0,0:0:0:0:
147,353,95989,2,0,L|210:360,1,62.9999980773926,2|8,0:0|0:0,0:0:0:0:
302,282,96330,6,0,B|327:224|327:224|300:166,1,125.999996154785,2|2,0:0|0:0,0:0:0:0:
229,125,96841,1,8,0:0:0:0:
299,84,97011,2,0,L|381:85,1,62.9999980773926,0|2,0:0|0:0,0:0:0:0:
428,133,97352,1,2,0:0:0:0:
436,51,97523,1,8,0:0:0:0:
500,101,97693,5,2,0:0:0:0:
348,164,98034,2,0,P|342:204|363:244,1,62.9999980773926,2|8,0:0|0:0,0:0:0:0:
418,268,98375,2,0,P|346:258|289:297,1,125.999996154785,2|2,0:0|0:0,0:0:0:0:
275,360,98886,1,8,0:0:0:0:
218,269,99057,6,0,L|223:204,1,62.9999980773926,2|0,0:0|0:0,0:0:0:0:
303,188,99398,2,0,L|298:123,1,62.9999980773926,2|8,0:0|0:0,0:0:0:0:
240,66,99739,1,0,0:0:0:0:
240,66,99824,1,0,0:0:0:0:
240,66,99909,2,0,L|162:50,2,62.9999980773926,2|2|8,0:0|0:0|0:0,0:0:0:0:
355,61,100421,6,0,B|396:68|396:68|426:95|426:95|469:101,1,125.999996154785,2|2,0:0|0:0,0:0:0:0:
426,171,100932,1,8,0:0:0:0:
487,224,101102,2,0,L|494:264,5,31.4999990386963,2|0|2|0|0|0,0:0|0:0|1:0|1:0|1:0|1:0,0:0:0:0:
501,298,101614,1,8,1:0:0:0:
415,249,101784,6,0,P|365:242|303:304,1,125.999996154785,6|2,0:0|0:0,0:0:0:0:
381,326,102296,1,8,0:0:0:0:
312,370,102466,2,0,P|264:361|247:342,1,62.9999980773926,0|2,0:0|0:0,0:0:0:0:
224,276,102807,1,2,0:0:0:0:
176,342,102977,1,8,0:0:0:0:
142,267,103148,5,2,0:0:0:0:
303,239,103489,2,0,L|386:244,1,62.9999980773926,2|8,0:0|0:0,0:0:0:0:
443,269,103830,2,0,L|434:137,1,125.999996154785,0|2,0:0|0:0,0:0:0:0:
432,61,104341,1,8,0:0:0:0:
352,128,104511,6,0,P|312:119|266:47,1,125.999996154785,2|2,0:0|0:0,0:0:0:0:
211,113,105023,1,8,0:0:0:0:
177,38,105193,2,0,P|124:49|101:73,1,62.9999980773926,0|2,0:0|0:0,0:0:0:0:
129,134,105534,2,0,P|76:123|53:99,1,62.9999980773926,2|8,0:0|0:0,0:0:0:0:
105,222,105875,6,0,L|92:355,1,125.999996154785,2|2,0:0|0:0,0:0:0:0:
170,372,106386,1,8,0:0:0:0:
207,298,106557,2,0,L|279:287,1,62.9999980773926,0|2,0:0|0:0,0:0:0:0:
341,328,106898,2,0,L|413:339,1,62.9999980773926,2|8,0:0|0:0,0:0:0:0:
357,242,107239,6,0,B|333:186|333:186|368:123,1,125.999996154785,2|2,0:0|0:0,0:0:0:0:
427,75,107750,2,0,P|386:91|304:59,1,125.999996154785,8|2,0:0|0:0,0:0:0:0:
253,7,108261,1,2,0:0:0:0:
231,86,108432,1,8,0:0:0:0:
176,25,108602,5,2,0:0:0:0:
286,145,108943,2,0,L|297:226,1,62.9999980773926,2|8,0:0|0:0,0:0:0:0:
222,246,109284,2,0,L|206:114,1,125.999996154785,0|2,0:0|0:0,0:0:0:0:
200,38,109796,1,8,0:0:0:0:
136,89,109966,6,0,P|86:100|32:55,1,125.999996154785,2|2,0:0|0:0,0:0:0:0:
103,15,110477,1,8,0:0:0:0:
185,18,110648,2,0,L|263:27,1,62.9999980773926,0|2,0:0|0:0,0:0:0:0:
284,98,110989,2,0,L|206:107,1,62.9999980773926,2|8,0:0|0:0,0:0:0:0:
110,140,111330,6,0,B|132:220|77:188|95:282,1,125.999996154785,2|2,0:0|0:0,0:0:0:0:
173,250,111841,1,8,0:0:0:0:
241,294,112011,1,0,0:0:0:0:
241,294,112097,1,0,0:0:0:0:
241,294,112182,2,0,L|284:302,3,31.4999990386963,8|0|0|0,1:0|1:0|1:0|1:0,0:0:0:0:
312,309,112523,2,0,L|355:301,3,31.4999990386963,10|2|2|2,1:0|1:0|1:0|1:0,0:0:0:0:
385,287,112864,5,6,0:0:0:0:
318,225,113034,2,0,B|289:164|289:164|332:93,1,140,2|2,0:0|0:0,0:0:0:0:
384,164,113546,1,2,0:0:0:0:
416,86,113716,2,0,L|417:1,1,70,2|8,0:0|0:0,0:0:0:0:
499,96,114057,5,6,0:0:0:0:
115,93,115421,1,0,0:0:0:0:
115,93,115506,1,0,0:0:0:0:
115,93,115591,5,6,0:0:0:0:
191,59,115761,2,0,L|201:218,1,140,2|2,0:0|0:0,0:0:0:0:
184,282,116273,1,2,0:0:0:0:
264,260,116443,2,0,L|342:271,1,70,2|8,0:0|0:0,0:0:0:0:
265,345,116784,5,6,0:0:0:0:
417,68,118148,1,0,0:0:0:0:
417,68,118233,1,0,0:0:0:0:
417,68,118318,5,6,0:0:0:0:
351,14,118489,2,0,P|335:61|384:137,1,140,2|2,0:0|0:0,0:0:0:0:
456,165,119000,1,2,0:0:0:0:
389,217,119171,2,0,P|345:211|312:185,1,70,2|8,0:0|0:0,0:0:0:0:
261,113,119511,5,6,0:0:0:0:
247,357,121046,6,0,B|258:333|246:305|246:305|261:280|261:280|246:255|256:218,1,140,6|8,0:0|0:0,0:0:0:0:
177,259,121557,1,2,0:0:0:0:
126,191,121727,2,0,L|51:183,1,70,8|2,0:0|0:0,0:0:0:0:
154,108,122068,2,0,L|229:100,1,70,8|2,0:0|0:0,0:0:0:0:
293,147,122409,6,0,L|282:202,2,35,2|2|2,0:0|0:0|0:0,0:0:0:0:
375,129,122750,1,2,0:0:0:0:
375,129,122835,1,2,0:0:0:0:
375,129,122921,1,2,0:0:0:0:
435,187,123091,1,2,0:0:0:0:
356,215,123261,2,0,L|345:290,1,70,8|8,0:0|0:0,0:0:0:0:
397,350,123602,1,8,0:0:0:0:
271,333,123773,6,0,B|223:336|223:336|190:362|190:362|125:369,1,140,6|8,0:0|0:0,0:0:0:0:
142,269,124284,1,0,0:0:0:0:
49,301,124455,2,0,L|59:147,1,140,2|8,0:0|0:0,0:0:0:0:
102,73,124966,6,0,P|39:67|14:79,1,70,0|2,0:0|0:0,0:0:0:0:
149,152,125307,2,0,P|175:209|198:225,1,70,0|8,0:0|0:0,0:0:0:0:
197,71,125648,2,0,P|248:71|327:128,1,140,0|0,0:0|0:0,0:0:0:0:
363,206,126159,2,0,L|288:218,1,70,8|0,0:0|0:0,0:0:0:0:
183,221,126500,5,2,0:0:0:0:
183,221,126841,2,0,B|203:321|203:321|241:294,1,140,12|2,0:0|0:0,0:0:0:0:
290,218,127352,1,0,0:0:0:0:
325,309,127523,2,0,L|394:320,1,70,8|0,0:0|0:0,0:0:0:0:
455,243,127864,6,0,P|468:199|446:153,1,70,2|0,0:0|0:0,0:0:0:0:
362,110,128205,2,0,P|357:144|369:176,1,70,8|0,0:0|0:0,0:0:0:0:
310,254,128546,1,0,0:0:0:0:
259,170,128716,1,0,0:0:0:0:
259,170,128801,1,0,0:0:0:0:
259,170,128886,2,0,L|216:180,3,35,8|2|2|2,0:0|0:0|0:0|0:0,0:0:0:0:
175,183,129227,6,0,P|159:126|194:65,2,105,6|0|0,0:0|2:0|0:0,0:0:0:0:
217,271,129909,2,0,P|232:320|216:369,2,105,6|0|0,0:0|2:0|0:0,0:0:0:0:
209,172,130591,5,6,0:0:0:0:
93,263,130847,1,0,2:0:0:0:
57,120,131102,1,0,0:0:0:0:
128,187,131273,5,6,0:0:0:0:
112,41,131528,1,0,2:0:0:0:
252,86,131784,1,0,0:0:0:0:
162,125,131955,6,0,L|157:277,1,140,6|8,0:0|0:0,0:0:0:0:
91,337,132466,1,0,0:0:0:0:
91,337,132636,2,0,P|168:314|224:352,1,140,6|8,0:0|0:0,0:0:0:0:
313,358,133148,1,0,0:0:0:0:
276,267,133318,6,0,L|273:228,2,35,6|8|0,0:0|0:0|0:0,0:0:0:0:
373,281,133659,2,0,L|456:294,1,70,8|0,0:0|0:0,0:0:0:0:
454,194,134000,2,0,L|408:186,3,35,2|0|8|0,0:0|0:0|0:0|0:0,0:0:0:0:
370,179,134341,2,0,L|324:171,3,35,2|8|8|8,0:0|0:0|0:0|0:0,0:0:0:0:
287,162,134682,6,0,B|254:191|254:191|265:308,1,140,6|8,0:0|0:0,0:0:0:0:
340,346,135193,1,0,0:0:0:0:
340,346,135364,2,0,P|270:332|205:369,1,140,2|8,0:0|0:0,0:0:0:0:
113,350,135875,6,0,P|77:293|76:273,1,70,0|2,0:0|0:0,0:0:0:0:
162,216,136216,2,0,P|229:213|247:222,1,70,0|8,0:0|0:0,0:0:0:0:
159,118,136557,2,0,B|79:120|116:165|29:165,1,140,0|0,0:0|0:0,0:0:0:0:
69,48,137068,2,0,P|102:33|150:30,1,70,8|0,0:0|0:0,0:0:0:0:
247,54,137409,5,2,0:0:0:0:
247,54,137750,2,0,B|296:75|337:52|337:52|342:77|363:88,1,140,12|2,0:0|0:0,0:0:0:0:
429,15,138261,1,0,0:0:0:0:
459,108,138432,2,0,P|444:148|407:171,1,70,8|0,0:0|0:0,0:0:0:0:
326,178,138773,6,0,L|239:188,1,70,2|0,0:0|0:0,0:0:0:0:
257,284,139114,2,0,L|344:294,1,70,8|2,0:0|0:0,0:0:0:0:
410,240,139455,2,0,L|406:205,3,35,2|0|0|0,0:0|0:0|0:0|0:0,0:0:0:0:
398,156,139796,1,8,0:0:0:0:
343,74,139966,1,2,0:0:0:0:
343,74,140051,1,2,0:0:0:0:
343,74,140136,6,0,L|471:78,2,105,6|0|0,0:0|2:0|0:0,0:0:0:0:
276,146,140818,2,0,L|148:150,2,105,6|0|0,0:0|2:0|0:0,0:0:0:0:
353,206,141500,5,6,0:0:0:0:
320,62,141756,1,0,2:0:0:0:
459,107,142011,1,0,0:0:0:0:
411,21,142182,5,6,0:0:0:0:
359,158,142438,1,0,2:0:0:0:
502,196,142693,1,0,0:0:0:0:
413,238,142864,6,0,P|354:254|283:210,1,140,6|8,0:0|0:0,0:0:0:0:
199,174,143375,1,0,0:0:0:0:
199,174,143546,2,0,B|166:262|221:233|195:335,1,140,6|8,0:0|0:0,0:0:0:0:
103,291,144057,1,0,0:0:0:0:
87,194,144227,6,0,P|99:138|113:115,1,70,6|0,0:0|0:0,0:0:0:0:
198,155,144568,1,8,0:0:0:0:
181,65,144739,1,0,0:0:0:0:
181,65,144824,1,0,0:0:0:0:
181,65,144909,2,0,L|241:58,3,35,2|0|0|0,0:0|0:0|0:0|0:0,0:0:0:0:
265,58,145250,1,8,0:0:0:0:
212,141,145421,1,2,0:0:0:0:
294,171,145591,6,0,B|362:149|362:149|442:182,1,140,12|2,0:0|0:0,0:0:0:0:
472,244,146102,1,2,0:0:0:0:
428,315,146273,2,0,L|340:322,1,70,8|8,0:0|0:0,0:0:0:0:
260,308,146614,2,0,L|172:315,1,70,8|8,0:0|0:0,0:0:0:0:
322,237,146955,6,0,B|349:155|349:155|325:107,1,140,8|8,0:0|0:0,0:0:0:0:
252,41,147466,1,0,0:0:0:0:
221,135,147636,2,0,L|182:143,3,35,8|2|0|2,0:0|0:0|0:0|0:0,0:0:0:0:
144,143,147977,2,0,L|105:135,3,35,2|2|2|2,0:0|0:0|0:0|0:0,0:0:0:0:
343,40,149000,6,0,L|349:84,3,35,6|0|0|0,0:0|0:0|0:0|0:0,0:0:0:0:
334,121,149340,2,0,L|328:165,3,35,8|0|0|0,0:0|0:0|0:0|0:0,0:0:0:0:
360,194,149681,2,0,L|366:238,3,35,2|0|0|0,0:0|0:0|0:0|0:0,0:0:0:0:
347,275,150022,1,8,0:0:0:0:
264,221,150193,6,0,B|226:217|226:217|186:230,1,70,0|2,0:0|0:0,0:0:0:0:
141,308,150534,1,0,0:0:0:0:
141,308,150704,1,8,0:0:0:0:
94,221,150875,2,0,L|96:143,1,70,0|2,0:0|0:0,0:0:0:0:
182,105,151215,2,0,L|184:27,1,70,0|8,0:0|0:0,0:0:0:0:
273,75,151556,1,0,0:0:0:0:
361,31,151727,6,0,B|433:24|433:24|468:50,2,105,2|0|0,0:0|2:0|0:0,0:0:0:0:
355,129,152409,2,0,B|283:136|283:136|248:110,2,105,2|0|0,0:0|2:0|0:0,0:0:0:0:
370,225,153090,5,2,0:0:0:0:
446,99,153346,1,0,2:0:0:0:
497,236,153602,2,0,P|501:270|499:331,1,70,0|2,0:0|0:0,0:0:0:0:
418,358,153943,1,0,0:0:0:0:
339,299,154113,2,0,P|339:264|343:229,1,70,8|0,0:0|0:0,0:0:0:0:
418,136,154454,6,0,B|392:132|372:150|372:150|327:135|289:168,1,140,6|8,0:0|0:0,0:0:0:0:
237,84,154965,2,0,P|283:55|325:55,2,70,2|0|0,0:0|0:0|0:0,0:0:0:0:
191,172,155477,2,0,P|157:162|130:140,1,70,8|0,0:0|0:0,0:0:0:0:
85,53,155818,5,2,0:0:0:0:
42,162,155988,2,0,L|34:239,1,70,0|8,0:0|0:0,0:0:0:0:
119,281,156329,1,0,0:0:0:0:
191,214,156500,2,0,L|268:206,1,70,2|0,0:0|0:0,0:0:0:0:
357,195,156840,1,8,0:0:0:0:
298,115,157011,1,8,0:0:0:0:
298,115,157096,1,0,0:0:0:0:
298,115,157181,6,0,L|305:62,2,46.6666666666667,6|0|0,0:0|0:0|0:0,0:0:0:0:
258,167,157522,2,0,L|264:213,2,46.6666666666667,2|0|0,0:0|0:0|0:0,0:0:0:0:
216,116,157863,2,0,L|223:63,2,46.6666666666667,2|0|0,0:0|0:0|0:0,0:0:0:0:
174,167,158204,2,0,L|180:213,2,46.6666666666667,2|0|0,0:0|0:0|0:0,0:0:0:0:
119,130,158545,6,0,L|40:119,2,46.6666666666667,2|0|0,0:0|0:0|0:0,0:0:0:0:
152,73,158886,2,0,L|231:62,2,46.6666666666667,2|0|0,0:0|0:0|0:0,0:0:0:0:
114,19,159227,2,0,L|14:8,1,70,2|0,0:0|0:0,0:0:0:0:
25,107,159568,1,8,0:0:0:0:
25,107,159738,1,2,0:0:0:0:
109,157,159909,6,0,P|122:197|114:245,1,70,6|0,0:0|0:0,0:0:0:0:
16,293,160250,1,12,0:0:0:0:
16,293,160590,2,0,P|66:297|105:318,1,70,2|0,0:0|0:0,0:0:0:0:
166,358,160931,1,8,0:0:0:0:
173,260,161102,6,0,P|162:226|161:191,1,70,0|2,0:0|0:0,0:0:0:0:
276,171,161443,2,0,P|286:137|287:102,1,70,0|8,0:0|0:0,0:0:0:0:
173,62,161784,2,0,P|139:71|104:73,2,70,0|2|0,0:0|0:0|0:0,0:0:0:0:
254,6,162295,1,8,0:0:0:0:
256,103,162465,1,0,0:0:0:0:
338,26,162636,6,0,B|382:55|382:55|370:168,1,140,6|8,0:0|0:0,0:0:0:0:
292,197,163147,1,0,0:0:0:0:
381,236,163318,1,2,0:0:0:0:
302,294,163488,2,0,L|218:301,1,70,0|8,0:0|0:0,0:0:0:0:
137,323,163829,6,0,B|131:292|131:292|143:256,1,70,0|2,0:0|0:0,0:0:0:0:
217,192,164170,1,0,0:0:0:0:
124,160,164340,1,8,0:0:0:0:
201,99,164511,2,0,B|207:67|207:67|195:31,1,70,0|0,0:0|0:0,0:0:0:0:
104,67,164852,1,0,0:0:0:0:
29,130,165022,2,0,B|17:166|17:166|23:197,1,70,8|0,0:0|0:0,0:0:0:0:
106,263,165363,6,0,B|141:242|141:242|170:251|170:251|193:234|193:234|233:243,1,140,6|8,0:0|0:0,0:0:0:0:
315,189,165875,2,0,L|327:278,2,70,0|2|0,0:0|0:0|0:0,0:0:0:0:
226,149,166386,2,0,B|230:100|230:100|213:61|213:61|220:4,1,140,8|2,0:0|0:0,0:0:0:0:
313,46,166897,2,0,L|402:34,2,70,0|8|0,0:0|0:0|0:0,0:0:0:0:
347,133,167409,2,0,L|319:197,1,70,2|0,0:0|0:0,0:0:0:0:
260,120,167750,2,0,L|217:64,1,70,8|0,0:0|0:0,0:0:0:0:
120,72,168090,6,0,L|120:24,2,46.6666666666667,6|0|0,0:0|0:0|0:0,0:0:0:0:
73,117,168431,2,0,L|25:115,2,46.6666666666667,2|0|0,0:0|0:0|0:0,0:0:0:0:
117,165,168772,2,0,L|115:211,2,46.6666666666667,2|0|0,0:0|0:0|0:0,0:0:0:0:
166,121,169113,2,0,L|212:121,2,46.6666666666667,2|0|0,0:0|0:0|0:0,0:0:0:0:
120,72,169454,6,0,L|120:16,2,53.6666676902771,2|0|0,0:0|0:0|0:0,0:0:0:0:
73,117,169795,2,0,L|17:117,2,53.6666676902771,2|0|0,0:0|0:0|0:0,0:0:0:0:
117,165,170136,6,0,L|118:263,1,70,0|0,0:0|0:0,0:0:0:0:
216,237,170477,2,0,L|214:138,1,70,2|2,0:0|0:0,0:0:0:0:
165,63,170818,5,6,0:0:0:0:
203,95,179000,6,0,P|255:88|258:164,1,140,6|2,0:0|0:0,0:0:0:0:
184,188,179511,1,8,0:0:0:0:
184,188,179596,1,0,0:0:0:0:
184,188,179681,2,0,L|173:228,3,35,0|0|2|0,0:0|0:0|0:0|0:0,0:0:0:0:
169,263,180022,2,0,L|180:303,3,35,2|0|0|0,0:0|0:0|0:0|0:0,0:0:0:0:
197,334,180363,6,0,L|278:342,1,70,2|2,0:0|0:0,0:0:0:0:
308,267,180704,2,0,L|389:259,1,70,2|2,0:0|0:0,0:0:0:0:
452,298,181045,1,2,0:0:0:0:
453,214,181215,2,0,P|422:180|399:175,1,70,8|8,0:0|0:0,0:0:0:0:
367,97,181556,1,8,0:0:0:0:
315,204,181727,6,0,P|238:209|189:161,1,140,6|8,0:0|0:0,0:0:0:0:
250,90,182238,1,0,0:0:0:0:
152,102,182409,2,0,L|161:272,1,140,2|8,0:0|0:0,0:0:0:0:
109,326,182920,6,0,P|75:287|71:262,1,70,0|2,0:0|0:0,0:0:0:0:
207,327,183261,2,0,P|241:288|245:263,1,70,0|8,0:0|0:0,0:0:0:0:
309,166,183602,2,0,P|334:189|346:221,1,70,0|2,0:0|0:0,0:0:0:0:
327,318,183943,1,0,0:0:0:0:
420,288,184113,2,0,L|510:291,1,70,8|0,0:0|0:0,0:0:0:0:
439,189,184454,5,2,0:0:0:0:
439,189,184795,2,0,B|449:142|449:142|431:108|431:108|451:78|435:46,1,140,12|2,0:0|0:0,0:0:0:0:
341,56,185306,1,0,0:0:0:0:
334,154,185477,2,0,L|263:164,1,70,8|0,0:0|0:0,0:0:0:0:
185,105,185818,6,0,P|170:167|181:190,1,70,0|0,0:0|0:0,0:0:0:0:
127,270,186159,2,0,P|65:255|42:266,1,70,8|0,0:0|0:0,0:0:0:0:
111,362,186500,2,0,P|145:363|176:348,1,70,2|0,0:0|0:0,0:0:0:0:
227,264,186840,1,8,0:0:0:0:
285,342,187011,1,0,0:0:0:0:
285,342,187096,1,8,0:0:0:0:
285,342,187181,6,0,B|320:279|320:279|305:221,2,105,6|0|0,0:0|2:0|0:0,0:0:0:0:
209,279,187863,2,0,L|81:255,2,105,6|0|0,0:0|2:0|0:0,0:0:0:0:
266,199,188545,5,6,0:0:0:0:
278,345,188801,1,0,2:0:0:0:
399,263,189056,1,0,0:0:0:0:
300,270,189227,5,6,0:0:0:0:
336,127,189482,1,0,2:0:0:0:
193,162,189738,1,0,0:0:0:0:
246,79,189909,6,0,P|279:43|385:41,1,140,6|8,0:0|0:0,0:0:0:0:
441,95,190420,1,0,0:0:0:0:
441,95,190590,2,0,L|450:241,1,140,6|8,0:0|0:0,0:0:0:0:
456,333,191102,1,0,0:0:0:0:
367,292,191272,6,0,P|314:289|282:303,1,70,6|0,0:0|0:0,0:0:0:0:
220,354,191613,2,0,P|167:357|135:343,1,70,8|0,0:0|0:0,0:0:0:0:
68,299,191954,2,0,L|71:264,3,35,6|0|0|0,0:0|0:0|0:0|0:0,0:0:0:0:
76,215,192295,2,0,L|74:127,1,70,2|0,0:0|0:0,0:0:0:0:
123,36,192636,6,0,B|174:25|174:25|206:44|206:44|275:32,1,140,6|8,0:0|0:0,0:0:0:0:
354,30,193147,1,0,0:0:0:0:
308,116,193318,2,0,P|301:171|357:240,1,140,2|8,0:0|0:0,0:0:0:0:
258,274,193829,6,0,P|197:289|167:309,1,70,0|2,0:0|0:0,0:0:0:0:
304,343,194170,2,0,P|336:356|370:361,1,70,0|8,0:0|0:0,0:0:0:0:
339,247,194511,2,0,P|334:212|320:180,1,70,0|2,0:0|0:0,0:0:0:0:
238,126,194852,1,0,0:0:0:0:
173,199,195022,2,0,L|89:192,1,70,8|0,0:0|0:0,0:0:0:0:
23,111,195363,5,2,0:0:0:0:
23,111,195704,2,0,B|48:49|48:49|103:98,1,140,12|2,0:0|0:0,0:0:0:0:
179,158,196215,1,0,0:0:0:0:
238,236,196386,2,0,P|281:238|332:213,1,70,8|0,0:0|0:0,0:0:0:0:
277,122,196727,6,0,P|253:85|249:29,1,70,2|0,0:0|0:0,0:0:0:0:
164,154,197068,2,0,P|154:187|134:216,1,70,8|0,0:0|0:0,0:0:0:0:
75,294,197409,2,0,L|126:303,3,35,2|0|0|0,0:0|0:0|0:0|0:0,0:0:0:0:
156,315,197750,1,2,0:0:0:0:
231,253,197920,1,2,0:0:0:0:
231,253,198005,1,2,0:0:0:0:
231,253,198090,6,0,P|252:304|235:375,2,105,6|0|0,0:0|2:0|0:0,0:0:0:0:
167,177,198772,2,0,P|218:155|289:173,2,105,6|0|0,0:0|2:0|0:0,0:0:0:0:
129,268,199454,5,6,0:0:0:0:
85,127,199710,1,0,2:0:0:0:
7,251,199965,1,0,0:0:0:0:
92,202,200136,5,6,0:0:0:0:
153,335,200392,1,0,2:0:0:0:
6,346,200647,1,0,0:0:0:0:
77,278,200818,6,0,L|72:111,1,140,6|8,0:0|0:0,0:0:0:0:
156,87,201329,1,0,0:0:0:0:
156,87,201500,2,0,L|160:226,1,140,6|8,0:0|0:0,0:0:0:0:
168,324,202011,1,0,0:0:0:0:
249,269,202181,5,6,0:0:0:0:
259,366,202352,2,0,L|315:371,2,35,8|0|2,0:0|0:0|0:0,0:0:0:0:
330,299,202693,2,0,L|386:294,2,35,0|8|2,0:0|0:0|0:0,0:0:0:0:
399,368,203034,2,0,L|455:373,2,35,0|8|2,0:0|0:0|0:0,0:0:0:0:
457,288,203375,1,8,0:0:0:0:
457,288,203460,1,8,0:0:0:0:
457,288,203545,6,0,B|481:238|481:238|456:137,1,140,6|8,0:0|0:0,0:0:0:0:
383,95,204056,1,0,0:0:0:0:
369,192,204227,2,0,P|323:195|294:185,1,70,2|0,0:0|0:0,0:0:0:0:
242,108,204568,2,0,P|196:105|167:115,1,70,8|0,0:0|0:0,0:0:0:0:
83,151,204909,5,2,0:0:0:0:
83,151,205079,2,0,L|85:72,1,70,0|8,0:0|0:0,0:0:0:0:
11,190,205420,2,0,L|12:259,1,70,2|0,0:0|0:0,0:0:0:0:
63,344,205761,1,0,0:0:0:0:
127,270,205931,2,0,L|196:271,1,70,8|0,0:0|0:0,0:0:0:0:
310,276,206272,5,2,0:0:0:0:
310,276,206613,2,0,B|351:274|375:241|375:241|403:246|423:279,1,140,12|2,0:0|0:0,0:0:0:0:
464,368,207125,1,0,0:0:0:0:
366,359,207295,2,0,P|315:373|281:369,1,70,8|0,0:0|0:0,0:0:0:0:
217,317,207636,2,0,P|166:303|132:307,1,70,2|0,0:0|0:0,0:0:0:0:
283,253,207977,6,0,P|290:214|282:164,1,70,8|0,0:0|0:0,0:0:0:0:
240,97,208318,2,0,L|194:103,3,35,2|0|0|8,0:0|0:0|0:0|0:0,0:0:0:0:
156,111,208659,1,2,0:0:0:0:
87,41,208829,1,8,0:0:0:0:
87,41,208914,1,8,0:0:0:0:
87,41,209000,6,0,B|65:102|65:102|81:164,2,105,6|0|0,0:0|2:0|0:0,0:0:0:0:
159,107,209681,2,0,P|205:128|279:101,2,105,6|0|0,0:0|2:0|0:0,0:0:0:0:
218,29,210363,5,6,0:0:0:0:
76,61,210619,1,0,2:0:0:0:
141,193,210875,1,0,0:0:0:0:
155,96,211045,5,6,0:0:0:0:
25,165,211301,1,0,2:0:0:0:
113,281,211556,1,0,0:0:0:0:
106,182,211727,6,0,P|165:193|209:286,1,140,6|8,0:0|0:0,0:0:0:0:
142,328,212238,1,0,0:0:0:0:
142,328,212409,2,0,L|302:341,1,140,6|8,0:0|0:0,0:0:0:0:
378,354,212920,1,0,0:0:0:0:
339,264,213090,6,0,L|336:218,2,35,6|8|0,0:0|0:0|0:0,0:0:0:0:
403,163,213431,2,0,L|479:170,1,70,12|0,0:0|0:0,0:0:0:0:
450,73,213772,2,0,L|410:70,3,35,2|0|0|0,0:0|0:0|0:0|0:0,0:0:0:0:
365,66,214113,2,0,L|325:63,3,35,2|0|2|2,0:0|0:0|0:0|0:0,0:0:0:0:
281,56,214454,6,0,L|211:49,1,70,6|0,0:0|0:0,0:0:0:0:
205,147,214795,2,0,L|274:153,1,70,8|0,0:0|0:0,0:0:0:0:
175,228,215136,2,0,L|105:221,1,70,2|0,0:0|0:0,0:0:0:0:
95,319,215477,2,0,L|164:325,1,70,8|0,0:0|0:0,0:0:0:0:
254,284,215818,5,2,0:0:0:0:
182,217,215988,2,0,P|179:173|190:140,1,70,0|8,0:0|0:0,0:0:0:0:
275,108,216329,2,0,P|282:141|278:176,1,70,0|2,0:0|0:0,0:0:0:0:
271,274,216670,1,0,0:0:0:0:
359,232,216840,2,0,P|392:224|427:228,1,70,8|0,0:0|0:0,0:0:0:0:
399,337,217181,5,2,0:0:0:0:
399,337,217522,2,0,B|343:322|343:322|316:348|316:348|261:357,1,140,12|2,0:0|0:0,0:0:0:0:
176,328,218034,1,0,0:0:0:0:
246,259,218204,2,0,P|255:211|237:174,1,70,8|0,0:0|0:0,0:0:0:0:
134,204,218545,6,0,L|51:208,1,70,2|0,0:0|0:0,0:0:0:0:
128,100,218886,2,0,L|211:104,1,70,8|0,0:0|0:0,0:0:0:0:
261,178,219227,2,0,L|312:168,3,35,2|0|0|0,0:0|0:0|0:0|0:0,0:0:0:0:
344,163,219568,1,8,0:0:0:0:
324,258,219738,1,2,0:0:0:0:
324,258,219823,1,2,0:0:0:0:
324,258,219909,6,0,L|321:387,2,105,6|0|0,0:0|2:0|0:0,0:0:0:0:
375,174,220590,2,0,L|246:177,2,105,6|0|0,0:0|2:0|0:0,0:0:0:0:
340,81,221272,5,6,0:0:0:0:
473,142,221528,1,0,2:0:0:0:
379,255,221784,1,0,0:0:0:0:
394,158,221954,5,6,0:0:0:0:
462,288,222210,1,0,2:0:0:0:
317,310,222465,1,0,0:0:0:0:
384,238,222636,6,0,L|223:230,1,140,6|8,0:0|0:0,0:0:0:0:
174,161,223147,1,0,0:0:0:0:
174,161,223318,2,0,B|145:192|145:192|157:319,1,140,6|8,0:0|0:0,0:0:0:0:
93,366,223829,1,0,0:0:0:0:
53,275,224000,6,0,L|46:199,1,70,6|0,0:0|0:0,0:0:0:0:
96,121,224340,2,0,L|89:45,1,70,8|0,0:0|0:0,0:0:0:0:
183,80,224681,2,0,L|239:88,3,35,8|0|2|2,0:0|0:0|0:0|0:0,0:0:0:0:
267,85,225022,2,0,L|323:77,3,35,2|2|2|2,0:0|0:0|0:0|0:0,0:0:0:0:
349,69,225363,5,6,0:0:0:0:
256,192,225448,12,0,226727,2:0:0:0:
447,188,227409,6,0,L|459:287,1,70,2|2,0:0|0:0,0:0:0:0:
465,341,227750,1,2,0:0:0:0:
373,280,227920,6,0,L|219:271,1,140,6|8,0:0|0:0,0:0:0:0:
175,210,228431,2,0,B|207:272|207:272|169:348,1,140,12|2,0:0|0:0,0:0:0:0:
115,274,228943,1,2,0:0:0:0:
52,329,229113,1,8,0:0:0:0:
39,245,229284,6,0,B|31:198|31:198|40:157|40:157|32:107,1,140,2|2,0:0|0:0,0:0:0:0:
71,32,229795,2,0,P|110:71|108:108,1,70,8|2,0:0|0:0,0:0:0:0:
153,156,230136,2,0,L|241:161,1,70,2|2,0:0|0:0,0:0:0:0:
295,117,230477,1,8,0:0:0:0:
295,200,230647,6,0,P|282:248|330:333,1,140,2|2,0:0|0:0,0:0:0:0:
240,355,231159,2,0,P|192:342|107:390,1,140,8|0,0:0|0:0,0:0:0:0:
71,306,231670,1,2,0:0:0:0:
143,263,231840,1,8,0:0:0:0:
68,223,232011,6,0,L|72:60,1,140,2|2,0:0|0:0,0:0:0:0:
147,118,232522,2,0,L|228:131,1,70,8|0,0:0|0:0,0:0:0:0:
300,125,232863,2,0,P|298:159|283:190,1,70,2|2,0:0|0:0,0:0:0:0:
204,218,233204,1,8,0:0:0:0:
298,272,233375,6,0,L|439:280,1,140,6|2,0:0|0:0,0:0:0:0:
433,364,233886,2,0,L|292:356,1,140,12|2,0:0|0:0,0:0:0:0:
224,307,234397,1,2,0:0:0:0:
165,367,234568,1,8,0:0:0:0:
140,287,234738,6,0,P|172:240|260:234,1,140,2|2,0:0|0:0,0:0:0:0:
319,278,235250,2,0,P|333:218|321:185,1,70,8|0,0:0|0:0,0:0:0:0:
272,152,235590,2,0,P|258:92|270:59,1,70,2|2,0:0|0:0,0:0:0:0:
324,31,235931,1,8,0:0:0:0:
213,18,236102,6,0,B|134:12|165:61|70:63,1,140,6|2,0:0|0:0,0:0:0:0:
57,142,236613,2,0,P|113:139|146:128,1,70,8|2,0:0|0:0,0:0:0:0:
205,108,236954,2,0,L|211:194,2,70,8|2|2,0:0|0:0|0:0,0:0:0:0:
246,34,237465,6,0,B|283:57|283:57|290:168,2,140,8|8|2,0:0|0:0|0:0,0:0:0:0:
204,95,238296,6,0,P|101:113|179:30,1,280,14|0,0:0|2:0,0:0:0:0:
