osu file format v14

[General]
AudioFilename: forandrew.mp3
AudioLeadIn: 0
PreviewTime: 55506
Countdown: 0
SampleSet: Normal
StackLeniency: 0.5
Mode: 0
LetterboxInBreaks: 0
WidescreenStoryboard: 1

[Editor]
Bookmarks: 11784,19966,22693,33602,44682,51159,79455,90875,101784,112693,150193,168090,169113,170818,192636,214454,238977
DistanceSpacing: 1.5
BeatDivisor: 4
GridSize: 32
TimelineZoom: 1.6

[Metadata]
Title:Routine
TitleUnicode:Routine
Artist:Silent Siren
ArtistUnicode:サイレントサイレン
Creator:sukiNathan
Version:Giralda's Insane
Source:
Tags:jpop j-pop aina yamauchi yukako kurosaka hinako umemura sumire yoshida ayana sōgawa sogawa giralda
BeatmapID:881353
BeatmapSetID:396745

[Difficulty]
HPDrainRate:6
CircleSize:4
OverallDifficulty:7
ApproachRate:9
SliderMultiplier:1.7
SliderTickRate:1

[Events]
//Background and Video events
0,0,"adoredesu.jpg",0,0
//Break Periods
2,171018,178318
//Storyboard Layer 0 (Background)
//Storyboard Layer 1 (Fail)
//Storyboard Layer 2 (Pass)
//Storyboard Layer 3 (Foreground)
//Storyboard Sound Samples

[TimingPoints]
1046,340.909090909091,4,2,0,60,1,0
1046,-133.333333333333,4,2,0,60,0,0
6500,-133.333333333333,4,1,1,40,0,0
7864,-133.333333333333,4,1,1,50,0,0
9227,-133.333333333333,4,1,1,60,0,0
11273,-133.333333333333,4,2,0,60,0,0
11784,-100,4,1,1,70,0,0
22693,-125,4,2,1,60,0,0
43830,-125,4,2,1,70,0,0
44682,-125,4,2,1,60,0,0
52864,-111.111111111111,4,2,1,60,0,0
55591,-100,4,1,1,70,0,1
77409,-100,4,2,1,70,0,0
79455,-133.333333333333,4,2,0,60,0,0
79966,-100,4,1,1,70,0,0
90875,-125,4,2,1,65,0,0
112864,-125,4,2,1,60,0,0
121046,-111.111111111111,4,2,1,60,0,0
123773,-100,4,1,1,70,0,1
145591,-100,4,1,1,60,0,0
146955,-100,4,1,1,70,0,0
148318,-100,4,2,0,40,0,0
149000,340.909090909091,4,1,1,70,1,0
181727,-100,4,1,1,70,0,1
203034,-100,4,1,1,70,0,0
203545,-100,4,1,1,70,0,1
225363,-100,4,1,1,70,0,0
227238,-133.333333333333,4,2,0,60,0,0
227920,-100,4,1,1,70,0,0
238296,340.909090909091,4,1,1,70,1,0
238296,-125,4,1,1,70,0,0

[Colours]
Combo1 : 249,113,140
Combo2 : 250,56,62
Combo3 : 77,147,253
Combo4 : 88,220,226

[HitObjects]
75,353,1046,6,0,P|63:290|64:226,1,127.500004863739,6|0,0:0|0:0,0:0:0:0:
64,226,1557,1,0,0:0:0:0:
156,269,1727,2,0,P|187:276|218:275,1,63.7500024318696,0|0,0:0|0:0,0:0:0:0:
274,359,2068,2,0,P|304:349|331:333,1,63.7500024318696,0|0,0:0|0:0,0:0:0:0:
512,298,2409,6,0,P|452:273|389:268,1,127.500004863739,2|0,0:0|0:0,0:0:0:0:
390,267,2921,1,0,0:0:0:0:
466,195,3091,2,0,P|474:164|476:132,1,63.7500024318696,2|0,0:0|0:0,0:0:0:0:
395,91,3432,2,0,P|386:60|371:32,1,63.7500024318696,0|0,0:0|0:0,0:0:0:0:
172,165,3773,6,0,P|230:140|293:134,1,127.500004863739,2|0,0:0|0:0,0:0:0:0:
293,134,4284,1,0,0:0:0:0:
484,207,4455,2,0,P|453:214|422:213,1,63.7500024318696,0|0,0:0|0:0,0:0:0:0:
366,297,4796,2,0,P|336:287|309:271,1,63.7500024318696,0|0,0:0|0:0,0:0:0:0:
87,333,5136,6,0,P|145:308|208:302,1,127.500004863739,2|0,0:0|0:0,0:0:0:0:
208,302,5648,1,0,0:0:0:0:
92,245,5818,2,0,P|84:214|82:182,1,63.7500024318696,0|0,0:0|0:0,0:0:0:0:
248,107,6159,2,0,P|255:137|257:169,1,63.7500024318696,2|0,0:0|0:0,0:0:0:0:
208,302,6500,5,0,1:0:0:0:
208,302,6841,2,0,L|270:292,1,63.7500024318696,0|0,0:0|0:0,0:0:0:0:
397,192,7182,2,0,L|334:201,1,63.7500024318696,8|8,0:0|0:0,0:0:0:0:
78,219,7523,2,0,P|81:187|87:156,1,63.7500024318696,8|8,0:0|0:0,0:0:0:0:
203,71,7864,6,0,P|199:102|193:133,1,63.7500024318696,8|8,0:0|0:0,0:0:0:0:
46,313,8205,1,8,0:0:0:0:
78,219,8375,1,8,0:0:0:0:
171,251,8546,1,8,0:0:0:0:
139,345,8716,1,8,0:0:0:0:
116,167,8886,5,8,0:0:0:0:
212,144,9056,1,8,0:0:0:0:
236,240,9227,6,0,L|226:312,1,63.7500024318696,8|8,0:0|0:0,0:0:0:0:
306,170,9568,2,0,L|378:160,1,63.7500024318696,8|8,0:0|0:0,0:0:0:0:
476,250,9909,2,0,L|412:258,1,63.7500024318696,8|8,0:0|0:0,0:0:0:0:
156,330,10250,2,0,P|150:298|146:266,1,63.7500024318696,8|0,0:0|0:0,0:0:0:0:
205,74,10591,5,2,0:0:0:0:
205,74,10676,1,2,0:0:0:0:
205,74,10761,1,2,0:0:0:0:
205,74,10932,1,6,0:0:0:0:
227,57,11273,6,0,L|299:47,2,63.7500024318696,2|2|2,0:0|0:0|0:0,0:0:0:0:
334,194,11784,6,0,B|353:138|353:138|389:110|389:110|404:46,1,170,6|2,0:0|0:0,0:0:0:0:
461,171,12296,1,8,0:0:0:0:
298,283,12466,2,0,L|382:273,1,85,0|2,0:0|0:0,0:0:0:0:
160,197,12807,2,0,L|245:188,1,85,2|8,0:0|0:0,0:0:0:0:
56,129,13148,6,0,P|69:212|75:297,1,170,2|2,0:0|0:0,0:0:0:0:
179,357,13659,2,0,P|170:316|165:274,1,85,8|2,0:0|0:0,0:0:0:0:
313,226,14000,1,2,0:0:0:0:
276,325,14171,2,0,L|360:315,1,85,2|8,0:0|0:0,0:0:0:0:
508,169,14511,6,0,B|470:171|470:171|443:153|443:153|391:175|346:153,1,170,2|2,0:0|0:0,0:0:0:0:
264,103,15023,1,8,0:0:0:0:
91,225,15193,2,0,P|96:180|102:140,1,85,2|2,0:0|0:0,0:0:0:0:
201,265,15534,2,0,P|195:309|189:349,1,85,2|8,0:0|0:0,0:0:0:0:
361,364,15875,6,0,B|355:332|367:300|367:300|360:269|360:269|381:238|376:199,1,170,2|2,0:0|0:0,0:0:0:0:
296,62,16386,2,0,P|291:104|283:145,1,85,8|0,0:0|0:0,0:0:0:0:
203,246,16727,1,2,0:0:0:0:
161,154,16898,2,0,L|76:165,1,85,2|8,0:0|0:0,0:0:0:0:
61,331,17239,6,0,P|145:337|229:352,1,170,2|2,0:0|0:0,0:0:0:0:
318,326,17750,1,8,0:0:0:0:
413,369,17921,2,0,L|403:280,1,85,2|2,0:0|0:0,0:0:0:0:
466,88,18261,1,2,0:0:0:0:
512,164,18432,1,8,0:0:0:0:
437,212,18602,6,0,P|353:196|268:187,1,170,2|2,0:0|0:0,0:0:0:0:
94,288,19114,2,0,P|136:282|178:275,1,85,8|2,0:0|0:0,0:0:0:0:
269,187,19455,1,2,0:0:0:0:
190,114,19625,2,0,P|148:107|105:101,1,85,2|8,0:0|0:0,0:0:0:0:
77,298,19966,6,0,B|131:299|179:275|179:275|203:296|237:300,1,170,2|2,0:0|0:0,0:0:0:0:
269,187,20477,1,8,0:0:0:0:
407,332,20648,2,0,L|414:247,1,85,2|2,0:0|0:0,0:0:0:0:
474,168,20989,1,2,0:0:0:0:
335,251,21159,1,8,0:0:0:0:
488,334,21330,5,6,0:0:0:0:
269,187,21671,1,2,0:0:0:0:
488,334,22011,1,10,0:0:0:0:
365,377,22182,2,0,L|355:292,1,85,10|2,0:0|0:0,0:0:0:0:
351,267,22438,1,2,0:0:0:0:
351,267,22523,1,2,0:0:0:0:
506,171,22693,6,0,P|439:180|382:146,1,136,6|2,0:0|0:0,0:0:0:0:
382,146,23205,1,8,0:0:0:0:
269,213,23375,2,0,L|276:145,1,68,0|2,0:0|0:0,0:0:0:0:
210,285,23716,2,0,L|202:352,1,68,2|8,0:0|0:0,0:0:0:0:
147,208,24057,1,2,0:0:0:0:
91,277,24227,6,0,L|11:263,1,68,0|2,0:0|0:0,0:0:0:0:
0,166,24568,1,8,0:0:0:0:
101,118,24739,2,0,L|246:144,1,136,2|2,0:0|0:0,0:0:0:0:
421,81,25250,2,0,P|427:114|433:147,1,68,8|2,0:0|0:0,0:0:0:0:
328,303,25591,5,0,0:0:0:0:
404,243,25761,2,0,L|479:260,1,68,2|8,0:0|0:0,0:0:0:0:
232,322,26102,1,0,0:0:0:0:
213,225,26273,1,2,0:0:0:0:
309,206,26443,1,2,0:0:0:0:
328,303,26614,1,8,0:0:0:0:
125,341,26784,6,0,P|114:273|116:205,1,136,2|2,0:0|0:0,0:0:0:0:
245,63,27296,2,0,L|239:130,1,68,8|0,0:0|0:0,0:0:0:0:
232,322,27636,1,2,0:0:0:0:
328,303,27807,1,2,0:0:0:0:
309,206,27977,1,8,0:0:0:0:
213,225,28148,1,2,0:0:0:0:
328,303,28318,6,0,L|397:291,1,68,0|2,0:0|0:0,0:0:0:0:
491,194,28659,1,8,0:0:0:0:
405,111,28830,2,0,P|395:143|391:177,1,68,0|2,0:0|0:0,0:0:0:0:
276,25,29171,2,0,P|286:57|290:91,1,68,2|8,0:0|0:0,0:0:0:0:
180,165,29511,6,0,P|247:171|312:190,1,136,2|2,0:0|0:0,0:0:0:0:
472,125,30023,1,8,0:0:0:0:
430,279,30193,2,0,L|410:214,1,68,2|2,0:0|0:0,0:0:0:0:
452,60,30534,2,0,L|471:124,1,68,2|8,0:0|0:0,0:0:0:0:
324,227,30875,1,2,0:0:0:0:
229,147,31046,6,0,P|195:140|162:135,1,68,0|0,0:0|0:0,0:0:0:0:
49,248,31386,1,8,0:0:0:0:
123,307,31557,2,0,L|189:295,1,68,0|2,0:0|0:0,0:0:0:0:
342,330,31898,2,0,L|275:341,1,68,2|8,0:0|0:0,0:0:0:0:
156,190,32239,6,0,L|290:167,1,136,2|2,0:0|0:0,0:0:0:0:
374,215,32750,1,8,0:0:0:0:
505,115,32921,2,0,L|496:193,1,68,0|2,0:0|1:0,0:0:0:0:
385,9,33261,1,0,1:0:0:0:
388,36,33346,1,0,1:0:0:0:
391,63,33432,1,8,1:0:0:0:
287,140,33602,6,0,P|222:149|171:107,1,136,6|2,0:0|0:0,0:0:0:0:
170,106,34114,1,8,0:0:0:0:
55,172,34284,2,0,L|42:105,1,68,0|2,0:0|0:0,0:0:0:0:
129,246,34625,2,0,L|141:312,1,68,2|8,0:0|0:0,0:0:0:0:
177,157,34966,1,2,0:0:0:0:
309,203,35136,6,0,L|243:216,1,68,0|2,0:0|0:0,0:0:0:0:
418,215,35477,1,8,0:0:0:0:
477,308,35648,2,0,L|343:332,1,136,0|2,0:0|0:0,0:0:0:0:
144,348,36159,2,0,P|147:314|153:280,1,68,8|2,0:0|0:0,0:0:0:0:
250,142,36500,5,0,0:0:0:0:
167,188,36671,2,0,L|100:174,1,68,2|8,0:0|0:0,0:0:0:0:
352,123,37011,1,2,0:0:0:0:
365,220,37182,1,2,0:0:0:0:
269,239,37353,1,2,0:0:0:0:
250,142,37523,1,8,0:0:0:0:
435,94,37693,6,0,P|451:160|457:227,1,136,2|2,0:0|0:0,0:0:0:0:
349,380,38205,2,0,L|330:312,1,68,8|0,0:0|0:0,0:0:0:0:
352,123,38546,1,2,0:0:0:0:
250,142,38716,1,2,0:0:0:0:
269,239,38886,1,8,0:0:0:0:
365,220,39057,1,6,0:0:0:0:
250,142,39227,6,0,L|183:128,1,68,0|2,0:0|0:0,0:0:0:0:
66,201,39568,1,8,0:0:0:0:
140,312,39739,2,0,P|206:296|273:293,1,136,0|2,0:0|0:0,0:0:0:0:
409,253,40250,1,8,0:0:0:0:
464,130,40421,6,0,P|396:127|330:111,1,136,2|2,0:0|0:0,0:0:0:0:
101,143,40932,1,8,0:0:0:0:
158,229,41102,2,0,L|145:295,1,68,2|2,0:0|0:0,0:0:0:0:
267,364,41443,1,2,0:0:0:0:
244,275,41614,1,8,0:0:0:0:
361,184,41784,6,0,P|374:250|365:317,1,136,2|2,0:0|0:0,0:0:0:0:
365,317,42296,1,8,0:0:0:0:
176,267,42466,2,0,L|270:278,1,68,0|2,0:0|0:0,0:0:0:0:
60,171,42807,2,0,L|127:163,1,68,2|8,0:0|0:0,0:0:0:0:
322,46,43148,6,0,L|341:180,1,136,6|2,0:0|0:0,0:0:0:0:
248,307,43659,1,8,0:0:0:0:
117,255,43830,1,0,0:0:0:0:
117,255,43915,1,0,0:0:0:0:
117,255,44000,2,0,L|65:248,3,34,0|0|0|0,1:0|1:0|1:0|1:0,0:0:0:0:
241,212,44341,2,0,L|293:205,3,34,8|8|8|8,1:0|1:0|1:0|1:0,0:0:0:0:
128,153,44682,6,0,L|60:142,1,68,6|2,0:0|0:0,0:0:0:0:
241,212,45023,1,8,0:0:0:0:
207,96,45193,1,2,0:0:0:0:
345,172,45364,2,0,L|354:255,1,68,2|2,0:0|0:0,0:0:0:0:
197,337,45705,2,0,L|189:269,1,68,8|6,0:0|0:0,0:0:0:0:
200,95,47409,6,0,L|190:171,1,68,6|2,0:0|0:0,0:0:0:0:
55,226,47750,1,8,0:0:0:0:
242,299,47921,1,2,0:0:0:0:
147,357,48092,2,0,L|137:281,1,68,2|0,0:0|0:0,0:0:0:0:
333,169,48432,2,0,L|324:236,1,68,8|6,0:0|0:0,0:0:0:0:
443,281,50136,6,0,L|367:291,1,68,6|2,0:0|0:0,0:0:0:0:
245,352,50477,1,8,0:0:0:0:
297,231,50648,1,2,0:0:0:0:
112,228,50818,2,0,L|121:296,1,68,2|2,0:0|0:0,0:0:0:0:
291,146,51159,2,0,L|283:79,1,68,8|6,0:0|0:0,0:0:0:0:
291,340,52864,6,0,P|218:321|141:316,1,152.999995330811,6|8,0:0|0:0,0:0:0:0:
50,256,53375,1,2,0:0:0:0:
191,142,53546,2,0,L|203:217,1,76.4999976654053,8|2,0:0|0:0,0:0:0:0:
349,97,53886,2,0,L|337:172,1,76.4999976654053,8|2,0:0|0:0,0:0:0:0:
479,277,54227,6,0,L|442:256,2,38.2499988327027,2|2|2,0:0|0:0|0:0,0:0:0:0:
291,340,54568,2,0,L|312:303,2,38.2499988327027,2|2|2,0:0|0:0|0:0,0:0:0:0:
365,244,54909,1,2,0:0:0:0:
207,221,55080,1,8,0:0:0:0:
207,221,55250,1,8,0:0:0:0:
207,221,55421,1,8,0:0:0:0:
325,118,55591,6,0,P|241:128|161:101,1,170,6|8,0:0|0:0,0:0:0:0:
51,228,56102,1,0,0:0:0:0:
122,300,56273,2,0,P|201:273|285:283,1,170,2|8,0:0|0:0,0:0:0:0:
382,251,56784,6,0,L|397:350,1,85,0|2,0:0|0:0,0:0:0:0:
431,157,57125,2,0,L|418:72,1,85,0|8,0:0|0:0,0:0:0:0:
273,122,57466,2,0,P|192:137|125:88,1,170,0|0,0:0|0:0,0:0:0:0:
30,153,57977,2,0,P|21:111|15:69,1,85,8|0,0:0|0:0,0:0:0:0:
218,269,58318,6,0,L|134:321,1,85,2|0,0:0|0:0,0:0:0:0:
320,194,58659,2,0,L|238:174,1,85,12|0,0:0|0:0,0:0:0:0:
149,207,59000,2,0,L|159:122,1,85,2|0,0:0|0:0,0:0:0:0:
311,350,59341,2,0,L|301:265,1,85,8|0,0:0|0:0,0:0:0:0:
422,58,59682,6,0,B|456:90|456:90|475:161|431:206,1,170,2|8,0:0|0:0,0:0:0:0:
431,204,60193,1,0,0:0:0:0:
235,346,60364,1,2,0:0:0:0:
217,316,60449,1,0,0:0:0:0:
211,283,60534,1,0,0:0:0:0:
216,250,60619,1,8,0:0:0:0:
232,219,60705,1,10,0:0:0:0:
90,127,60875,5,8,0:0:0:0:
98,159,60960,1,8,0:0:0:0:
106,192,61046,2,0,L|83:317,1,127.5,6|0,0:0|2:0,0:0:0:0:
144,359,61386,2,0,P|184:346|226:341,1,85,8|0,0:0|0:0,0:0:0:0:
487,278,61727,2,0,B|472:286|451:303|451:303|411:286|370:283,1,127.5,6|0,0:0|2:0,0:0:0:0:
299,306,62068,2,0,L|289:212,1,85,8|0,0:0|0:0,0:0:0:0:
34,101,62409,6,0,L|164:89,1,127.5,6|0,0:0|2:0,0:0:0:0:
234,99,62750,2,0,P|223:140|215:181,1,85,8|0,0:0|0:0,0:0:0:0:
433,343,63091,2,0,B|455:310|455:310|462:269|438:224,1,127.5,6|0,0:0|2:0,0:0:0:0:
376,185,63432,2,0,P|335:196|293:203,1,85,8|0,0:0|0:0,0:0:0:0:
91,346,63773,6,0,P|162:304|244:318,1,170,6|8,0:0|0:0,0:0:0:0:
244,318,64284,1,0,0:0:0:0:
92,243,64455,2,0,P|66:163|98:86,1,170,6|8,0:0|0:0,0:0:0:0:
300,139,64966,1,0,0:0:0:0:
171,166,65136,5,6,0:0:0:0:
260,70,65307,1,0,0:0:0:0:
243,199,65477,1,8,0:0:0:0:
181,84,65648,1,0,0:0:0:0:
300,139,65818,2,0,L|390:156,1,85,6|0,0:0|0:0,0:0:0:0:
387,167,66074,1,0,0:0:0:0:
389,178,66159,1,8,0:0:0:0:
391,188,66244,1,0,0:0:0:0:
393,199,66329,1,2,0:0:0:0:
395,209,66414,1,0,0:0:0:0:
397,222,66500,6,0,B|346:250|282:225|282:225|237:250,1,170,6|8,0:0|0:0,0:0:0:0:
157,296,67011,1,0,0:0:0:0:
24,145,67182,2,0,B|75:173|139:148|139:148|183:173,1,170,2|8,0:0|0:0,0:0:0:0:
338,166,67693,6,0,L|317:65,1,85,0|2,0:0|0:0,0:0:0:0:
289,248,68034,2,0,L|306:331,1,85,0|8,0:0|0:0,0:0:0:0:
176,290,68375,2,0,P|95:284|41:346,1,170,0|0,0:0|0:0,0:0:0:0:
44,215,68886,2,0,P|37:173|30:131,1,85,8|0,0:0|0:0,0:0:0:0:
215,152,69227,6,0,L|136:185,1,85,2|0,0:0|0:0,0:0:0:0:
282,3,69568,2,0,L|271:88,1,85,12|0,0:0|0:0,0:0:0:0:
295,172,69909,2,0,L|353:239,1,85,2|0,0:0|0:0,0:0:0:0:
395,153,70250,1,8,0:0:0:0:
255,261,70421,1,0,0:0:0:0:
464,326,70591,5,2,0:0:0:0:
464,326,70676,2,0,P|481:265|471:214,1,85,0|0,0:0|2:0,0:0:0:0:
415,192,70932,2,0,L|452:103,1,85,8|0,0:0|2:0,0:0:0:0:
255,123,71273,1,2,0:0:0:0:
242,154,71358,1,0,0:0:0:0:
237,188,71443,1,0,0:0:0:0:
240,221,71528,1,0,0:0:0:0:
253,253,71614,1,8,0:0:0:0:
88,329,71784,1,2,0:0:0:0:
99,296,71869,1,8,0:0:0:0:
110,263,71955,6,0,L|94:136,1,127.5,6|0,0:0|0:0,0:0:0:0:
140,77,72296,2,0,P|181:69|222:57,1,85,8|0,0:0|0:0,0:0:0:0:
487,115,72636,2,0,B|459:109|443:92|443:92|412:108|367:99,1,127.5,6|0,0:0|2:0,0:0:0:0:
293,107,72977,2,0,L|278:190,1,85,8|0,0:0|0:0,0:0:0:0:
481,328,73318,6,0,L|356:348,1,127.5,6|0,0:0|2:0,0:0:0:0:
280,351,73659,2,0,P|285:308|291:266,1,85,8|0,0:0|0:0,0:0:0:0:
63,93,74000,2,0,B|42:132|42:132|37:175|55:213,1,127.5,6|0,0:0|2:0,0:0:0:0:
118,252,74341,2,0,P|159:243|201:237,1,85,8|0,0:0|0:0,0:0:0:0:
457,183,74682,6,0,P|373:168|288:161,1,170,6|8,0:0|0:0,0:0:0:0:
63,265,75193,1,0,0:0:0:0:
137,329,75364,2,0,P|220:314|305:307,1,170,6|8,0:0|0:0,0:0:0:0:
405,329,75875,1,0,0:0:0:0:
471,204,76046,5,6,0:0:0:0:
438,195,76131,1,0,0:0:0:0:
404,191,76216,1,0,0:0:0:0:
370,193,76301,1,0,0:0:0:0:
336,198,76386,1,8,0:0:0:0:
303,203,76472,1,0,0:0:0:0:
269,202,76557,1,0,0:0:0:0:
236,196,76642,1,0,0:0:0:0:
203,185,76727,2,0,L|180:134,3,42.5,8|0|2|2,0:0|0:0|0:0|0:0,0:0:0:0:
125,250,77068,2,0,L|107:288,3,42.5,2|2|2|2,0:0|0:0|0:0|0:0,0:0:0:0:
50,182,77409,5,6,0:0:0:0:
256,192,77494,12,0,78773,0:0:0:0:
64,210,79455,6,0,L|148:198,2,63.7500024318696,2|2|2,0:0|0:0|0:0,0:0:0:0:
227,294,79966,6,0,B|233:239|233:239|266:193|266:193|272:134,1,170,6|2,0:0|0:0,0:0:0:0:
375,215,80477,1,8,0:0:0:0:
338,333,80648,2,0,L|427:317,1,85,0|2,0:0|0:0,0:0:0:0:
143,278,80989,2,0,L|226:293,1,85,2|8,0:0|0:0,0:0:0:0:
52,322,81330,6,0,P|65:238|63:154,1,170,2|2,0:0|0:0,0:0:0:0:
144,64,81841,2,0,P|151:106|159:148,1,85,8|0,0:0|0:0,0:0:0:0:
267,212,82182,1,2,0:0:0:0:
249,115,82352,2,0,L|332:99,1,85,2|8,0:0|0:0,0:0:0:0:
490,274,82693,6,0,B|454:263|454:263|423:276|423:276|379:262|325:273,1,170,6|2,0:0|0:0,0:0:0:0:
217,300,83205,1,8,0:0:0:0:
39,233,83375,2,0,L|26:317,1,85,2|2,0:0|0:0,0:0:0:0:
135,160,83716,2,0,L|147:75,1,85,2|8,0:0|0:0,0:0:0:0:
360,59,84057,6,0,B|349:86|359:111|359:111|343:158|343:158|356:190|339:222,1,170,2|2,0:0|0:0,0:0:0:0:
237,363,84568,2,0,P|230:320|221:279,1,85,8|0,0:0|0:0,0:0:0:0:
176,160,84909,1,2,0:0:0:0:
110,223,85080,2,0,L|14:212,1,85,2|8,0:0|0:0,0:0:0:0:
14,45,85421,6,0,P|98:55|183:62,1,170,6|2,0:0|0:0,0:0:0:0:
267,33,85932,1,8,0:0:0:0:
354,73,86102,2,0,L|366:157,1,85,2|2,0:0|0:0,0:0:0:0:
332,245,86443,1,2,0:0:0:0:
449,194,86614,1,8,0:0:0:0:
494,355,86784,6,0,P|413:376|342:334,1,170,2|2,0:0|0:0,0:0:0:0:
244,364,87296,2,0,L|232:279,1,85,8|2,0:0|0:0,0:0:0:0:
279,194,87636,1,2,0:0:0:0:
85,100,87807,2,0,L|73:185,1,85,2|8,0:0|0:0,0:0:0:0:
87,308,88148,6,0,P|166:329|231:279,1,170,6|2,0:0|0:0,0:0:0:0:
326,315,88659,2,0,L|410:303,1,85,8|2,0:0|0:0,0:0:0:0:
475,236,89000,1,2,0:0:0:0:
342,202,89171,2,0,P|330:162|321:120,1,85,2|8,0:0|0:0,0:0:0:0:
403,56,89511,5,6,0:0:0:0:
194,161,89852,1,2,0:0:0:0:
403,56,90193,1,2,0:0:0:0:
277,10,90364,2,0,L|270:94,1,85,2|2,0:0|0:0,0:0:0:0:
268,120,90619,1,2,0:0:0:0:
268,120,90705,1,2,0:0:0:0:
40,224,90875,6,0,P|105:206|173:203,1,136,6|2,0:0|0:0,0:0:0:0:
173,203,91386,1,8,0:0:0:0:
275,281,91557,2,0,L|258:214,1,68,0|2,0:0|0:0,0:0:0:0:
396,295,91898,2,0,L|379:361,1,68,2|8,0:0|0:0,0:0:0:0:
501,189,92239,6,0,L|366:208,1,136,2|2,0:0|0:0,0:0:0:0:
280,153,92750,1,8,0:0:0:0:
172,284,92921,2,0,P|179:251|184:218,1,68,2|2,0:0|0:0,0:0:0:0:
51,74,93261,2,0,L|64:140,1,68,2|8,0:0|0:0,0:0:0:0:
300,97,93602,6,0,B|241:88|223:124|166:112,1,136,2|2,0:0|0:0,0:0:0:0:
166,112,94114,1,8,0:0:0:0:
49,308,94284,2,0,L|35:241,1,68,0|2,0:0|0:0,0:0:0:0:
171,354,94625,2,0,L|184:287,1,68,2|8,0:0|0:0,0:0:0:0:
317,161,94966,6,0,B|353:187|353:187|403:190|440:166,1,136,2|2,0:0|0:0,0:0:0:0:
503,320,95477,1,8,0:0:0:0:
356,351,95648,2,0,P|347:318|340:284,1,68,2|2,0:0|0:0,0:0:0:0:
440,165,95989,2,0,P|448:197|455:231,1,68,2|8,0:0|0:0,0:0:0:0:
220,341,96330,6,0,P|208:274|204:207,1,136,2|2,0:0|0:0,0:0:0:0:
204,207,96841,1,8,0:0:0:0:
131,101,97011,2,0,L|116:167,1,68,0|2,0:0|0:0,0:0:0:0:
331,286,97352,1,2,0:0:0:0:
303,183,97523,1,8,0:0:0:0:
470,75,97693,6,0,P|490:139|475:204,1,136,2|2,0:0|0:0,0:0:0:0:
407,274,98205,1,8,0:0:0:0:
284,179,98375,2,0,L|351:170,1,68,2|2,0:0|0:0,0:0:0:0:
137,111,98716,2,0,L|204:119,1,68,2|8,0:0|0:0,0:0:0:0:
326,284,99057,6,0,P|258:293|192:309,1,136,2|2,0:0|0:0,0:0:0:0:
192,308,99568,1,8,0:0:0:0:
62,187,99739,2,0,L|77:269,1,68,0|2,0:0|0:0,0:0:0:0:
176,72,100080,2,0,L|191:154,1,68,2|8,0:0|0:0,0:0:0:0:
397,246,100421,6,0,P|331:256|273:223,1,136,2|2,0:0|0:0,0:0:0:0:
217,124,100932,1,8,0:0:0:0:
347,174,101102,1,2,0:0:0:0:
108,275,101273,1,2,1:0:0:0:
97,250,101358,1,0,1:0:0:0:
92,223,101443,1,0,1:0:0:0:
94,196,101528,1,0,1:0:0:0:
102,170,101614,1,8,1:0:0:0:
282,59,101784,6,0,P|304:121|283:184,1,136,6|2,0:0|0:0,0:0:0:0:
283,184,102296,1,8,0:0:0:0:
398,270,102466,2,0,L|380:204,1,68,0|2,0:0|0:0,0:0:0:0:
436,67,102807,2,0,L|453:132,1,68,2|8,0:0|0:0,0:0:0:0:
283,184,103148,6,0,P|216:171|148:164,1,136,2|2,0:0|0:0,0:0:0:0:
52,182,103659,1,8,0:0:0:0:
55,328,103830,2,0,L|121:316,1,68,0|2,0:0|0:0,0:0:0:0:
240,276,104171,1,2,0:0:0:0:
215,369,104341,1,8,0:0:0:0:
369,360,104511,6,0,P|381:294|367:228,1,136,2|2,0:0|0:0,0:0:0:0:
367,228,105023,1,8,0:0:0:0:
278,162,105193,2,0,L|200:147,1,68,0|2,0:0|0:0,0:0:0:0:
71,232,105534,2,0,L|137:244,1,68,2|8,0:0|0:0,0:0:0:0:
307,133,105875,6,0,L|173:108,1,136,2|2,0:0|0:0,0:0:0:0:
60,196,106386,1,8,0:0:0:0:
93,114,106557,2,0,P|85:81|75:48,1,68,0|2,0:0|0:0,0:0:0:0:
27,269,106898,2,0,P|35:302|45:335,1,68,2|8,0:0|0:0,0:0:0:0:
227,334,107239,6,0,P|212:268|194:203,1,136,2|2,0:0|0:0,0:0:0:0:
193,202,107750,1,8,0:0:0:0:
442,145,107921,2,0,L|374:151,1,68,0|2,0:0|0:0,0:0:0:0:
239,74,108261,2,0,L|306:67,1,68,2|8,0:0|0:0,0:0:0:0:
498,248,108602,6,0,P|449:292|383:286,1,136,2|2,0:0|0:0,0:0:0:0:
306,237,109114,1,8,0:0:0:0:
242,340,109284,2,0,L|310:348,1,68,0|2,0:0|0:0,0:0:0:0:
125,266,109625,1,2,0:0:0:0:
163,361,109796,1,8,0:0:0:0:
376,190,109966,6,0,L|230:170,1,136,2|2,0:0|0:0,0:0:0:0:
241,171,110477,1,8,0:0:0:0:
141,150,110648,2,0,P|133:116|132:82,1,68,0|2,0:0|0:0,0:0:0:0:
306,258,110989,2,0,P|304:291|297:325,1,68,2|8,0:0|0:0,0:0:0:0:
53,252,111330,6,0,P|118:238|181:262,1,136,2|2,0:0|0:0,0:0:0:0:
23,341,111841,1,8,0:0:0:0:
63,142,112011,1,0,0:0:0:0:
63,142,112097,1,0,0:0:0:0:
63,142,112182,2,0,L|96:148,3,34,8|0|0|0,1:0|1:0|1:0|1:0,0:0:0:0:
178,90,112523,2,0,L|212:84,3,34,10|2|2|2,1:0|1:0|1:0|1:0,0:0:0:0:
301,46,112864,6,0,L|368:54,1,68,6|2,0:0|0:0,0:0:0:0:
480,166,113205,1,8,0:0:0:0:
328,221,113375,1,2,0:0:0:0:
410,349,113545,2,0,L|423:267,1,68,2|2,0:0|0:0,0:0:0:0:
232,191,113886,2,0,L|221:258,1,68,8|6,0:0|0:0,0:0:0:0:
55,338,115421,5,0,0:0:0:0:
55,338,115506,1,0,0:0:0:0:
55,338,115591,2,0,L|47:256,1,68,6|2,0:0|0:0,0:0:0:0:
13,181,115932,1,8,0:0:0:0:
249,146,116102,1,2,0:0:0:0:
196,216,116273,2,0,L|189:283,1,68,2|2,0:0|0:0,0:0:0:0:
351,338,116614,2,0,L|340:270,1,68,8|6,0:0|0:0,0:0:0:0:
464,62,118148,5,0,0:0:0:0:
464,62,118233,1,0,0:0:0:0:
464,62,118318,6,0,L|383:48,1,68,6|2,0:0|0:0,0:0:0:0:
238,83,118659,1,8,0:0:0:0:
311,227,118830,1,2,0:0:0:0:
383,163,119000,2,0,L|464:149,1,68,2|2,0:0|0:0,0:0:0:0:
423,305,119341,2,0,L|491:316,1,68,8|6,0:0|0:0,0:0:0:0:
57,285,121046,6,0,L|209:272,1,152.999995330811,6|8,0:0|0:0,0:0:0:0:
393,319,121557,1,2,0:0:0:0:
447,196,121727,2,0,L|463:121,1,76.4999976654053,8|2,0:0|0:0,0:0:0:0:
298,137,122068,2,0,L|282:62,1,76.4999976654053,8|2,0:0|0:0,0:0:0:0:
169,202,122409,6,0,L|105:219,2,38.2499988327027,2|2|2,0:0|0:0|0:0,0:0:0:0:
291,310,122750,2,0,L|274:374,2,38.2499988327027,2|2|2,0:0|0:0|0:0,0:0:0:0:
292,188,123091,1,2,0:0:0:0:
224,276,123261,1,8,0:0:0:0:
224,276,123432,1,8,0:0:0:0:
224,276,123602,1,8,0:0:0:0:
280,78,123773,6,0,L|110:67,1,170,6|8,0:0|0:0,0:0:0:0:
41,207,124284,1,0,0:0:0:0:
121,276,124455,2,0,L|290:265,1,170,2|8,0:0|0:0,0:0:0:0:
422,211,124966,6,0,L|436:294,1,85,0|2,0:0|0:0,0:0:0:0:
311,190,125307,2,0,L|297:106,1,85,0|8,0:0|0:0,0:0:0:0:
199,176,125648,2,0,P|119:195|51:149,1,170,0|0,0:0|0:0,0:0:0:0:
107,267,126159,2,0,P|115:308|123:350,1,85,8|0,0:0|0:0,0:0:0:0:
337,259,126500,6,0,L|436:250,1,85,2|0,0:0|0:0,0:0:0:0:
242,282,126841,2,0,L|271:202,1,85,12|0,0:0|0:0,0:0:0:0:
353,166,127182,2,0,L|297:98,1,85,2|0,0:0|0:0,0:0:0:0:
118,112,127523,2,0,L|171:177,1,85,8|0,0:0|0:0,0:0:0:0:
56,309,127864,6,0,L|225:296,1,170,2|8,0:0|0:0,0:0:0:0:
225,296,128375,1,0,0:0:0:0:
434,196,128546,1,0,0:0:0:0:
403,182,128631,1,0,0:0:0:0:
369,181,128716,1,0,0:0:0:0:
338,194,128801,1,0,0:0:0:0:
314,218,128886,1,8,0:0:0:0:
131,108,129057,1,2,0:0:0:0:
154,132,129142,1,2,0:0:0:0:
175,157,129227,6,0,L|161:283,1,127.5,6|0,0:0|2:0,0:0:0:0:
108,337,129568,2,0,P|65:330|23:326,1,85,8|0,0:0|0:0,0:0:0:0:
256,310,129909,2,0,B|292:289|292:289|335:304|376:295,1,127.5,6|0,0:0|2:0,0:0:0:0:
448,275,130250,2,0,L|470:360,1,85,8|0,0:0|0:0,0:0:0:0:
495,142,130591,6,0,L|357:128,1,127.5,6|0,0:0|2:0,0:0:0:0:
295,145,130932,2,0,P|302:186|308:228,1,85,8|0,0:0|0:0,0:0:0:0:
31,292,131273,2,0,B|62:267|62:267|103:262|149:290,1,127.5,6|0,0:0|2:0,0:0:0:0:
218,270,131614,2,0,P|213:227|209:185,1,85,8|0,0:0|0:0,0:0:0:0:
21,45,131955,6,0,P|97:80|180:72,1,170,6|8,0:0|0:0,0:0:0:0:
180,72,132466,1,0,0:0:0:0:
367,139,132636,2,0,P|283:131|207:166,1,170,6|8,0:0|0:0,0:0:0:0:
324,337,133148,6,0,L|302:250,1,85,0|6,0:0|0:0,0:0:0:0:
297,228,133403,1,8,0:0:0:0:
297,228,133489,1,0,0:0:0:0:
222,323,133659,1,8,0:0:0:0:
398,221,133830,1,0,0:0:0:0:
254,121,134000,2,0,L|264:26,1,85,2|8,0:0|0:0,0:0:0:0:
272,44,134256,1,0,0:0:0:0:
284,47,134341,1,2,0:0:0:0:
296,48,134426,1,8,0:0:0:0:
308,47,134511,1,8,0:0:0:0:
320,43,134597,1,8,0:0:0:0:
331,37,134682,6,0,L|503:30,1,170,6|8,0:0|0:0,0:0:0:0:
419,204,135193,1,0,0:0:0:0:
323,141,135364,2,0,L|153:122,1,170,2|8,0:0|0:0,0:0:0:0:
52,306,135875,6,0,P|45:263|40:221,1,85,0|2,0:0|0:0,0:0:0:0:
180,280,136216,2,0,P|186:322|191:364,1,85,0|8,0:0|0:0,0:0:0:0:
302,300,136557,2,0,P|378:267|462:275,1,170,0|0,0:0|0:0,0:0:0:0:
330,199,137068,2,0,P|322:157|317:114,1,85,8|0,0:0|0:0,0:0:0:0:
114,185,137409,6,0,L|24:220,1,85,2|0,0:0|0:0,0:0:0:0:
263,248,137750,2,0,L|197:196,1,85,12|0,0:0|0:0,0:0:0:0:
163,117,138091,2,0,L|173:25,1,85,2|0,0:0|0:0,0:0:0:0:
76,115,138432,1,8,0:0:0:0:
146,263,138602,1,0,0:0:0:0:
247,133,138773,5,2,0:0:0:0:
247,133,138858,2,0,L|366:122,1,85,0|0,0:0|2:0,0:0:0:0:
413,112,139114,2,0,L|436:30,1,85,8|2,0:0|0:0,0:0:0:0:
439,266,139455,1,2,0:0:0:0:
411,246,139540,1,0,0:0:0:0:
379,236,139625,1,0,0:0:0:0:
345,238,139710,1,0,0:0:0:0:
313,251,139796,1,8,0:0:0:0:
118,336,139966,1,2,0:0:0:0:
146,317,140051,1,2,0:0:0:0:
175,301,140136,6,0,L|190:173,1,127.5,6|0,0:0|2:0,0:0:0:0:
162,103,140477,2,0,P|120:111|78:117,1,85,8|0,0:0|0:0,0:0:0:0:
271,244,140818,6,0,B|311:225|311:225|357:246|392:241,1,127.5,6|0,0:0|2:0,0:0:0:0:
464,228,141159,2,0,L|446:144,1,85,8|0,0:0|0:0,0:0:0:0:
84,92,141500,6,0,L|211:101,1,127.5,6|0,0:0|2:0,0:0:0:0:
282,76,141841,2,0,P|296:115|313:155,1,85,8|0,0:0|0:0,0:0:0:0:
65,304,142182,2,0,B|101:280|101:280|144:276|182:294,1,127.5,6|0,0:0|2:0,0:0:0:0:
257,295,142523,2,0,P|246:253|238:212,1,85,8|0,0:0|0:0,0:0:0:0:
403,88,142864,6,0,P|408:172|408:257,1,170,6|8,0:0|0:0,0:0:0:0:
408,257,143375,1,0,0:0:0:0:
329,356,143546,2,0,P|328:271|334:186,1,170,6|8,0:0|0:0,0:0:0:0:
333,186,144057,1,0,0:0:0:0:
60,76,144227,5,6,0:0:0:0:
92,86,144312,1,0,0:0:0:0:
126,89,144397,1,0,0:0:0:0:
160,86,144482,1,0,0:0:0:0:
193,81,144567,1,8,0:0:0:0:
227,76,144653,1,0,0:0:0:0:
261,75,144738,1,0,0:0:0:0:
295,79,144823,1,0,0:0:0:0:
327,90,144909,2,0,L|387:117,3,42.5,2|0|0|0,0:0|0:0|0:0|0:0,0:0:0:0:
512,37,145250,2,0,L|452:64,3,42.5,8|2|2|2,0:0|0:0|0:0|0:0,0:0:0:0:
416,176,145591,6,0,L|399:355,2,170,12|2|8,0:0|0:0|0:0,0:0:0:0:
288,80,146443,2,0,L|302:163,1,85,8|8,0:0|0:0,0:0:0:0:
193,281,146784,1,8,0:0:0:0:
62,207,146955,6,0,P|103:196|145:191,1,85,8|8,0:0|0:0,0:0:0:0:
276,266,147296,2,0,P|234:276|192:281,1,85,8|0,0:0|0:0,0:0:0:0:
71,110,147636,2,0,L|53:62,2,42.5,8|2|0,0:0|0:0|0:0,0:0:0:0:
251,150,147977,2,0,L|236:189,2,42.5,2|2|2,0:0|0:0|0:0,0:0:0:0:
444,75,149000,6,0,L|453:116,3,42.5,6|0|0|0,0:0|0:0|0:0|0:0,0:0:0:0:
319,178,149340,2,0,L|328:136,3,42.5,8|0|0|0,0:0|0:0|0:0|0:0,0:0:0:0:
196,75,149681,2,0,L|205:116,3,42.5,2|0|0|0,0:0|0:0|0:0|0:0,0:0:0:0:
74,71,150022,1,8,0:0:0:0:
25,201,150193,6,0,P|108:208|192:226,1,170,0|0,0:0|0:0,0:0:0:0:
408,180,150705,2,0,P|416:221|423:263,1,85,8|0,0:0|0:0,0:0:0:0:
360,345,151046,1,2,0:0:0:0:
229,361,151216,2,0,L|248:278,1,85,0|8,0:0|0:0,0:0:0:0:
140,182,151557,1,0,0:0:0:0:
273,91,151727,6,0,L|407:81,2,127.5,2|0|0,0:0|2:0|0:0,0:0:0:0:
158,193,152409,2,0,L|24:183,2,127.5,2|0|0,0:0|2:0|0:0,0:0:0:0:
275,293,153091,6,0,L|409:283,2,127.5,2|0|0,0:0|2:0|0:0,0:0:0:0:
113,342,153773,1,2,0:0:0:0:
113,342,153858,2,0,B|99:301|99:301|113:218,1,127.5,8|8,0:0|0:0,0:0:0:0:
331,86,154284,1,0,0:0:0:0:
338,119,154369,1,0,0:0:0:0:
346,151,154455,6,0,L|174:144,1,170,6|8,0:0|0:0,0:0:0:0:
56,58,154966,2,0,L|225:66,1,170,2|0,0:0|0:0,0:0:0:0:
431,37,155477,2,0,P|441:78|449:119,1,85,8|0,0:0|0:0,0:0:0:0:
397,198,155818,1,2,0:0:0:0:
503,300,155989,6,0,P|421:282|336:278,1,170,0|0,0:0|0:0,0:0:0:0:
196,337,156500,1,2,0:0:0:0:
196,337,156585,2,0,L|217:224,1,85,8|0,0:0|2:0,0:0:0:0:
225,174,156841,2,0,L|136:189,1,85,8|8,0:0|0:0,0:0:0:0:
402,136,157182,6,0,L|412:80,2,56.6666666666667,6|0|0,0:0|0:0|0:0,0:0:0:0:
325,249,157523,2,0,L|314:304,2,56.6666666666667,2|0|0,0:0|0:0|0:0,0:0:0:0:
265,140,157864,2,0,L|275:84,2,56.6666666666667,2|0|0,0:0|0:0|0:0,0:0:0:0:
188,253,158205,2,0,L|177:308,2,56.6666666666667,2|0|0,0:0|0:0|0:0,0:0:0:0:
109,149,158546,5,2,0:0:0:0:
78,117,158659,1,0,0:0:0:0:
81,73,158772,1,0,0:0:0:0:
116,47,158886,1,2,0:0:0:0:
159,55,159000,1,0,0:0:0:0:
181,93,159113,1,0,0:0:0:0:
170,137,159227,6,0,L|154:176,3,42.5,2|0|0|0,0:0|0:0|0:0|0:0,0:0:0:0:
197,293,159568,2,0,L|212:253,3,42.5,8|2|2|2,0:0|0:0|0:0|0:0,0:0:0:0:
292,195,159909,6,0,B|327:181|360:196|360:196|392:181|392:181|424:194|456:186,1,170,6|12,0:0|0:0,0:0:0:0:
505,111,160421,1,0,0:0:0:0:
398,267,160591,2,0,L|409:352,2,85,2|0|8,0:0|0:0|0:0,0:0:0:0:
239,85,161102,1,0,0:0:0:0:
239,85,161188,1,0,0:0:0:0:
239,85,161273,5,2,0:0:0:0:
260,233,161443,1,0,0:0:0:0:
332,142,161614,1,8,0:0:0:0:
157,178,161784,6,0,P|148:262|144:347,1,170,0|0,0:0|0:0,0:0:0:0:
257,301,162296,1,8,0:0:0:0:
72,215,162466,1,0,0:0:0:0:
187,106,162636,6,0,B|243:109|243:109|285:138|285:138|348:143,1,170,6|8,0:0|0:0,0:0:0:0:
430,97,163148,1,0,0:0:0:0:
484,292,163318,2,0,L|493:207,1,85,2|0,0:0|0:0,0:0:0:0:
372,241,163659,1,8,0:0:0:0:
423,358,163830,6,0,B|386:341|386:341|356:354|356:354|313:333|261:340,1,170,0|0,0:0|0:0,0:0:0:0:
134,356,164341,1,8,0:0:0:0:
60,246,164511,2,0,P|144:246|222:214,1,170,0|0,0:0|0:0,0:0:0:0:
242,198,164938,1,0,0:0:0:0:
242,198,165023,2,0,L|250:109,1,85,8|0,0:0|0:0,0:0:0:0:
413,36,165364,6,0,B|443:50|443:50|467:83|456:140,1,127.5,6|0,0:0|2:0,0:0:0:0:
442,162,165705,1,8,0:0:0:0:
290,323,165875,2,0,P|274:240|283:155,1,170,0|0,0:0|0:0,0:0:0:0:
293,133,166301,1,0,0:0:0:0:
293,133,166386,2,0,L|200:120,1,85,8|0,0:0|0:0,0:0:0:0:
56,149,166727,5,2,0:0:0:0:
88,271,166898,2,0,B|119:262|119:262|154:274|154:274|202:257|252:267,1,170,0|0,0:0|0:0,0:0:0:0:
465,345,167409,2,0,L|452:260,1,85,2|0,0:0|0:0,0:0:0:0:
327,204,167750,2,0,L|339:288,1,85,8|0,0:0|0:0,0:0:0:0:
457,120,168091,6,0,L|470:48,2,56.6666666666667,6|0|0,0:0|0:0|0:0,0:0:0:0:
327,204,168432,2,0,L|316:148,2,56.6666666666667,2|0|0,0:0|0:0|0:0,0:0:0:0:
183,271,168773,2,0,L|196:199,2,56.6666666666667,2|0|0,0:0|0:0|0:0,0:0:0:0:
49,341,169114,2,0,L|36:269,2,56.6666666666667,2|0|0,0:0|0:0|0:0,0:0:0:0:
31,163,169455,5,2,0:0:0:0:
72,181,169568,1,0,0:0:0:0:
116,175,169681,1,0,0:0:0:0:
154,150,169796,2,0,L|179:90,2,56.6666666666667,2|0|0,0:0|0:0|0:0,0:0:0:0:
237,284,170136,6,0,L|222:324,2,42.5,0|0|0,0:0|0:0|0:0,0:0:0:0:
357,340,170477,2,0,L|336:246,1,85,2|2,0:0|0:0,0:0:0:0:
454,136,170818,1,6,0:0:0:0:
59,327,179000,6,0,B|95:308|95:308|211:320,1,127.5,6|8,0:0|0:0,0:0:0:0:
214,321,179341,1,2,0:0:0:0:
307,266,179511,1,8,0:0:0:0:
307,266,179597,1,0,0:0:0:0:
307,266,179682,2,0,L|245:252,3,42.5,0|0|2|0,0:0|0:0|0:0|0:0,0:0:0:0:
427,221,180023,2,0,L|468:211,3,42.5,2|0|0|0,0:0|0:0|0:0|0:0,0:0:0:0:
259,141,180364,6,0,L|197:127,3,42.5,2|0|2|2,0:0|0:0|0:0|0:0,0:0:0:0:
379,96,180705,2,0,L|420:86,3,42.5,2|0|2|0,0:0|0:0|0:0|0:0,0:0:0:0:
207,17,181046,1,2,0:0:0:0:
354,185,181216,1,8,0:0:0:0:
354,185,181386,1,8,0:0:0:0:
354,185,181557,1,8,0:0:0:0:
142,196,181727,6,0,P|109:118|117:34,1,170,6|8,0:0|0:0,0:0:0:0:
117,34,182239,1,0,0:0:0:0:
264,159,182409,2,0,P|271:242|239:320,1,170,2|8,0:0|0:0,0:0:0:0:
391,372,182921,6,0,L|374:288,1,85,0|2,0:0|0:0,0:0:0:0:
451,149,183261,2,0,L|467:232,1,85,0|8,0:0|0:0,0:0:0:0:
175,176,183602,2,0,P|255:157|325:201,1,170,0|0,0:0|0:0,0:0:0:0:
98,226,184114,2,0,P|90:185|87:142,1,85,8|0,0:0|0:0,0:0:0:0:
246,240,184455,6,0,L|215:334,1,85,2|0,0:0|0:0,0:0:0:0:
262,143,184796,2,0,L|325:201,1,85,12|0,0:0|0:0,0:0:0:0:
326,291,185136,2,0,L|410:266,1,85,2|0,0:0|0:0,0:0:0:0:
470,93,185477,2,0,L|388:117,1,85,8|0,0:0|0:0,0:0:0:0:
64,116,185818,6,0,B|109:87|109:87|161:80|213:129,1,170,0|8,0:0|0:0,0:0:0:0:
213,129,186330,1,0,0:0:0:0:
71,225,186500,2,0,P|58:265|49:307,1,85,2|0,0:0|0:0,0:0:0:0:
225,367,186841,2,0,L|212:278,1,85,8|0,0:0|0:0,0:0:0:0:
236,258,187097,1,8,0:0:0:0:
236,258,187182,6,0,L|376:248,1,127.5,6|0,0:0|2:0,0:0:0:0:
437,258,187523,2,0,P|429:300|423:351,1,85,8|0,0:0|0:0,0:0:0:0:
500,144,187864,2,0,B|469:125|469:125|430:145|379:135,1,127.5,6|0,0:0|2:0,0:0:0:0:
311,105,188205,2,0,L|302:20,1,85,8|0,0:0|0:0,0:0:0:0:
44,142,188546,6,0,L|173:131,1,127.5,6|0,0:0|2:0,0:0:0:0:
236,165,188886,2,0,P|225:207|218:249,1,85,8|0,0:0|0:0,0:0:0:0:
437,338,189227,2,0,B|470:311|470:311|483:271|472:227,1,127.5,6|0,0:0|2:0,0:0:0:0:
427,167,189568,2,0,L|335:150,1,85,8|0,0:0|0:0,0:0:0:0:
76,273,189909,6,0,P|153:298|218:249,1,170,6|8,0:0|0:0,0:0:0:0:
218,248,190421,1,0,0:0:0:0:
458,236,190591,2,0,P|391:187|313:213,1,170,6|8,0:0|0:0,0:0:0:0:
146,216,191102,1,0,0:0:0:0:
234,118,191273,5,6,0:0:0:0:
218,248,191443,1,0,0:0:0:0:
156,133,191614,1,8,0:0:0:0:
274,190,191784,1,0,0:0:0:0:
146,216,191955,1,6,0:0:0:0:
140,227,192040,1,0,0:0:0:0:
134,238,192125,1,0,0:0:0:0:
128,249,192210,1,0,0:0:0:0:
122,260,192296,1,2,0:0:0:0:
116,271,192381,1,0,0:0:0:0:
110,282,192466,1,0,0:0:0:0:
103,293,192551,1,0,0:0:0:0:
97,304,192636,6,0,B|155:327|209:298|209:298|257:323,1,170,6|8,0:0|0:0,0:0:0:0:
344,363,193148,1,0,0:0:0:0:
479,238,193318,2,0,B|420:261|366:232|366:232|318:257,1,170,2|8,0:0|0:0,0:0:0:0:
171,190,193830,6,0,L|260:201,1,85,0|2,0:0|0:0,0:0:0:0:
112,116,194171,2,0,L|27:105,1,85,0|8,0:0|0:0,0:0:0:0:
0,312,194511,2,0,P|81:288|166:286,1,170,0|0,0:0|0:0,0:0:0:0:
278,364,195023,2,0,P|269:322|263:280,1,85,8|0,0:0|0:0,0:0:0:0:
363,168,195364,6,0,L|273:203,1,85,2|0,0:0|0:0,0:0:0:0:
512,231,195705,2,0,L|446:179,1,85,12|0,0:0|0:0,0:0:0:0:
412,100,196046,2,0,L|422:8,1,85,2|0,0:0|0:0,0:0:0:0:
500,108,196386,1,8,0:0:0:0:
397,243,196557,1,0,0:0:0:0:
331,91,196727,5,2,0:0:0:0:
331,91,196813,2,0,L|215:71,1,85,0|0,0:0|2:0,0:0:0:0:
166,112,197068,2,0,L|151:26,1,85,8|0,0:0|0:0,0:0:0:0:
75,238,197409,1,2,0:0:0:0:
103,218,197494,1,0,0:0:0:0:
135,207,197580,1,0,0:0:0:0:
169,208,197665,1,0,0:0:0:0:
202,218,197750,1,2,0:0:0:0:
371,342,197921,1,2,0:0:0:0:
342,323,198006,1,2,0:0:0:0:
313,304,198091,6,0,L|333:178,1,127.5,6|0,0:0|2:0,0:0:0:0:
388,128,198432,2,0,P|429:140|470:151,1,85,8|0,0:0|0:0,0:0:0:0:
279,73,198773,6,0,B|233:60|191:82|191:82|156:68,1,127.5,6|0,0:0|2:0,0:0:0:0:
83,82,199114,2,0,L|61:164,1,85,8|0,0:0|0:0,0:0:0:0:
344,271,199455,6,0,L|209:285,1,127.5,6|0,0:0|2:0,0:0:0:0:
147,310,199796,2,0,P|138:268|131:226,1,85,8|0,0:0|0:0,0:0:0:0:
296,31,200136,2,0,B|333:50|333:50|357:91|343:132,1,127.5,6|0,0:0|2:0,0:0:0:0:
279,170,200477,2,0,L|186:160,1,85,8|0,0:0|0:0,0:0:0:0:
40,81,200818,6,0,L|217:73,1,170,6|8,0:0|0:0,0:0:0:0:
351,149,201330,1,0,0:0:0:0:
312,226,201500,2,0,L|135:218,1,170,6|8,0:0|0:0,0:0:0:0:
49,296,202011,1,0,0:0:0:0:
216,346,202182,6,0,L|315:334,1,85,6|8,0:0|0:0,0:0:0:0:
300,336,202438,1,0,0:0:0:0:
300,336,202523,1,2,0:0:0:0:
133,258,202693,1,0,0:0:0:0:
100,252,202778,1,8,0:0:0:0:
66,247,202864,1,2,0:0:0:0:
324,226,203034,2,0,L|385:214,2,42.5,0|8|2,0:0|0:0|0:0,0:0:0:0:
112,82,203375,1,8,0:0:0:0:
112,82,203460,1,8,0:0:0:0:
112,82,203546,6,0,L|99:251,1,170,6|8,0:0|0:0,0:0:0:0:
131,347,204057,1,0,0:0:0:0:
265,328,204227,2,0,L|252:158,1,170,2|8,0:0|0:0,0:0:0:0:
334,102,204739,1,0,0:0:0:0:
459,221,204909,6,0,L|372:216,2,85,2|0|8,0:0|0:0|0:0,0:0:0:0:
480,352,205421,2,0,P|396:337|311:332,1,170,2|0,0:0|0:0,0:0:0:0:
111,295,205932,2,0,P|153:290|194:281,1,85,8|0,0:0|0:0,0:0:0:0:
288,169,206273,6,0,P|245:173|204:182,1,85,2|0,0:0|0:0,0:0:0:0:
82,326,206614,2,0,P|124:321|165:312,1,85,12|0,0:0|0:0,0:0:0:0:
316,137,206955,2,0,P|273:141|232:150,1,85,2|0,0:0|0:0,0:0:0:0:
435,313,207296,2,0,L|447:228,1,85,8|0,0:0|0:0,0:0:0:0:
327,45,207636,6,0,P|338:129|345:213,1,170,2|8,0:0|0:0,0:0:0:0:
295,338,208148,1,0,0:0:0:0:
206,241,208318,1,2,0:0:0:0:
175,226,208403,1,0,0:0:0:0:
141,225,208489,1,0,0:0:0:0:
110,239,208574,1,8,0:0:0:0:
90,266,208659,1,2,0:0:0:0:
295,338,208830,1,8,0:0:0:0:
317,312,208915,1,8,0:0:0:0:
342,289,209000,6,0,L|352:161,1,127.5,6|0,0:0|2:0,0:0:0:0:
392,101,209341,2,0,P|434:112|475:121,1,85,8|0,0:0|0:0,0:0:0:0:
262,209,209682,2,0,B|222:190|222:190|185:203|139:194,1,127.5,6|0,0:0|2:0,0:0:0:0:
66,191,210023,2,0,L|73:275,1,85,8|0,0:0|0:0,0:0:0:0:
23,93,210364,6,0,L|168:74,1,127.5,6|0,0:0|2:0,0:0:0:0:
214,106,210705,2,0,P|228:65|244:26,1,85,8|0,0:0|0:0,0:0:0:0:
412,162,211046,2,0,B|445:192|445:192|457:233|435:272,1,127.5,6|0,0:0|2:0,0:0:0:0:
380,319,211386,2,0,P|338:308|296:303,1,85,8|0,0:0|0:0,0:0:0:0:
76,234,211727,6,0,P|161:241|240:213,1,170,6|8,0:0|0:0,0:0:0:0:
239,213,212239,1,0,0:0:0:0:
437,140,212409,2,0,P|357:112|273:119,1,170,6|8,0:0|0:0,0:0:0:0:
72,61,212921,6,0,L|171:72,1,85,0|6,0:0|0:0,0:0:0:0:
181,74,213176,1,8,0:0:0:0:
180,74,213261,1,0,0:0:0:0:
123,182,213432,1,12,0:0:0:0:
232,195,213602,1,0,0:0:0:0:
168,304,213773,1,2,0:0:0:0:
180,302,213858,1,0,0:0:0:0:
192,300,213943,1,0,0:0:0:0:
205,299,214028,1,0,0:0:0:0:
218,297,214114,1,2,0:0:0:0:
230,296,214199,1,0,0:0:0:0:
243,295,214284,1,2,0:0:0:0:
256,293,214369,1,2,0:0:0:0:
268,292,214455,6,0,B|346:337,1,85,6|0,0:0|0:0,0:0:0:0:
476,294,214796,2,0,B|402:251,1,85,8|0,0:0|0:0,0:0:0:0:
224,56,215136,2,0,L|197:145,1,85,2|0,0:0|0:0,0:0:0:0:
302,226,215477,2,0,L|326:144,1,85,8|0,0:0|0:0,0:0:0:0:
123,94,215818,5,2,0:0:0:0:
36,121,215989,2,0,P|16:202|39:283,1,170,0|0,0:0|0:0,0:0:0:0:
39,283,216500,1,2,0:0:0:0:
215,216,216671,2,0,L|129:226,2,85,0|8|0,0:0|0:0|0:0,0:0:0:0:
150,339,217182,6,0,P|232:322|317:322,1,170,2|12,0:0|0:0,0:0:0:0:
317,322,217693,1,0,0:0:0:0:
466,288,217864,2,0,L|482:371,1,85,2|0,0:0|0:0,0:0:0:0:
351,236,218205,2,0,L|335:153,1,85,8|0,0:0|0:0,0:0:0:0:
459,47,218546,6,0,L|475:130,1,85,2|0,0:0|0:0,0:0:0:0:
318,285,218886,2,0,L|302:202,1,85,8|0,0:0|0:0,0:0:0:0:
498,314,219227,1,2,0:0:0:0:
474,338,219313,1,0,0:0:0:0:
443,352,219398,1,0,0:0:0:0:
410,356,219483,1,0,0:0:0:0:
376,349,219568,1,8,0:0:0:0:
231,354,219739,1,2,0:0:0:0:
254,330,219824,1,2,0:0:0:0:
279,306,219909,6,0,L|256:180,1,127.5,6|0,0:0|2:0,0:0:0:0:
302,123,220250,2,0,P|344:131|387:132,1,85,8|0,0:0|0:0,0:0:0:0:
203,76,220591,2,0,B|183:73|158:61|158:61|122:74|79:75,1,127.5,6|0,0:0|2:0,0:0:0:0:
19,116,220932,2,0,L|35:227,1,85,8|0,0:0|0:0,0:0:0:0:
230,302,221273,6,0,L|375:289,1,127.5,6|0,0:0|2:0,0:0:0:0:
431,284,221614,2,0,P|440:325|452:366,1,85,8|0,0:0|0:0,0:0:0:0:
485,164,221955,2,0,B|442:173|403:152|403:152|360:159,1,127.5,6|0,0:0|2:0,0:0:0:0:
291,186,222296,2,0,L|270:101,1,85,8|0,0:0|0:0,0:0:0:0:
65,232,222636,6,0,L|234:242,1,170,6|8,0:0|0:0,0:0:0:0:
357,337,223148,1,0,0:0:0:0:
434,275,223318,2,0,L|445:190,1,85,6|0,0:0|0:0,0:0:0:0:
301,86,223659,2,0,L|312:170,1,85,8|0,0:0|0:0,0:0:0:0:
142,353,224000,5,6,0:0:0:0:
130,320,224085,1,0,0:0:0:0:
126,287,224171,1,0,0:0:0:0:
133,253,224256,1,0,0:0:0:0:
146,222,224341,1,8,0:0:0:0:
158,190,224426,1,0,0:0:0:0:
162,157,224511,1,0,0:0:0:0:
157,123,224597,1,0,0:0:0:0:
142,93,224682,2,0,L|84:78,3,42.5,8|0|2|2,0:0|0:0|0:0|0:0,0:0:0:0:
260,146,225023,2,0,L|318:131,3,42.5,2|2|2|2,0:0|0:0|0:0|0:0,0:0:0:0:
418,195,225364,5,6,0:0:0:0:
256,192,225449,12,0,226728,2:0:0:0:
180,108,227409,6,0,L|95:98,2,63.7500024318696,2|2|2,0:0|0:0|0:0,0:0:0:0:
262,28,227921,6,0,B|268:87|268:87|302:121|302:121|311:182,1,170,6|8,0:0|0:0,0:0:0:0:
401,138,228432,1,12,0:0:0:0:
436,278,228602,2,0,L|346:263,1,85,0|2,0:0|0:0,0:0:0:0:
204,326,228943,2,0,L|287:339,1,85,2|8,0:0|0:0,0:0:0:0:
82,358,229284,6,0,P|102:275|94:191,1,170,2|2,0:0|0:0,0:0:0:0:
202,214,229796,2,0,P|191:172|187:122,1,85,8|2,0:0|0:0,0:0:0:0:
328,64,230136,1,2,0:0:0:0:
306,170,230307,2,0,L|390:160,1,85,2|8,0:0|0:0,0:0:0:0:
476,311,230648,6,0,B|436:296|436:296|400:311|400:311|363:289|313:299,1,170,2|2,0:0|0:0,0:0:0:0:
224,330,231159,1,8,0:0:0:0:
98,256,231330,2,0,L|115:352,1,85,2|0,0:0|0:0,0:0:0:0:
20,195,231671,2,0,L|5:111,1,85,2|8,0:0|0:0,0:0:0:0:
204,39,232011,6,0,B|197:69|210:99|210:99|204:144|204:144|225:172|218:203,1,170,2|2,0:0|0:0,0:0:0:0:
287,329,232523,2,0,P|297:287|311:247,1,85,8|0,0:0|0:0,0:0:0:0:
445,144,232864,1,2,0:0:0:0:
479,235,233034,2,0,L|380:224,1,85,2|8,0:0|0:0,0:0:0:0:
208,135,233375,6,0,P|291:152|369:121,1,170,6|2,0:0|0:0,0:0:0:0:
443,56,233886,1,12,0:0:0:0:
481,148,234057,2,0,P|488:189|493:231,1,85,0|2,0:0|0:0,0:0:0:0:
353,320,234398,2,0,L|265:308,1,85,2|8,0:0|0:0,0:0:0:0:
94,229,234739,6,0,L|263:215,1,170,2|2,0:0|0:0,0:0:0:0:
435,139,235250,2,0,L|346:126,1,85,8|0,0:0|0:0,0:0:0:0:
263,215,235591,1,2,0:0:0:0:
379,291,235761,2,0,L|468:278,1,85,2|8,0:0|0:0,0:0:0:0:
455,99,236102,6,0,B|407:103|352:127|352:127|323:107|286:105,1,170,6|2,0:0|0:0,0:0:0:0:
263,215,236614,1,8,0:0:0:0:
161,140,236784,1,2,0:0:0:0:
146,258,236955,1,8,0:0:0:0:
316,164,237125,1,2,0:0:0:0:
196,204,237296,1,2,0:0:0:0:
284,284,237466,5,8,0:0:0:0:
161,140,237807,1,8,0:0:0:0:
103,317,238148,1,2,0:0:0:0:
187,275,238296,6,0,B|252:251|338:281|375:341|375:341|297:332,1,272,14|0,0:0|2:0,0:0:0:0:
