osu file format v14

[General]
AudioFilename: forandrew.mp3
AudioLeadIn: 0
PreviewTime: 55506
Countdown: 0
SampleSet: Normal
StackLeniency: 0.7
Mode: 0
LetterboxInBreaks: 0
WidescreenStoryboard: 1

[Editor]
DistanceSpacing: 1
BeatDivisor: 4
GridSize: 4
TimelineZoom: 1.6

[Metadata]
Title:Routine
TitleUnicode:Routine
Artist:Silent Siren
ArtistUnicode:サイレントサイレン
Creator:sukiNathan
Version:Expert
Source:
Tags:jpop j-pop aina yamauchi yukako kurosaka hinako umemura sumire yoshida ayana sōgawa sogawa giralda
BeatmapID:863037
BeatmapSetID:396745

[Difficulty]
HPDrainRate:6
CircleSize:4.2
OverallDifficulty:8.2
ApproachRate:9.2
SliderMultiplier:1.8
SliderTickRate:1

[Events]
//Background and Video events
0,0,"adoredesu.jpg",0,0
//Break Periods
2,172181,178318
//Storyboard Layer 0 (Background)
//Storyboard Layer 1 (Fail)
//Storyboard Layer 2 (Pass)
//Storyboard Layer 3 (Foreground)
//Storyboard Sound Samples

[TimingPoints]
1046,340.909090909091,4,2,0,60,1,0
2409,-133.333333333333,4,2,0,60,0,0
6500,-100,4,1,1,40,0,0
7864,-100,4,1,1,50,0,0
9227,-100,4,1,1,60,0,0
11273,-133.333333333333,4,2,0,60,0,0
11784,-100,4,1,1,70,0,0
22693,-117.647058823529,4,2,1,60,0,0
43830,-117.647058823529,4,2,1,70,0,0
44682,-100,4,2,1,60,0,0
55591,-100,4,1,1,70,0,1
58659,-83.3333333333333,4,1,1,70,0,1
59000,-100,4,1,1,70,0,1
61046,-90.9090909090909,4,1,1,70,0,1
63773,-100,4,1,1,70,0,1
69568,-83.3333333333333,4,1,1,70,0,1
69909,-100,4,1,1,70,0,1
71955,-90.9090909090909,4,1,1,70,0,1
74682,-100,4,1,1,70,0,1
77409,-100,4,2,1,70,0,0
79455,-133.333333333333,4,2,0,60,0,0
79966,-100,4,1,1,70,0,0
90875,-111.111111111111,4,2,1,65,0,0
112864,-100,4,2,1,60,0,0
123773,-100,4,1,1,70,0,1
126841,-83.3333333333333,4,1,1,70,0,1
127182,-100,4,1,1,70,0,1
129227,-90.9090909090909,4,1,1,70,0,1
131955,-100,4,1,1,70,0,1
137750,-83.3333333333333,4,1,1,70,0,1
138091,-100,4,1,1,70,0,1
140136,-90.9090909090909,4,1,1,70,0,1
142864,-100,4,1,1,70,0,1
145591,-100,4,1,1,60,0,1
146955,-100,4,1,1,70,0,1
148318,-100,4,2,0,55,0,0
149000,340.909090909091,4,1,1,70,1,1
149085,-100,4,1,1,70,0,0
159227,-100,4,1,1,70,0,0
168090,-100,4,1,1,70,0,1
168432,-90.9090909090909,4,1,1,70,0,1
168773,-83.3333333333333,4,1,1,70,0,1
169114,-76.9230769230769,4,1,1,70,0,1
169454,-71.4285714285714,4,1,1,70,0,1
170136,-100,4,1,1,70,0,1
170818,-100,4,1,1,70,0,0
179000,-100,4,1,1,70,0,0
181727,-100,4,1,1,70,0,1
184795,-83.3333333333333,4,1,1,70,0,1
185136,-100,4,1,1,70,0,1
187181,-90.9090909090909,4,1,1,70,0,1
189909,-100,4,1,1,70,0,1
195704,-83.3333333333333,4,1,1,70,0,1
196045,-100,4,1,1,70,0,1
198090,-90.9090909090909,4,1,1,70,0,1
200818,-100,4,1,1,70,0,1
206613,-83.3333333333333,4,1,1,70,0,1
206954,-100,4,1,1,70,0,1
209000,-90.9090909090909,4,1,1,70,0,1
211727,-100,4,1,1,70,0,1
217522,-83.3333333333333,4,1,1,70,0,1
217863,-100,4,1,1,70,0,1
219909,-90.9090909090909,4,1,1,70,0,1
222636,-100,4,1,1,70,0,1
225363,-100,4,1,1,70,0,0
227238,-133.333333333333,4,2,0,60,0,0
227920,-100,4,1,1,70,0,0
238296,340.909090909091,4,1,1,70,1,0
238296,-133.333333333333,4,1,1,70,0,0

[Colours]
Combo1 : 249,113,140
Combo2 : 250,56,62
Combo3 : 77,147,253
Combo4 : 88,220,226

[HitObjects]
405,326,1047,5,6,0:0:0:0:
353,253,1386,1,0,0:0:0:0:
283,309,1727,1,0,0:0:0:0:
229,236,2068,1,0,0:0:0:0:
229,236,2239,1,0,0:0:0:0:
161,294,2409,6,0,P|99:299|71:297,1,67.5000025749208,2|0,0:0|0:0,0:0:0:0:
229,236,2750,2,0,P|264:287|276:312,1,67.5000025749208,0|0,0:0|0:0,0:0:0:0:
139,204,3091,2,0,P|173:155|261:149,1,135.000005149842,2|0,0:0|0:0,0:0:0:0:
316,199,3602,1,0,0:0:0:0:
392,148,3773,6,0,P|384:78|382:13,2,135.000005149842,2|0|0,0:0|0:0|0:0,0:0:0:0:
361,247,4625,1,0,0:0:0:0:
361,247,4796,2,0,P|395:247|440:253,1,67.5000025749208,0|0,0:0|0:0,0:0:0:0:
301,318,5136,6,0,P|267:267|279:196,1,135.000005149842,2|0,0:0|0:0,0:0:0:0:
324,104,5648,1,0,0:0:0:0:
221,112,5818,2,0,P|181:107|145:86,1,67.5000025749208,0|0,0:0|0:0,0:0:0:0:
306,40,6159,2,0,P|321:77|321:118,1,67.5000025749208,2|0,0:0|0:0,0:0:0:0:
64,109,6500,6,0,P|76:40|181:8,1,180,8|0,1:0|0:0,0:0:0:0:
261,139,7011,1,0,0:0:0:0:
111,202,7182,2,0,P|63:209|-1:211,1,90,8|8,0:0|0:0,0:0:0:0:
240,117,7523,2,0,P|284:119|329:126,1,90,8|8,0:0|0:0,0:0:0:0:
205,33,7864,5,8,0:0:0:0:
195,192,8034,1,8,0:0:0:0:
74,109,8205,1,8,0:0:0:0:
240,117,8375,1,8,0:0:0:0:
95,201,8546,5,8,0:0:0:0:
108,9,8716,1,8,0:0:0:0:
267,117,8886,1,8,0:0:0:0:
53,107,9057,1,8,0:0:0:0:
293,117,9227,5,8,0:0:0:0:
93,233,9398,1,8,0:0:0:0:
214,18,9568,1,8,0:0:0:0:
276,240,9739,1,8,0:0:0:0:
32,106,9909,5,8,0:0:0:0:
324,118,10080,1,8,0:0:0:0:
158,314,10250,2,0,L|68:308,1,90,8|0,0:0|0:0,0:0:0:0:
123,23,10591,1,2,0:0:0:0:
123,23,10676,1,2,0:0:0:0:
123,23,10761,2,0,L|121:74,1,45,2|2,0:0|0:0,0:0:0:0:
126,192,10932,5,6,0:0:0:0:
126,192,11273,2,0,L|124:276,2,67.5000025749208,2|2|2,0:0|0:0|0:0,0:0:0:0:
367,103,11784,6,0,B|316:94|316:94|248:134|248:134|191:126,1,180,6|2,0:0|0:0,0:0:0:0:
335,191,12296,1,8,0:0:0:0:
238,37,12466,2,0,P|192:27|122:21,1,90,0|2,0:0|0:0,0:0:0:0:
438,45,12807,1,2,0:0:0:0:
338,220,12977,1,8,0:0:0:0:
229,22,13148,6,0,P|214:70|208:184,1,135,2|0,0:0|2:0,0:0:0:0:
193,237,13489,2,0,P|250:245|318:263,1,90,2|10,0:0|0:0,0:0:0:0:
460,148,13830,1,0,0:0:0:0:
322,39,14000,1,2,0:0:0:0:
304,234,14171,1,2,0:0:0:0:
481,154,14341,1,8,0:0:0:0:
272,134,14511,6,0,P|220:160|214:277,1,180,2|2,0:0|0:0,0:0:0:0:
246,47,15023,1,8,0:0:0:0:
360,132,15193,2,0,P|402:124|464:107,2,90,0|2|2,0:0|0:0|0:0,0:0:0:0:
144,227,15705,1,8,0:0:0:0:
238,85,15875,6,0,B|203:195|275:156|243:276,1,180,2|2,0:0|0:0,0:0:0:0:
320,135,16386,1,8,0:0:0:0:
148,73,16557,1,0,1:0:0:0:
148,73,16642,1,0,2:0:0:0:
148,73,16727,1,2,0:0:0:0:
162,223,16898,1,2,0:0:0:0:
223,141,17068,1,8,0:0:0:0:
223,304,17239,6,0,P|176:303|18:289,1,180,2|2,0:0|0:0,0:0:0:0:
273,384,17750,1,8,0:0:0:0:
295,213,17921,2,0,P|337:200|382:194,2,90,0|2|2,0:0|0:0|0:0,0:0:0:0:
271,77,18432,1,8,0:0:0:0:
160,169,18602,6,0,P|116:114|173:15,1,180,2|2,0:0|0:0,0:0:0:0:
205,269,19114,2,0,P|140:275|93:251,1,90,8|2,0:0|0:0,0:0:0:0:
263,184,19455,1,2,0:0:0:0:
250,368,19625,1,2,0:0:0:0:
101,262,19796,1,8,0:0:0:0:
346,275,19966,6,0,B|453:258|405:324|526:321,1,180,2|2,0:0|0:0,0:0:0:0:
266,326,20477,2,0,P|254:258|278:222,1,90,8|2,0:0|0:0,0:0:0:0:
504,195,20818,1,2,0:0:0:0:
491,328,20989,1,2,0:0:0:0:
385,123,21159,1,8,0:0:0:0:
259,317,21330,5,6,0:0:0:0:
401,100,21671,5,2,0:0:0:0:
111,100,22011,5,10,0:0:0:0:
256,192,22182,1,10,0:0:0:0:
111,284,22352,1,2,0:0:0:0:
111,284,22438,1,2,0:0:0:0:
111,284,22523,1,2,0:0:0:0:
260,162,22693,6,0,P|310:154|350:158,1,76.5000014591217,6|0,0:0|0:0,0:0:0:0:
99,258,23034,2,0,P|60:258|23:251,1,76.5000014591217,2|8,0:0|0:0,0:0:0:0:
226,298,23375,2,0,L|235:358,2,38.2500007295609,0|0|2,0:0|0:0|0:0,0:0:0:0:
141,134,23716,2,0,L|150:47,1,76.5000014591217,2|8,0:0|0:0,0:0:0:0:
59,200,24057,5,2,0:0:0:0:
225,200,24227,2,0,P|266:197|325:189,2,76.5000014591217,0|2|8,0:0|0:0|0:0,0:0:0:0:
307,335,24739,2,0,P|236:305|160:304,1,153.000002918243,2|2,0:0|0:0,0:0:0:0:
23,324,25250,2,0,P|34:286|32:227,1,76.5000014591217,8|2,0:0|0:0,0:0:0:0:
37,51,25591,5,0,0:0:0:0:
105,142,25761,2,0,P|175:145|200:142,1,76.5000014591217,2|8,0:0|0:0,0:0:0:0:
290,48,26102,1,0,0:0:0:0:
290,48,26188,1,0,0:0:0:0:
290,48,26273,1,2,0:0:0:0:
198,152,26443,1,2,0:0:0:0:
334,190,26614,1,8,0:0:0:0:
298,32,26784,6,0,P|358:35|413:121,1,153.000002918243,2|2,0:0|0:0,0:0:0:0:
294,208,27296,1,8,0:0:0:0:
437,281,27466,1,0,0:0:0:0:
437,281,27551,1,0,0:0:0:0:
437,281,27636,2,0,P|510:288|542:285,1,76.5000014591217,2|2,0:0|0:0,0:0:0:0:
348,184,27977,1,8,0:0:0:0:
321,378,28148,6,0,P|255:356|155:368,1,153.000002918243,2|2,0:0|0:0,0:0:0:0:
384,288,28659,1,8,0:0:0:0:
225,259,28830,2,0,P|197:218|179:178,1,76.5000014591217,0|2,0:0|0:0,0:0:0:0:
380,116,29171,2,0,P|358:160|333:195,1,76.5000014591217,2|8,0:0|0:0,0:0:0:0:
120,8,29511,6,0,P|163:18|272:57,1,153.000002918243,2|2,0:0|0:0,0:0:0:0:
176,155,30023,1,8,0:0:0:0:
311,192,30193,2,0,P|349:188|387:179,1,76.5000014591217,2|2,0:0|0:0,0:0:0:0:
161,274,30534,2,0,P|123:279|84:279,1,76.5000014591217,2|8,0:0|0:0,0:0:0:0:
267,353,30875,1,2,0:0:0:0:
361,205,31046,6,0,P|365:242|366:281,2,76.5000014591217,0|0|8,0:0|0:0|0:0,0:0:0:0:
150,130,31557,2,0,P|113:133|106:135,2,38.2500007295609,0|0|2,0:0|0:0|0:0,0:0:0:0:
282,7,31898,2,0,P|287:54|283:90,1,76.5000014591217,2|8,0:0|0:0,0:0:0:0:
196,256,32239,6,0,B|261:249|241:287|318:282,1,114.750002188683,2|0,0:0|0:0,0:0:0:0:
207,339,32580,2,0,P|162:334|119:324,1,76.5000014591217,2|8,0:0|0:0,0:0:0:0:
305,189,32921,2,0,P|343:192|380:200,1,76.5000014591217,0|2,0:0|1:0,0:0:0:0:
414,217,33176,1,0,1:0:0:0:
451,212,33261,1,0,1:0:0:0:
479,185,33347,1,0,1:0:0:0:
482,147,33432,1,8,1:0:0:0:
297,35,33602,6,0,P|352:42|427:33,1,114.750002188683,6|0,0:0|0:0,0:0:0:0:
458,117,33943,2,0,P|419:120|382:129,1,76.5000014591217,2|8,0:0|0:0,0:0:0:0:
251,119,34284,2,0,P|237:105|224:91,2,38.2500007295609,0|0|2,0:0|0:0|0:0,0:0:0:0:
305,243,34625,2,0,P|294:279|278:314,1,76.5000014591217,2|8,0:0|0:0,0:0:0:0:
328,153,34966,1,2,0:0:0:0:
383,295,35136,5,0,0:0:0:0:
211,243,35307,2,0,P|164:227|129:211,1,76.5000014591217,2|8,0:0|0:0,0:0:0:0:
357,299,35648,2,0,P|431:283|504:302,1,153.000002918243,0|2,0:0|0:0,0:0:0:0:
380,379,36159,1,8,0:0:0:0:
351,202,36330,1,2,0:0:0:0:
241,307,36500,5,0,0:0:0:0:
374,175,36671,2,0,P|415:176|457:189,1,76.5000014591217,2|8,0:0|0:0,0:0:0:0:
293,384,37011,2,0,P|286:347|288:308,1,76.5000014591217,2|2,0:0|0:0,0:0:0:0:
164,140,37352,2,0,P|170:176|168:215,1,76.5000014591217,2|8,0:0|0:0,0:0:0:0:
313,286,37693,6,0,B|223:273|258:331|171:325,1,153.000002918243,2|2,0:0|0:0,0:0:0:0:
408,329,38205,2,0,P|411:287|403:243,1,76.5000014591217,8|0,0:0|0:0,0:0:0:0:
374,70,38546,1,2,0:0:0:0:
309,173,38716,1,2,0:0:0:0:
467,150,38886,1,8,0:0:0:0:
265,83,39057,6,0,P|227:112|234:233,1,153.000002918243,6|2,0:0|0:0,0:0:0:0:
418,340,39568,1,8,0:0:0:0:
288,312,39739,2,0,P|249:310|212:316,1,76.5000014591217,0|2,0:0|0:0,0:0:0:0:
379,219,40080,1,2,0:0:0:0:
243,183,40250,1,8,0:0:0:0:
392,191,40421,6,0,P|400:154|392:28,1,153.000002918243,2|2,0:0|0:0,0:0:0:0:
301,136,40932,1,8,0:0:0:0:
491,152,41102,1,2,0:0:0:0:
491,152,41188,1,0,0:0:0:0:
491,152,41273,1,2,0:0:0:0:
396,21,41443,1,2,0:0:0:0:
397,215,41614,1,8,0:0:0:0:
270,122,41784,6,0,P|216:136|200:236,1,153.000002918243,2|2,0:0|0:0,0:0:0:0:
319,295,42296,2,0,P|358:301|399:309,1,76.5000014591217,8|0,0:0|0:0,0:0:0:0:
409,311,42551,1,0,0:0:0:0:
424,312,42636,1,2,0:0:0:0:
287,374,42807,1,2,0:0:0:0:
328,213,42977,1,8,0:0:0:0:
176,283,43148,6,0,P|138:290|100:296,1,76.5000014591217,6|0,0:0|0:0,0:0:0:0:
85,298,43403,1,0,0:0:0:0:
69,299,43489,1,2,0:0:0:0:
213,165,43659,1,8,0:0:0:0:
44,78,43830,5,0,0:0:0:0:
44,78,43915,1,0,0:0:0:0:
44,78,44000,1,0,1:0:0:0:
63,101,44085,1,0,1:0:0:0:
70,130,44171,1,0,1:0:0:0:
64,160,44256,1,0,1:0:0:0:
46,185,44341,1,8,1:0:0:0:
19,211,44426,1,8,1:0:0:0:
7,247,44511,1,8,1:0:0:0:
14,286,44597,1,8,1:0:0:0:
39,314,44682,5,6,0:0:0:0:
177,244,44852,2,0,B|87:253,1,90,2|8,0:0|0:0,0:0:0:0:
264,144,45193,1,2,0:0:0:0:
284,320,45364,1,2,0:0:0:0:
368,219,45534,1,2,0:0:0:0:
177,244,45705,1,8,0:0:0:0:
394,215,45875,5,6,0:0:0:0:
394,215,47409,5,6,0:0:0:0:
264,166,47580,2,0,B|258:255,1,90,2|8,0:0|0:0,0:0:0:0:
359,117,47921,1,2,0:0:0:0:
184,103,48091,1,2,0:0:0:0:
343,279,48261,1,2,0:0:0:0:
279,57,48432,1,8,0:0:0:0:
165,267,48602,5,6,0:0:0:0:
81,56,50136,5,6,0:0:0:0:
214,169,50307,2,0,B|123:158,1,90,2|8,0:0|0:0,0:0:0:0:
301,89,50648,1,2,0:0:0:0:
276,260,50818,1,2,0:0:0:0:
108,156,50989,1,2,0:0:0:0:
302,182,51159,1,8,0:0:0:0:
141,318,51330,5,6,0:0:0:0:
334,143,52864,6,0,B|440:147,1,90,6|0,0:0|0:0,0:0:0:0:
309,230,53205,5,8,0:0:0:0:
314,57,53375,1,2,0:0:0:0:
447,148,53546,5,8,0:0:0:0:
245,141,53716,1,2,0:0:0:0:
412,21,53886,5,8,0:0:0:0:
409,278,54057,1,2,0:0:0:0:
242,172,54227,5,2,0:0:0:0:
239,203,54313,1,2,0:0:0:0:
237,234,54398,1,2,0:0:0:0:
419,113,54568,5,2,0:0:0:0:
416,82,54654,1,2,0:0:0:0:
414,51,54739,1,2,0:0:0:0:
319,113,54909,1,2,0:0:0:0:
508,143,55080,5,8,0:0:0:0:
256,207,55250,1,8,0:0:0:0:
512,117,55421,1,8,0:0:0:0:
250,21,55591,6,0,P|196:20|134:48,1,90,6|0,0:0|0:0,0:0:0:0:
288,221,55932,1,8,0:0:0:0:
364,103,56102,1,0,0:0:0:0:
168,148,56273,2,0,P|159:214|159:282,1,135,2|0,0:0|2:0,0:0:0:0:
165,313,56614,1,8,0:0:0:0:
175,117,56784,6,0,P|124:123|69:142,1,90,0|2,0:0|0:0,0:0:0:0:
338,179,57125,2,0,P|358:131|369:74,1,90,0|8,0:0|0:0,0:0:0:0:
209,295,57466,2,0,P|239:336|283:374,1,90,0|2,0:0|0:0,0:0:0:0:
258,123,57807,1,0,0:0:0:0:
140,236,57977,2,0,P|193:204|276:241,1,135,8|0,0:0|2:0,0:0:0:0:
117,257,58318,2,0,P|65:262|23:257,1,90,2|0,0:0|0:0,0:0:0:0:
152,28,58659,6,12,P|101:79|159:123,1,161.999995056153,12|0,0:0|2:2,0:0:0:0:
281,155,59000,6,0,P|333:150|375:155,1,90,2|0,0:0|0:0,0:0:0:0:
163,11,59341,2,0,P|154:60|162:153,1,135,8|0,0:0|2:0,0:0:0:0:
256,95,59682,6,0,P|263:51|259:5,1,90,2|0,0:0|0:0,0:0:0:0:
66,78,60023,2,0,P|62:122|69:167,1,90,8|0,0:0|0:0,0:0:0:0:
329,272,60364,1,2,0:0:0:0:
294,261,60449,1,0,0:0:0:0:
258,261,60534,1,0,0:0:0:0:
225,273,60619,1,8,0:0:0:0:
196,295,60704,1,10,0:0:0:0:
125,129,60875,1,8,0:0:0:0:
120,173,60960,1,8,0:0:0:0:
115,222,61046,6,0,L|102:369,1,148.50000453186,6|0,0:0|2:0,0:0:0:0:
234,299,61386,2,0,L|332:291,1,99.0000030212403,8|0,0:0|0:0,0:0:0:0:
140,67,61727,6,0,B|114:80|103:110|103:110|58:88|14:124,1,148.50000453186,6|0,0:0|2:0,0:0:0:0:
194,144,62068,2,0,P|227:98|221:38,1,99.0000030212403,8|0,0:0|0:0,0:0:0:0:
67,193,62409,6,0,B|42:254|42:254|62:334,1,148.50000453186,6|0,0:0|2:0,0:0:0:0:
74,372,62750,1,8,0:0:0:0:
86,158,62921,1,0,0:0:0:0:
254,265,63091,6,0,L|402:271,1,148.50000453186,6|0,0:0|2:0,0:0:0:0:
442,274,63432,1,8,0:0:0:0:
214,264,63602,1,0,0:0:0:0:
337,72,63773,6,0,P|283:49|231:57,1,90,6|0,0:0|0:0,0:0:0:0:
84,163,64114,1,8,0:0:0:0:
267,166,64284,1,0,0:0:0:0:
16,74,64455,6,0,P|55:53|100:52,1,90,6|0,0:0|0:0,0:0:0:0:
176,261,64796,2,0,L|174:380,1,90,8|0,0:0|0:0,0:0:0:0:
178,153,65136,5,6,0:0:0:0:
67,300,65307,1,0,0:0:0:0:
287,300,65477,1,8,0:0:0:0:
178,124,65648,1,0,0:0:0:0:
174,374,65818,5,6,0:0:0:0:
253,207,65989,1,0,0:0:0:0:
288,198,66074,1,0,0:0:0:0:
322,208,66159,2,0,L|397:225,1,45,8|0,0:0|0:0,0:0:0:0:
287,300,66330,2,0,L|241:311,1,45,2|2,0:0|0:0,0:0:0:0:
178,124,66500,6,4,B|268:102|268:102|334:118,1,135,6|0,0:0|2:0,0:0:0:0:
343,125,66841,1,8,0:0:0:0:
223,218,67011,1,0,0:0:0:0:
118,52,67182,2,0,P|87:97|127:197,1,135,2|0,0:0|2:0,0:0:0:0:
122,200,67523,1,8,0:0:0:0:
296,135,67693,6,0,P|252:125|207:123,1,90,0|2,0:0|0:0,0:0:0:0:
406,201,68034,2,0,P|415:157|417:112,1,90,0|8,0:0|0:0,0:0:0:0:
243,266,68375,2,0,P|244:310|254:354,1,90,0|2,0:0|0:0,0:0:0:0:
324,104,68716,1,0,0:0:0:0:
179,206,68886,2,0,P|258:229|336:187,1,135,8|0,0:0|2:0,0:0:0:0:
145,196,69227,2,0,P|109:220|70:282,1,90,2|0,0:0|0:0,0:0:0:0:
215,38,69568,6,0,B|190:53|180:92|180:92|133:73|87:103,1,161.999995056153,12|0,0:0|2:0,0:0:0:0:
285,119,69909,6,0,P|331:122|388:108,1,90,2|0,0:0|0:0,0:0:0:0:
190,0,70250,1,8,0:0:0:0:
160,187,70421,1,0,0:0:0:0:
377,132,70591,5,2,0:0:0:0:
401,158,70676,2,0,P|414:199|407:247,1,90,0|0,0:0|2:0,0:0:0:0:
365,338,70932,2,0,P|406:325|454:332,1,90,8|0,0:0|2:0,0:0:0:0:
227,282,71273,1,2,0:0:0:0:
200,305,71358,1,0,0:0:0:0:
164,310,71443,1,0,0:0:0:0:
129,299,71528,1,0,0:0:0:0:
102,273,71614,1,8,0:0:0:0:
310,113,71784,1,2,0:0:0:0:
316,148,71869,1,8,0:0:0:0:
321,187,71955,6,0,L|334:299,1,99.0000030212403,6|0,0:0|0:0,0:0:0:0:
420,139,72296,1,8,0:0:0:0:
212,174,72466,1,0,0:0:0:0:
410,283,72636,6,0,B|327:277|361:328|268:326,1,148.50000453186,6|0,0:0|2:0,0:0:0:0:
339,199,72977,2,0,P|388:188|445:200,1,99.0000030212403,8|0,0:0|0:0,0:0:0:0:
206,96,73318,6,0,B|165:82|146:53|146:53|119:78|79:81,1,148.50000453186,6|0,0:0|2:0,0:0:0:0:
129,249,73659,2,0,L|135:141,1,99.0000030212403,8|0,0:0|0:0,0:0:0:0:
293,15,74000,6,0,B|284:62|302:111|302:111|294:126|279:157,1,148.50000453186,6|0,0:0|2:0,0:0:0:0:
257,191,74341,1,8,0:0:0:0:
410,124,74511,1,0,0:0:0:0:
184,100,74682,6,0,L|94:92,1,90,6|0,0:0|0:0,0:0:0:0:
271,11,75023,1,8,0:0:0:0:
150,206,75193,1,0,0:0:0:0:
381,198,75364,6,0,L|470:190,1,90,6|0,0:0|0:0,0:0:0:0:
368,88,75705,1,8,0:0:0:0:
401,312,75875,5,0,0:0:0:0:
401,312,75960,1,0,0:0:0:0:
401,312,76046,1,12,0:0:0:0:
375,342,76131,1,0,0:0:0:0:
337,356,76216,1,0,0:0:0:0:
298,350,76301,1,0,0:0:0:0:
266,326,76386,1,8,0:0:0:0:
250,289,76472,1,0,0:0:0:0:
255,249,76557,1,0,0:0:0:0:
286,223,76642,1,0,0:0:0:0:
324,209,76727,6,0,L|331:160,3,45,8|0|2|2,0:0|0:0|0:0|0:0,0:0:0:0:
214,97,77068,2,0,L|251:127,1,45,2|2,0:0|0:0,0:0:0:0:
367,50,77239,2,0,L|321:66,1,45,2|2,0:0|0:0,0:0:0:0:
117,128,77409,5,6,1:0:0:0:
256,192,77494,12,0,78773,0:0:0:0:
229,263,79284,37,0,0:0:0:0:
229,263,79369,1,0,0:0:0:0:
229,263,79455,2,0,P|279:270|311:251,2,67.5000025749208,2|2|2,0:0|0:0|0:0,0:0:0:0:
247,14,79966,6,0,B|264:63|264:63|247:102|247:102|272:136|262:184,1,180,6|2,0:0|0:0,0:0:0:0:
346,95,80477,1,8,0:0:0:0:
161,171,80648,2,0,P|83:162|55:144,1,90,0|2,0:0|0:0,0:0:0:0:
166,291,80989,1,2,0:0:0:0:
45,149,81159,1,8,0:0:0:0:
233,131,81330,6,0,P|328:135|390:142,1,135,2|0,0:0|2:0,0:0:0:0:
475,148,81671,2,0,P|471:100|473:52,1,90,2|8,0:0|0:0,0:0:0:0:
282,244,82011,1,0,0:0:0:0:
302,29,82182,1,2,0:0:0:0:
181,174,82352,1,2,0:0:0:0:
383,204,82523,1,8,0:0:0:0:
208,72,82693,6,0,P|125:82|79:166,1,180,6|2,0:0|0:0,0:0:0:0:
29,305,83205,1,8,0:0:0:0:
173,262,83375,2,0,P|249:255|294:265,2,90,0|2|2,0:0|0:0|0:0,0:0:0:0:
291,154,83886,1,8,0:0:0:0:
242,375,84057,6,0,B|289:382|327:355|327:355|378:349|428:397,1,180,2|2,0:0|0:0,0:0:0:0:
262,268,84568,1,8,0:0:0:0:
350,185,84739,1,0,0:0:0:0:
350,185,84824,1,0,0:0:0:0:
350,185,84909,1,2,0:0:0:0:
239,275,85080,1,2,0:0:0:0:
448,291,85250,1,8,0:0:0:0:
213,285,85421,6,0,P|198:199|204:101,1,180,6|2,0:0|0:0,0:0:0:0:
388,26,85932,2,0,P|393:79|380:126,1,90,8|2,0:0|0:0,0:0:0:0:
220,89,86273,1,2,0:0:0:0:
366,140,86443,1,2,0:0:0:0:
188,233,86614,1,8,0:0:0:0:
349,164,86784,6,0,P|411:174|421:308,1,180,2|2,0:0|0:0,0:0:0:0:
273,372,87296,2,0,P|265:327|271:283,1,90,8|2,0:0|0:0,0:0:0:0:
312,63,87636,1,2,0:0:0:0:
193,151,87807,1,2,0:0:0:0:
392,178,87977,1,8,0:0:0:0:
165,138,88148,6,0,B|117:140|117:140|63:195|63:195|1:202,1,180,6|2,0:0|0:0,0:0:0:0:
187,46,88659,2,0,P|228:49|299:62,1,90,8|2,0:0|0:0,0:0:0:0:
178,227,89000,1,2,0:0:0:0:
35,63,89171,1,2,0:0:0:0:
201,66,89341,1,8,0:0:0:0:
9,232,89511,5,6,0:0:0:0:
221,49,89852,5,2,0:0:0:0:
275,324,90193,5,2,0:0:0:0:
174,204,90364,1,2,0:0:0:0:
328,182,90534,1,2,0:0:0:0:
328,182,90619,1,2,0:0:0:0:
328,182,90705,1,2,0:0:0:0:
179,306,90875,6,0,P|131:297|46:302,1,121.499996292114,6|0,0:0|0:0,0:0:0:0:
14,196,91216,2,0,P|54:195|93:185,1,80.9999975280763,2|8,0:0|0:0,0:0:0:0:
302,198,91557,2,0,P|262:195|239:201,2,40.4999987640381,0|0|2,0:0|0:0|0:0,0:0:0:0:
188,82,91898,1,2,0:0:0:0:
309,13,92068,1,8,0:0:0:0:
179,114,92239,6,0,P|162:171|203:250,1,121.499996292114,2|0,0:0|0:0,0:0:0:0:
79,145,92580,2,0,P|79:101|67:54,1,80.9999975280763,2|8,0:0|0:0,0:0:0:0:
265,170,92921,2,0,P|304:178|344:177,1,80.9999975280763,2|2,0:0|0:0,0:0:0:0:
312,73,93261,1,2,0:0:0:0:
383,262,93432,1,8,0:0:0:0:
177,184,93602,6,0,P|125:198|47:246,1,121.499996292114,2|0,0:0|0:0,0:0:0:0:
90,105,93943,2,0,P|51:91|11:87,1,80.9999975280763,2|8,0:0|0:0,0:0:0:0:
189,58,94284,2,0,P|179:31|171:21,2,40.4999987640381,0|0|2,0:0|0:0|0:0,0:0:0:0:
287,175,94625,1,2,0:0:0:0:
136,202,94796,1,8,0:0:0:0:
286,80,94966,6,0,P|336:91|370:180,1,121.499996292114,2|0,0:0|0:0,0:0:0:0:
452,201,95307,2,0,P|463:153|452:111,1,80.9999975280763,2|8,0:0|0:0,0:0:0:0:
465,300,95648,1,2,0:0:0:0:
465,300,95733,1,0,0:0:0:0:
465,300,95818,1,2,0:0:0:0:
301,215,95989,1,2,0:0:0:0:
452,201,96159,1,8,0:0:0:0:
309,310,96330,6,0,P|267:302|169:313,1,121.499996292114,2|0,0:0|0:0,0:0:0:0:
91,353,96671,2,0,P|36:352|-6:346,1,80.9999975280763,2|8,0:0|0:0,0:0:0:0:
144,141,97011,2,0,P|144:181|139:221,1,80.9999975280763,0|2,0:0|0:0,0:0:0:0:
149,47,97352,1,2,0:0:0:0:
47,173,97523,1,8,0:0:0:0:
238,184,97693,6,0,P|288:157|310:84,1,121.499996292114,2|0,0:0|0:0,0:0:0:0:
209,5,98034,2,0,P|209:57|221:94,1,80.9999975280763,2|8,0:0|0:0,0:0:0:0:
369,248,98375,2,0,P|368:228|366:208,2,40.4999987640381,2|0|2,0:0|0:0|0:0,0:0:0:0:
348,41,98716,1,2,0:0:0:0:
450,117,98886,1,8,0:0:0:0:
254,136,99057,6,0,P|199:133|117:118,1,121.499996292114,2|0,0:0|0:0,0:0:0:0:
233,254,99398,2,0,P|273:248|312:239,1,80.9999975280763,2|8,0:0|0:0,0:0:0:0:
258,36,99739,2,0,P|212:26|168:21,1,80.9999975280763,0|2,0:0|0:0,0:0:0:0:
321,147,100080,1,2,0:0:0:0:
396,34,100250,1,8,0:0:0:0:
306,176,100421,6,0,P|292:228|339:309,1,121.499996292114,2|0,0:0|0:0,0:0:0:0:
386,228,100761,2,0,P|397:189|394:149,1,80.9999975280763,2|8,0:0|0:0,0:0:0:0:
178,16,101102,2,0,P|175:56|186:94,1,80.9999975280763,2|2,0:0|1:0,0:0:0:0:
212,126,101358,1,0,1:0:0:0:
249,139,101443,1,0,1:0:0:0:
287,127,101528,1,0,1:0:0:0:
317,99,101614,1,8,1:0:0:0:
175,207,101784,6,0,B|105:202|134:246|39:244,1,121.499996292114,6|0,0:0|0:0,0:0:0:0:
61,142,102125,2,0,P|56:101|62:61,1,80.9999975280763,2|8,0:0|0:0,0:0:0:0:
281,164,102466,2,0,P|286:204|282:244,1,80.9999975280763,0|2,0:0|0:0,0:0:0:0:
276,65,102807,1,2,0:0:0:0:
176,197,102977,1,8,0:0:0:0:
390,193,103148,6,0,P|440:208|520:257,1,121.499996292114,2|0,0:0|0:0,0:0:0:0:
402,290,103489,2,0,P|364:306|325:315,1,80.9999975280763,2|8,0:0|0:0,0:0:0:0:
452,110,103830,2,0,P|486:124|510:136,2,40.4999987640381,0|0|2,0:0|0:0|0:0,0:0:0:0:
331,93,104171,1,2,0:0:0:0:
463,0,104341,1,8,0:0:0:0:
302,110,104511,6,0,P|218:124|167:105,1,121.499996292114,2|0,0:0|0:0,0:0:0:0:
89,162,104852,2,0,P|88:98|72:51,1,80.9999975280763,2|8,0:0|0:0,0:0:0:0:
279,20,105193,2,0,P|239:26|198:24,1,80.9999975280763,0|2,0:0|0:0,0:0:0:0:
384,180,105534,2,0,P|423:173|464:175,1,80.9999975280763,2|8,0:0|0:0,0:0:0:0:
300,248,105875,6,0,P|276:198|295:123,1,121.499996292114,2|0,0:0|0:0,0:0:0:0:
306,119,106216,1,2,0:0:0:0:
384,276,106386,1,8,0:0:0:0:
193,197,106557,2,0,P|153:190|112:192,1,80.9999975280763,0|2,0:0|0:0,0:0:0:0:
326,103,106898,2,0,P|332:142|330:183,1,80.9999975280763,2|8,0:0|0:0,0:0:0:0:
100,75,107239,6,0,P|166:71|243:91,1,121.499996292114,2|0,0:0|0:0,0:0:0:0:
326,103,107580,2,0,P|377:99|415:93,1,80.9999975280763,2|8,0:0|0:0,0:0:0:0:
258,232,107921,2,0,P|259:191|262:181,2,40.4999987640381,0|0|2,0:0|0:0|0:0,0:0:0:0:
329,335,108261,1,2,0:0:0:0:
194,337,108432,1,8,0:0:0:0:
387,232,108602,6,0,P|422:262|432:358,1,121.499996292114,2|0,0:0|0:0,0:0:0:0:
433,356,108943,1,2,0:0:0:0:
498,211,109114,1,8,0:0:0:0:
307,290,109284,2,0,P|289:238|299:200,1,80.9999975280763,0|2,0:0|0:0,0:0:0:0:
379,2,109625,1,2,0:0:0:0:
472,93,109796,1,8,0:0:0:0:
294,97,109966,6,0,P|237:88|159:78,1,121.499996292114,2|0,0:0|0:0,0:0:0:0:
266,189,110307,2,0,P|329:183|369:175,1,80.9999975280763,2|8,0:0|0:0,0:0:0:0:
119,214,110648,2,0,P|92:271|79:310,1,80.9999975280763,0|2,0:0|0:0,0:0:0:0:
173,79,110989,2,0,P|136:27|109:-3,1,80.9999975280763,2|8,0:0|0:0,0:0:0:0:
266,189,111330,2,0,P|329:183|414:163,1,121.499996292114,2|0,0:0|0:0,0:0:0:0:
301,301,111671,2,0,P|364:295|405:284,1,80.9999975280763,2|8,0:0|0:0,0:0:0:0:
166,228,112011,5,0,0:0:0:0:
166,228,112097,1,0,0:0:0:0:
166,228,112182,1,8,1:0:0:0:
140,199,112267,1,0,1:0:0:0:
134,163,112352,1,0,1:0:0:0:
144,127,112438,1,0,1:0:0:0:
167,99,112523,2,0,L|225:93,1,40.4999987640381,10|2,1:0|1:0,0:0:0:0:
310,148,112693,2,0,L|252:154,1,40.4999987640381,2|2,1:0|1:0,0:0:0:0:
134,20,112864,5,6,0:0:0:0:
196,198,113034,2,0,B|106:205,1,90,2|8,0:0|0:0,0:0:0:0:
278,187,113375,1,2,0:0:0:0:
103,116,113545,1,2,0:0:0:0:
124,297,113716,1,2,0:0:0:0:
301,185,113886,1,8,0:0:0:0:
80,210,114057,5,6,0:0:0:0:
228,284,115421,5,0,0:0:0:0:
228,284,115506,1,0,0:0:0:0:
228,284,115591,1,6,0:0:0:0:
353,165,115761,2,0,L|356:254,1,90,2|8,0:0|0:0,0:0:0:0:
443,202,116102,1,2,0:0:0:0:
267,208,116273,1,2,0:0:0:0:
348,83,116443,1,2,0:0:0:0:
462,222,116614,1,8,0:0:0:0:
251,115,116784,5,6,0:0:0:0:
98,155,118148,5,0,0:0:0:0:
98,155,118233,1,0,0:0:0:0:
98,155,118318,1,6,0:0:0:0:
258,233,118489,2,0,L|155:226,1,90,2|8,0:0|0:0,0:0:0:0:
342,239,118830,1,2,0:0:0:0:
172,320,119000,1,2,0:0:0:0:
197,138,119171,1,2,0:0:0:0:
363,242,119341,1,8,0:0:0:0:
150,227,119511,5,6,0:0:0:0:
150,227,121046,6,0,L|146:334,1,90,6|0,0:0|0:0,0:0:0:0:
252,268,121386,5,8,0:0:0:0:
44,260,121557,1,2,0:0:0:0:
150,144,121727,5,8,0:0:0:0:
145,354,121898,1,2,0:0:0:0:
263,160,122068,5,8,0:0:0:0:
36,160,122239,1,2,0:0:0:0:
268,190,122409,5,2,0:0:0:0:
272,221,122494,1,2,0:0:0:0:
276,252,122580,1,2,0:0:0:0:
22,252,122750,5,2,0:0:0:0:
26,221,122835,1,2,0:0:0:0:
30,190,122921,1,2,0:0:0:0:
147,321,123091,1,2,0:0:0:0:
150,120,123261,5,8,0:0:0:0:
18,282,123432,1,8,0:0:0:0:
282,282,123602,1,8,0:0:0:0:
104,33,123773,6,0,P|148:23|192:31,1,90,6|0,0:0|0:0,0:0:0:0:
224,173,124114,1,8,0:0:0:0:
336,79,124284,1,0,0:0:0:0:
198,174,124455,2,0,P|173:236|183:302,1,135,2|0,0:0|2:0,0:0:0:0:
203,327,124796,1,8,0:0:0:0:
375,270,124966,6,0,P|331:258|286:255,1,90,0|2,0:0|0:0,0:0:0:0:
433,375,125307,2,0,P|465:343|489:305,1,90,0|8,0:0|0:0,0:0:0:0:
168,255,125648,2,0,P|179:298|199:338,1,90,0|2,0:0|0:0,0:0:0:0:
357,84,125989,1,0,0:0:0:0:
277,202,126159,2,0,P|322:196|413:232,1,135,8|0,0:0|2:0,0:0:0:0:
243,201,126500,2,0,P|247:142|262:114,1,90,2|0,0:0|0:0,0:0:0:0:
373,303,126841,6,0,B|311:283|259:296|259:296|275:316|295:331,1,161.999995056153,12|0,0:0|2:0,0:0:0:0:
303,199,127182,6,0,P|252:202|207:215,1,90,2|0,0:0|0:0,0:0:0:0:
450,177,127523,2,0,P|444:88|421:46,1,135,8|0,0:0|2:0,0:0:0:0:
303,116,127864,6,0,P|293:171|297:210,1,90,2|0,0:0|0:0,0:0:0:0:
208,29,128205,2,0,P|154:46|121:68,1,90,8|0,0:0|0:0,0:0:0:0:
206,181,128546,5,0,0:0:0:0:
202,216,128631,1,0,0:0:0:0:
182,246,128716,1,0,0:0:0:0:
149,260,128801,1,0,0:0:0:0:
113,261,128886,2,0,L|55:251,1,45,8|2,0:0|0:0,0:0:0:0:
117,135,129057,2,0,L|129:199,1,45,2|2,0:0|0:0,0:0:0:0:
211,348,129227,6,0,B|166:335|166:335|125:348|125:348|53:335,1,148.50000453186,6|0,0:0|2:0,0:0:0:0:
282,291,129568,2,0,P|300:331|291:390,1,99.0000030212403,8|0,0:0|0:0,0:0:0:0:
240,155,129909,6,0,B|309:144|309:144|330:178|375:180,1,148.50000453186,6|0,0:0|2:0,0:0:0:0:
484,83,130250,2,0,L|386:97,1,99.0000030212403,8|0,0:0|0:0,0:0:0:0:
102,67,130591,6,0,P|155:15|233:20,1,148.50000453186,6|0,0:0|2:0,0:0:0:0:
261,35,130932,1,8,0:0:0:0:
94,106,131102,1,0,0:0:0:0:
267,243,131273,6,0,B|235:217|235:217|180:209|133:243,1,148.50000453186,6|0,0:0|2:0,0:0:0:0:
102,267,131614,1,8,0:0:0:0:
290,274,131784,1,0,0:0:0:0:
184,49,131955,6,0,P|166:97|172:140,1,90,6|0,0:0|0:0,0:0:0:0:
341,236,132296,1,8,0:0:0:0:
180,350,132466,1,0,0:0:0:0:
375,229,132636,6,0,P|392:270|388:314,1,90,6|0,0:0|0:0,0:0:0:0:
462,136,132977,1,8,0:0:0:0:
268,171,133148,1,0,0:0:0:0:
443,341,133318,5,6,0:0:0:0:
408,350,133403,2,0,L|312:365,1,90,8|0,0:0|2:0,0:0:0:0:
257,290,133659,2,0,L|192:281,2,45,8|0|0,0:0|0:0|0:0,0:0:0:0:
298,104,134000,5,2,0:0:0:0:
285,147,134085,1,0,0:0:0:0:
255,180,134170,1,8,0:0:0:0:
213,197,134255,1,0,0:0:0:0:
176,193,134341,2,0,L|103:180,1,45,2|8,0:0|0:0,0:0:0:0:
182,55,134511,2,0,L|205:110,1,45,8|8,0:0|0:0,0:0:0:0:
330,246,134682,6,0,P|378:174|385:103,1,135,6|0,0:0|2:0,0:0:0:0:
380,91,135023,1,8,0:0:0:0:
456,260,135193,1,0,0:0:0:0:
267,151,135364,2,0,P|180:145|115:174,1,135,2|0,0:0|2:0,0:0:0:0:
107,184,135705,1,8,0:0:0:0:
306,280,135875,6,0,P|347:308|398:320,1,90,0|2,0:0|0:0,0:0:0:0:
149,371,136216,2,0,P|152:321|137:271,1,90,0|8,0:0|0:0,0:0:0:0:
300,92,136557,2,0,P|255:113|219:151,1,90,0|2,0:0|0:0,0:0:0:0:
453,141,136898,1,0,0:0:0:0:
305,273,137068,2,0,P|388:253|466:242,1,135,8|0,0:0|2:0,0:0:0:0:
487,151,137409,2,0,P|484:195|472:239,1,90,2|0,0:0|0:0,0:0:0:0:
288,17,137750,6,0,B|318:61|304:112|304:112|333:97|366:101,1,161.999995056153,12|0,0:0|2:0,0:0:0:0:
194,85,138091,6,0,P|143:87|70:77,1,90,2|0,0:0|0:0,0:0:0:0:
290,9,138432,1,8,0:0:0:0:
212,195,138602,1,0,0:0:0:0:
372,80,138773,5,2,0:0:0:0:
407,70,138858,2,0,P|458:68|531:78,1,90,0|0,0:0|2:0,0:0:0:0:
406,171,139114,2,0,P|355:173|282:163,1,90,8|2,0:0|0:0,0:0:0:0:
86,40,139455,5,2,0:0:0:0:
124,17,139540,1,0,0:0:0:0:
168,15,139625,1,0,0:0:0:0:
208,35,139710,1,0,0:0:0:0:
233,71,139796,2,0,L|240:145,1,45,8|2,0:0|0:0,0:0:0:0:
142,204,139966,2,0,L|145:159,1,45,2|2,0:0|0:0,0:0:0:0:
346,138,140136,6,0,B|369:238|369:238|321:212,1,148.50000453186,6|0,0:0|2:0,0:0:0:0:
220,117,140477,2,0,L|223:18,1,99.0000030212403,8|0,0:0|0:0,0:0:0:0:
29,265,140818,6,0,P|77:295|184:286,1,148.50000453186,6|0,0:0|2:0,0:0:0:0:
123,87,141159,2,0,P|110:134|118:182,1,99.0000030212403,8|0,0:0|0:0,0:0:0:0:
257,379,141500,6,0,B|273:349|257:320|257:320|274:269|237:229,1,148.50000453186,6|0,0:0|2:0,0:0:0:0:
231,202,141841,1,8,0:0:0:0:
382,202,142011,1,0,0:0:0:0:
165,108,142182,6,0,B|221:88|221:88|263:106|263:106|323:103,1,148.50000453186,6|0,0:0|2:0,0:0:0:0:
346,104,142523,1,8,0:0:0:0:
128,123,142693,1,0,0:0:0:0:
249,296,142864,6,0,P|205:305|162:292,1,90,6|0,0:0|0:0,0:0:0:0:
319,223,143205,1,8,0:0:0:0:
321,373,143375,1,0,0:0:0:0:
388,155,143546,6,0,P|432:146|475:159,1,90,6|0,0:0|0:0,0:0:0:0:
321,81,143886,1,8,0:0:0:0:
434,256,144057,5,0,0:0:0:0:
434,256,144142,1,0,0:0:0:0:
434,256,144227,1,6,0:0:0:0:
395,270,144313,1,0,0:0:0:0:
355,260,144398,1,0,0:0:0:0:
323,235,144483,1,0,0:0:0:0:
309,196,144568,1,8,0:0:0:0:
289,160,144653,1,0,0:0:0:0:
252,141,144739,1,0,0:0:0:0:
212,147,144824,1,0,0:0:0:0:
181,173,144909,6,0,P|132:178|120:177,3,45,2|0|0|0,0:0|0:0|0:0|0:0,0:0:0:0:
138,308,145250,2,0,P|145:286|155:266,1,45,8|2,0:0|0:0,0:0:0:0:
253,97,145421,2,0,P|267:114|279:133,1,45,2|2,0:0|0:0,0:0:0:0:
368,304,145591,6,0,P|414:304|481:291,1,90,12|2,0:0|0:0,0:0:0:0:
173,251,145932,2,0,P|128:244|83:244,1,90,2|2,0:0|0:0,0:0:0:0:
287,184,146273,5,8,0:0:0:0:
274,311,146443,1,8,0:0:0:0:
190,142,146614,1,8,0:0:0:0:
388,166,146784,1,8,0:0:0:0:
151,275,146955,5,8,0:0:0:0:
400,305,147125,1,8,0:0:0:0:
302,55,147296,1,8,0:0:0:0:
272,329,147466,6,0,L|278:265,1,45,0|0,0:0|0:0,0:0:0:0:
361,209,147636,1,8,0:0:0:0:
328,192,147722,2,0,P|288:177|235:187,1,90,2|2,0:0|0:0,0:0:0:0:
275,86,147977,2,0,P|291:84|330:94,3,45,2|2|2|2,0:0|0:0|0:0|0:0,0:0:0:0:
283,326,148489,6,2,L|278:362,10,22.5,2|2|2|2|2|2|2|2|2|2|2,2:0|2:0|2:0|2:0|2:0|2:0|2:0|2:0|2:0|2:0|2:0,0:0:0:0:
288,281,149000,5,6,0:0:0:0:
278,237,149085,1,0,0:0:0:0:
240,211,149171,1,0,0:0:0:0:
195,216,149256,1,0,0:0:0:0:
163,247,149341,1,8,0:0:0:0:
125,270,149426,1,0,0:0:0:0:
80,263,149511,1,0,0:0:0:0:
45,233,149597,1,0,0:0:0:0:
35,189,149682,2,0,L|25:128,1,45,2|0,0:0|0:0,0:0:0:0:
167,71,149852,2,0,L|168:117,1,45,0|0,0:0|0:0,0:0:0:0:
113,189,150023,1,8,0:0:0:0:
295,137,150193,6,0,L|290:231,1,90,0|2,0:0|0:0,0:0:0:0:
296,45,150534,1,0,0:0:0:0:
190,173,150705,1,8,0:0:0:0:
405,179,150875,2,0,P|451:184|496:197,1,90,0|2,0:0|0:0,0:0:0:0:
297,64,151216,2,0,P|253:76|209:80,1,90,0|8,0:0|0:0,0:0:0:0:
432,18,151557,1,0,0:0:0:0:
297,175,151727,6,0,P|284:228|313:320,1,135,2|0,0:0|2:0,0:0:0:0:
268,172,152068,2,0,P|223:165|174:174,1,90,8|0,0:0|0:0,0:0:0:0:
375,53,152409,6,0,L|202:60,1,135,2|0,0:0|2:0,0:0:0:0:
402,61,152750,2,0,L|397:183,1,90,8|0,0:0|0:0,0:0:0:0:
179,139,153091,6,0,B|148:98|148:98|153:-5,1,135,2|0,0:0|2:0,0:0:0:0:
178,163,153432,2,0,L|78:171,1,90,8|0,0:0|0:0,0:0:0:0:
285,49,153773,5,2,0:0:0:0:
309,75,153858,2,0,P|332:142|323:175,1,90,8|0,0:0|2:0,0:0:0:0:
324,194,154114,2,0,L|427:203,1,90,8|0,0:0|0:0,0:0:0:0:
304,306,154369,1,0,0:0:0:0:
339,310,154455,6,0,B|390:315|390:315|411:337|411:337|464:342,1,135,6|0,0:0|2:0,0:0:0:0:
500,347,154796,1,8,0:0:0:0:
266,366,154966,2,0,P|240:314|312:222,1,180,2|0,0:0|0:0,0:0:0:0:
481,271,155477,6,0,P|448:319|333:303,1,180,8|2,0:0|0:0,0:0:0:0:
220,175,155989,1,0,0:0:0:0:
393,152,156159,2,0,P|402:229|396:250,1,90,8|0,0:0|0:0,0:0:0:0:
189,156,156500,5,2,0:0:0:0:
171,125,156585,2,0,P|162:48|168:27,1,90,8|0,0:0|0:0,0:0:0:0:
286,0,156841,2,0,P|307:8|326:20,1,45,8|0,0:0|0:0,0:0:0:0:
308,145,157011,1,8,0:0:0:0:
422,87,157182,6,0,L|492:96,2,60,6|0|0,0:0|0:0|0:0,0:0:0:0:
398,243,157523,2,0,L|328:252,2,60,2|0|0,0:0|0:0|0:0,0:0:0:0:
414,165,157864,5,2,0:0:0:0:
379,114,157977,1,0,0:0:0:0:
321,100,158090,1,0,0:0:0:0:
268,129,158205,1,2,0:0:0:0:
249,187,158318,1,0,0:0:0:0:
271,241,158431,1,0,0:0:0:0:
334,188,158546,6,0,P|373:181|457:266,1,135,2|8,0:0|0:0,0:0:0:0:
460,271,158886,1,2,0:0:0:0:
438,43,159057,1,8,0:0:0:0:
245,169,159227,5,2,0:0:0:0:
243,164,159313,1,0,0:0:0:0:
241,159,159398,2,0,P|232:138|226:116,1,45,0|0,0:0|0:0,0:0:0:0:
301,7,159568,2,0,P|286:24|271:40,1,45,8|2,0:0|0:0,0:0:0:0:
128,31,159739,2,0,P|150:34|172:39,1,45,2|2,0:0|0:0,0:0:0:0:
323,204,159909,6,0,B|294:210|270:205|270:205|245:219|245:219|221:210|175:228,1,135,6|0,0:0|2:0,0:0:0:0:
354,126,160250,6,0,P|406:193|373:273,1,180,12|2,0:0|0:0,0:0:0:0:
271,133,160761,1,0,0:0:0:0:
470,118,160932,1,8,0:0:0:0:
369,293,161102,5,0,0:0:0:0:
369,293,161188,1,0,0:0:0:0:
369,293,161273,1,2,0:0:0:0:
372,92,161443,1,0,0:0:0:0:
190,211,161614,2,0,P|135:211|92:205,1,90,8|0,0:0|0:0,0:0:0:0:
82,202,161869,1,0,0:0:0:0:
64,199,161955,1,2,0:0:0:0:
246,304,162125,1,0,0:0:0:0:
246,113,162296,1,8,0:0:0:0:
246,113,162466,2,0,P|292:111|314:117,1,45,0|0,0:0|0:0,0:0:0:0:
409,182,162636,6,0,B|333:173|351:216|281:212,1,135,6|0,0:0|2:0,0:0:0:0:
396,273,162977,2,0,P|400:317|391:369,1,90,8|0,0:0|0:0,0:0:0:0:
254,209,163318,1,2,0:0:0:0:
388,100,163489,1,0,0:0:0:0:
421,265,163659,1,8,0:0:0:0:
228,191,163830,6,0,P|208:150|213:106,1,90,0|2,0:0|0:0,0:0:0:0:
410,92,164171,1,0,0:0:0:0:
304,6,164341,1,8,0:0:0:0:
309,208,164511,2,0,B|270:180|228:189|228:189|193:224|141:214,1,180,0|0,0:0|0:0,0:0:0:0:
386,152,165023,2,0,P|405:215|398:260,1,90,8|0,0:0|0:0,0:0:0:0:
347,299,165278,1,0,0:0:0:0:
346,299,165364,6,0,B|383:297|403:270|403:270|425:295|462:303,1,135,6|0,0:0|2:0,0:0:0:0:
498,308,165705,1,8,0:0:0:0:
229,326,165875,6,0,P|229:281|246:239,1,90,0|2,0:0|0:0,0:0:0:0:
440,100,166216,1,0,0:0:0:0:
418,273,166386,6,0,P|378:294|334:301,1,90,8|0,0:0|0:0,0:0:0:0:
134,254,166727,1,2,0:0:0:0:
283,127,166898,6,8,P|321:150|349:185,1,90,0|8,0:0|0:0,0:0:0:0:
172,138,167239,1,0,0:0:0:0:
348,213,167409,6,0,L|463:228,1,90,2|0,0:0|0:0,0:0:0:0:
173,113,167750,2,0,L|58:128,1,90,8|0,0:0|0:0,0:0:0:0:
203,292,168090,5,6,0:0:0:0:
191,320,168204,2,0,L|186:387,1,60
299,199,168431,5,2,0:0:0:0:
310,243,168545,2,0,L|320:316,1,66.0000020141602
191,128,168772,5,2,0:0:0:0:
184,187,168886,2,0,L|101:193,1,71.9999978027344
293,40,169113,5,2,0:0:0:0:
322,120,169227,2,0,L|411:128,1,77.9999964294435
182,32,169454,6,0,L|90:41,2,83.9999974365235,2|0|0,0:0|0:0|0:0,0:0:0:0:
330,32,169796,2,0,L|422:41,2,83.9999974365235,2|0|0,0:0|0:0|0:0,0:0:0:0:
186,127,170136,6,0,L|142:132,1,45
325,127,170307,2,0,L|370:132,1,45,0|0,0:0|0:0,0:0:0:0:
196,215,170477,6,0,L|191:259,1,45,2|2,0:0|0:0,0:0:0:0:
320,259,170648,2,0,L|316:215,1,45,2|2,0:0|0:0,0:0:0:0:
256,47,170818,5,6,0:0:0:0:
256,192,179000,6,0,P|308:169|397:198,1,135,6|8,0:0|0:0,0:0:0:0:
412,204,179341,1,2,0:0:0:0:
212,273,179511,1,8,0:0:0:0:
187,253,179597,1,0,0:0:0:0:
172,225,179682,1,0,0:0:0:0:
167,194,179767,1,0,0:0:0:0:
175,164,179852,1,2,0:0:0:0:
325,270,180023,2,0,L|329:341,3,45,2|0|0|0,0:0|0:0|0:0|0:0,0:0:0:0:
330,360,180364,5,2,0:0:0:0:
235,299,180534,1,2,0:0:0:0:
235,299,180619,1,2,0:0:0:0:
235,299,180705,1,2,0:0:0:0:
416,291,180875,1,2,0:0:0:0:
316,145,181046,1,2,0:0:0:0:
329,349,181216,5,8,0:0:0:0:
461,147,181386,1,8,0:0:0:0:
331,373,181557,1,8,0:0:0:0:
174,162,181727,6,0,P|98:160|52:189,1,90,6|0,0:0|0:0,0:0:0:0:
254,238,182068,1,8,0:0:0:0:
241,47,182239,1,0,0:0:0:0:
73,179,182409,2,0,P|50:253|49:350,1,135,2|0,0:0|2:0,0:0:0:0:
53,345,182750,1,8,0:0:0:0:
224,197,182921,6,0,P|221:128|210:80,1,90,0|2,0:0|0:0,0:0:0:0:
367,270,183261,2,0,P|343:308|314:342,1,90,0|8,0:0|0:0,0:0:0:0:
370,119,183602,2,0,P|437:133|482:153,1,90,0|2,0:0|0:0,0:0:0:0:
250,276,183943,1,0,0:0:0:0:
272,106,184114,2,0,P|274:172|322:220,1,135,8|0,0:0|2:0,0:0:0:0:
275,77,184455,2,0,P|230:85|188:98,1,90,2|0,0:0|0:0,0:0:0:0:
506,154,184796,6,0,P|462:94|398:132,1,161.999995056153,12|0,0:0|2:0,0:0:0:0:
362,284,185136,6,0,P|376:351|396:396,1,90,2|0,0:0|0:0,0:0:0:0:
407,157,185477,2,0,B|326:157|267:181,1,135,8|0,0:0|2:0,0:0:0:0:
248,283,185818,6,0,P|292:279|335:265,1,90,0|0,0:0|0:0,0:0:0:0:
195,125,186159,2,0,P|152:111|107:107,1,90,8|0,0:0|0:0,0:0:0:0:
12,354,186500,2,0,P|54:367|99:371,1,90,2|0,0:0|0:0,0:0:0:0:
336,266,186841,1,8,0:0:0:0:
163,243,187011,1,0,0:0:0:0:
118,236,187097,1,8,0:0:0:0:
74,230,187182,6,0,P|40:164|83:73,1,148.50000453186,6|0,0:0|2:0,0:0:0:0:
253,139,187523,2,0,P|200:161|153:149,1,99.0000030212403,8|0,0:0|0:0,0:0:0:0:
359,15,187864,6,0,B|388:102|388:102|377:175,1,148.50000453186,6|0,0:0|2:0,0:0:0:0:
482,251,188205,2,0,L|500:147,1,99.0000030212403,8|0,0:0|0:0,0:0:0:0:
259,115,188546,6,0,B|251:165|251:165|271:204|271:204|262:257,1,148.50000453186,6|0,0:0|2:0,0:0:0:0:
257,302,188886,1,8,0:0:0:0:
267,75,189057,1,0,0:0:0:0:
59,236,189227,6,0,P|28:171|51:103,1,148.50000453186,6|0,0:0|2:0,0:0:0:0:
79,74,189568,1,8,0:0:0:0:
86,266,189739,1,0,0:0:0:0:
234,160,189909,6,0,P|168:158|135:171,1,90,6|0,0:0|0:0,0:0:0:0:
267,61,190250,1,8,0:0:0:0:
278,255,190421,1,0,0:0:0:0:
464,141,190591,6,0,P|474:97|468:53,1,90,6|0,0:0|0:0,0:0:0:0:
371,262,190932,2,0,L|376:364,1,90,8|0,0:0|0:0,0:0:0:0:
364,144,191273,5,6,0:0:0:0:
478,301,191443,1,0,0:0:0:0:
266,312,191614,1,8,0:0:0:0:
418,173,191784,2,0,P|395:179|373:182,1,45,0|0,0:0|0:0,0:0:0:0:
272,201,191955,5,6,0:0:0:0:
251,171,192040,1,0,0:0:0:0:
242,137,192125,1,0,0:0:0:0:
245,101,192210,1,0,0:0:0:0:
262,69,192296,1,2,0:0:0:0:
113,205,192466,2,0,P|138:208|157:214,1,45,0|0,0:0|0:0,0:0:0:0:
286,305,192636,6,0,P|199:315|118:335,1,135,6|0,0:0|2:0,0:0:0:0:
118,338,192977,1,8,0:0:0:0:
208,162,193148,1,0,0:0:0:0:
15,169,193318,2,0,P|13:98|24:66,1,90,2|0,0:0|0:0,0:0:0:0:
232,180,193659,1,8,0:0:0:0:
92,343,193830,6,0,P|21:345|-11:334,1,90,0|2,0:0|0:0,0:0:0:0:
254,197,194171,2,0,P|291:257|297:290,1,90,0|8,0:0|0:0,0:0:0:0:
61,133,194511,2,0,P|94:70|120:48,1,90,0|2,0:0|0:0,0:0:0:0:
296,91,194852,1,0,0:0:0:0:
185,229,195023,2,0,P|259:231|336:243,1,135,8|0,0:0|2:0,0:0:0:0:
157,241,195364,2,0,P|107:239|60:230,1,90,2|0,0:0|0:0,0:0:0:0:
374,323,195705,6,0,B|320:354|268:328|268:328|273:351|267:378,1,161.999995056153,12|0,0:0|2:0,0:0:0:0:
317,204,196046,6,0,P|324:159|326:114,1,90,2|0,0:0|0:0,0:0:0:0:
134,123,196386,1,8,0:0:0:0:
336,210,196557,1,0,0:0:0:0:
130,276,196727,6,0,P|131:320|139:365,1,90,2|0,0:0|0:0,0:0:0:0:
372,365,197068,2,0,P|380:320|381:276,1,90,8|0,0:0|0:0,0:0:0:0:
239,80,197409,5,2,0:0:0:0:
203,84,197494,1,0,0:0:0:0:
172,104,197580,1,0,0:0:0:0:
156,137,197665,1,0,0:0:0:0:
158,174,197750,2,0,L|164:236,1,45,2|2,0:0|0:0,0:0:0:0:
257,238,197921,2,0,L|261:193,1,45,2|2,0:0|0:0,0:0:0:0:
67,116,198091,6,0,B|54:162|54:162|68:262,1,148.50000453186,6|0,0:0|2:0,0:0:0:0:
236,192,198432,2,0,P|174:166|121:184,1,99.0000030212403,8|0,0:0|0:0,0:0:0:0:
371,234,198773,6,0,P|335:297|305:242,1,148.50000453186,6|0,0:0|2:0,0:0:0:0:
458,251,199114,2,0,P|448:317|405:353,1,99.0000030212403,8|0,0:0|0:0,0:0:0:0:
313,130,199455,6,0,B|403:117|365:173|466:165,1,148.50000453186,6|0,0:0|2:0,0:0:0:0:
492,157,199796,1,8,0:0:0:0:
330,229,199966,1,0,0:0:0:0:
395,28,200136,6,0,P|322:16|250:34,1,148.50000453186,6|0,0:0|2:0,0:0:0:0:
220,60,200477,1,8,0:0:0:0:
429,47,200648,1,0,0:0:0:0:
291,213,200818,6,0,P|335:218|378:206,1,90,6|0,0:0|0:0,0:0:0:0:
251,302,201159,1,8,0:0:0:0:
437,277,201330,1,0,0:0:0:0:
327,127,201500,2,0,L|317:5,1,90,6|0,0:0|0:0,0:0:0:0:
242,288,201841,2,0,L|234:377,1,90,8|0,0:0|0:0,0:0:0:0:
200,40,202182,5,6,0:0:0:0:
200,40,202267,1,0,0:0:0:0:
200,40,202352,2,0,L|203:84,1,45,8|0,0:0|0:0,0:0:0:0:
270,144,202523,2,0,P|334:150|375:142,1,90,2|0,0:0|0:0,0:0:0:0:
131,147,202778,1,8,0:0:0:0:
131,147,202864,2,0,P|86:142|41:149,1,90,2|0,0:0|0:0,0:0:0:0:
205,213,203119,1,0,0:0:0:0:
205,213,203205,2,0,P|200:257|207:302,1,90,2|0,0:0|0:0,0:0:0:0:
343,220,203460,1,8,0:0:0:0:
343,220,203546,6,0,P|296:254|350:291,1,135,6|0,0:0|2:0,0:0:0:0:
375,304,203886,1,8,0:0:0:0:
168,229,204057,1,0,0:0:0:0:
236,339,204227,2,0,P|169:351|102:351,1,135,2|0,0:0|2:0,0:0:0:0:
53,244,204568,2,0,P|58:288|71:332,1,90,8|0,0:0|0:0,0:0:0:0:
90,81,204909,5,2,0:0:0:0:
252,121,205080,2,0,P|247:165|234:208,1,90,0|8,0:0|0:0,0:0:0:0:
188,36,205421,2,0,P|237:14|320:43,1,135,2|0,0:0|2:0,0:0:0:0:
340,57,205761,1,0,0:0:0:0:
104,96,205932,2,0,P|91:52|86:8,1,90,8|0,0:0|0:0,0:0:0:0:
128,223,206273,2,0,P|68:221|23:224,1,90,2|0,0:0|0:0,0:0:0:0:
314,192,206614,6,0,B|292:257|320:310|320:310|361:245,1,161.999995056153,12|0,0:0|2:0,0:0:0:0:
225,192,206955,6,0,P|215:249|226:297,1,90,2|0,0:0|0:0,0:0:0:0:
326,98,207296,1,8,0:0:0:0:
113,99,207466,1,0,0:0:0:0:
221,155,207636,6,0,P|222:110|220:65,1,90,2|0,0:0|0:0,0:0:0:0:
65,23,207977,1,8,0:0:0:0:
184,237,208148,1,0,0:0:0:0:
218,247,208233,1,8,0:0:0:0:
253,239,208318,1,2,0:0:0:0:
108,150,208489,1,0,0:0:0:0:
69,138,208574,1,8,0:0:0:0:
29,149,208659,1,2,0:0:0:0:
173,348,208830,1,8,0:0:0:0:
216,358,208915,1,8,0:0:0:0:
260,352,209000,6,0,P|292:300|264:211,1,148.50000453186,6|0,0:0|2:0,0:0:0:0:
150,129,209341,2,0,P|160:177|159:271,1,99.0000030212403,8|0,0:0|0:0,0:0:0:0:
388,283,209682,6,0,B|395:238|372:195|372:195|370:162|382:138,1,148.50000453186,6|0,0:0|2:0,0:0:0:0:
268,3,210023,2,0,L|271:103,1,99.0000030212403,8|0,0:0|0:0,0:0:0:0:
211,304,210364,6,0,B|281:328|281:328|349:299,1,148.50000453186,6|0,0:0|2:0,0:0:0:0:
386,285,210705,1,8,0:0:0:0:
172,292,210875,1,0,0:0:0:0:
251,126,211046,6,0,B|216:94|152:97|152:97|86:140,1,148.50000453186,6|0,0:0|2:0,0:0:0:0:
85,147,211386,1,8,0:0:0:0:
244,19,211557,1,0,0:0:0:0:
213,209,211727,6,0,P|255:220|298:207,1,90,6|0,0:0|0:0,0:0:0:0:
126,174,212068,1,8,0:0:0:0:
253,318,212239,1,0,0:0:0:0:
383,171,212409,6,0,P|391:214|377:257,1,90,6|0,0:0|0:0,0:0:0:0:
131,260,212750,2,0,P|117:217|125:173,1,90,8|0,0:0|0:0,0:0:0:0:
256,10,213091,5,6,0:0:0:0:
256,44,213176,2,0,L|256:138,1,90,8|0,0:0|2:0,0:0:0:0:
195,182,213432,2,0,B|256:151|256:151|314:182,1,135,12|8,0:0|0:0,0:0:0:0:
354,203,213773,5,2,0:0:0:0:
397,214,213858,1,0,0:0:0:0:
437,193,213943,1,0,0:0:0:0:
458,153,214028,1,0,0:0:0:0:
442,110,214114,1,2,0:0:0:0:
404,85,214199,1,0,0:0:0:0:
359,93,214284,1,2,0:0:0:0:
330,127,214369,1,2,0:0:0:0:
333,171,214455,5,6,0:0:0:0:
387,14,214625,1,0,0:0:0:0:
199,81,214796,2,0,P|114:68|47:49,1,135,8|0,0:0|2:0,0:0:0:0:
32,42,215136,1,2,0:0:0:0:
140,246,215307,1,0,0:0:0:0:
312,80,215477,2,0,P|377:63|444:54,1,135,8|0,0:0|2:0,0:0:0:0:
480,50,215818,5,2,0:0:0:0:
361,209,215989,2,0,P|350:253|345:306,1,90,0|8,0:0|0:0,0:0:0:0:
210,121,216330,2,0,P|253:108|302:86,1,90,0|2,0:0|0:0,0:0:0:0:
394,219,216671,1,0,0:0:0:0:
218,307,216841,2,0,P|157:277|117:225,1,135,8|0,0:0|2:0,0:0:0:0:
246,306,217182,2,0,P|290:313|330:332,1,90,2|0,0:0|0:0,0:0:0:0:
98,196,217523,6,0,B|126:173|124:135|124:135|164:165|213:150,1,161.999995056153,12|0,0:0|2:0,0:0:0:0:
35,131,217864,6,0,P|30:80|33:27,1,90,2|0,0:0|0:0,0:0:0:0:
229,176,218205,2,0,P|230:220|225:265,1,90,8|0,0:0|0:0,0:0:0:0:
232,81,218546,5,2,0:0:0:0:
124,217,218716,1,0,0:0:0:0:
333,235,218886,2,0,P|377:233|422:238,1,90,8|0,0:0|0:0,0:0:0:0:
229,371,219227,5,2,0:0:0:0:
198,351,219313,1,0,0:0:0:0:
178,321,219398,1,0,0:0:0:0:
168,286,219483,1,0,0:0:0:0:
165,249,219568,2,0,P|161:221|170:190,1,45,8|2,0:0|0:0,0:0:0:0:
280,206,219739,2,0,P|257:223|226:231,1,45,2|2,0:0|0:0,0:0:0:0:
94,155,219909,6,0,P|155:121|235:160,1,148.50000453186,6|0,0:0|2:0,0:0:0:0:
31,209,220250,2,0,P|11:146|32:102,1,99.0000030212403,8|0,0:0|0:0,0:0:0:0:
263,256,220591,6,0,B|216:242|176:285|176:285|153:268|104:274,1,148.50000453186,6|0,0:0|2:0,0:0:0:0:
244,346,220932,2,0,L|358:369,1,99.0000030212403,8|0,0:0|0:0,0:0:0:0:
91,194,221273,6,0,P|87:121|136:67,1,148.50000453186,6|0,0:0|2:0,0:0:0:0:
174,57,221614,1,8,0:0:0:0:
111,228,221784,1,0,0:0:0:0:
294,164,221955,6,0,B|293:204|293:204|307:232|307:232|300:262|300:262|303:313,1,148.50000453186,6|0,0:0|2:0,0:0:0:0:
306,349,222296,1,8,0:0:0:0:
291,124,222466,1,0,0:0:0:0:
100,244,222636,6,0,P|46:238|-3:219,1,90,6|0,0:0|0:0,0:0:0:0:
176,160,222977,1,8,0:0:0:0:
84,338,223148,1,0,0:0:0:0:
266,227,223318,6,0,P|320:233|369:252,1,90,6|0,0:0|0:0,0:0:0:0:
197,341,223659,1,8,0:0:0:0:
174,131,223830,5,0,0:0:0:0:
174,131,223915,1,0,0:0:0:0:
174,131,224000,1,6,0:0:0:0:
173,90,224085,1,0,0:0:0:0:
192,54,224171,1,0,0:0:0:0:
225,31,224256,1,0,0:0:0:0:
264,24,224341,1,8,0:0:0:0:
301,39,224426,1,0,0:0:0:0:
331,65,224511,1,0,0:0:0:0:
342,103,224597,1,0,0:0:0:0:
340,143,224682,6,0,L|336:194,3,45,8|0|2|2,0:0|0:0|0:0|0:0,0:0:0:0:
417,313,225023,2,0,L|379:287,1,45,2|2,0:0|0:0,0:0:0:0:
229,291,225193,2,0,L|269:271,1,45,2|2,0:0|0:0,0:0:0:0:
440,203,225364,5,6,0:0:0:0:
256,192,225449,12,0,226728,2:0:0:0:
93,191,227239,5,0,0:0:0:0:
93,191,227324,1,0,0:0:0:0:
93,191,227409,2,0,L|3:182,2,67.5000025749208,2|2|2,0:0|0:0|0:0,0:0:0:0:
286,201,227921,6,0,B|187:223|187:223|162:257,1,135,6|0,0:0|2:0,0:0:0:0:
152,278,228261,1,8,0:0:0:0:
379,228,228432,2,0,B|393:180|365:143|365:143|382:106|382:106|362:60,1,180,12|2,0:0|0:0,0:0:0:0:
286,201,228943,1,2,0:0:0:0:
463,134,229114,1,8,0:0:0:0:
269,212,229284,6,0,P|210:229|116:210,1,135,2|0,0:0|2:0,0:0:0:0:
161,105,229625,2,0,P|223:97|269:118,1,90,2|8,0:0|0:0,0:0:0:0:
46,53,229966,1,0,0:0:0:0:
125,235,230136,1,2,0:0:0:0:
30,67,230307,1,2,0:0:0:0:
232,76,230477,1,8,0:0:0:0:
47,173,230648,6,0,P|22:240|96:332,1,180,2|2,0:0|0:0,0:0:0:0:
162,120,231159,1,8,0:0:0:0:
267,191,231330,2,0,P|284:128|265:72,2,90,0|2|2,0:0|0:0|0:0,0:0:0:0:
206,285,231841,1,8,0:0:0:0:
117,133,232011,6,0,B|89:186|89:186|109:343,1,180,2|2,0:0|0:0,0:0:0:0:
191,204,232523,1,8,0:0:0:0:
0,229,232693,1,0,0:0:0:0:
0,229,232778,1,0,0:0:0:0:
0,229,232864,1,2,0:0:0:0:
79,48,233034,1,2,0:0:0:0:
101,237,233205,1,8,0:0:0:0:
264,110,233375,6,0,B|305:103|305:103|332:113|332:113|356:99|356:99|394:97,1,135,6|0,0:0|2:0,0:0:0:0:
431,97,233716,1,2,0:0:0:0:
195,184,233886,2,0,P|163:144|201:27,1,180,12|2,0:0|0:0,0:0:0:0:
76,131,234398,1,2,0:0:0:0:
224,38,234568,1,8,0:0:0:0:
213,205,234739,6,0,P|214:264|211:384,1,180,2|2,0:0|0:0,0:0:0:0:
317,261,235250,2,0,P|369:263|416:275,1,90,8|0,0:0|0:0,0:0:0:0:
277,164,235591,1,2,0:0:0:0:
266,346,235761,1,2,0:0:0:0:
436,273,235932,1,8,0:0:0:0:
233,254,236102,6,0,B|199:242|168:264|168:264|131:246|131:246|99:265|63:256,1,180,6|2,0:0|0:0,0:0:0:0:
214,334,236614,2,0,P|255:350|307:344,1,90,8|2,0:0|0:0,0:0:0:0:
86,173,236955,2,0,P|22:181|-9:209,2,90,8|2|2,0:0|0:0|0:0,0:0:0:0:
349,274,237466,5,8,0:0:0:0:
198,37,237807,5,8,0:0:0:0:
77,284,238148,5,2,0:0:0:0:
271,199,238296,6,0,P|235:247|230:142,1,270.000010299683,14|0,0:0|2:0,0:0:0:0:
