osu file format v14

[General]
AudioFilename: forandrew.mp3
AudioLeadIn: 0
PreviewTime: 55506
Countdown: 0
SampleSet: Soft
StackLeniency: 0.7
Mode: 0
LetterboxInBreaks: 0
WidescreenStoryboard: 0

[Editor]
DistanceSpacing: 1.1
BeatDivisor: 2
GridSize: 16
TimelineZoom: 1.6

[Metadata]
Title:Routine
TitleUnicode:Routine
Artist:Silent Siren
ArtistUnicode:サイレントサイレン
Creator:sukiNathan
Version:Easy
Source:
Tags:jpop j-pop aina yamauchi yukako kurosaka hinako umemura sumire yoshida ayana sōgawa sogawa giralda
BeatmapID:892468
BeatmapSetID:396745

[Difficulty]
HPDrainRate:2
CircleSize:3
OverallDifficulty:2
ApproachRate:3
SliderMultiplier:0.8
SliderTickRate:1

[Events]
//Background and Video events
0,0,"adoredesu.jpg",0,0
//Break Periods
2,172181,177560
//Storyboard Layer 0 (Background)
//Storyboard Layer 1 (Fail)
//Storyboard Layer 2 (Pass)
//Storyboard Layer 3 (Foreground)
//Storyboard Sound Samples

[TimingPoints]
1046,340.909090909091,4,2,0,60,1,0
2409,-100,4,2,0,60,0,0
6500,-100,4,1,1,40,0,0
7864,-100,4,1,1,50,0,0
9227,-100,4,1,1,60,0,0
11273,-100,4,2,0,60,0,0
11784,-100,4,1,1,70,0,0
22693,-100,4,2,1,60,0,0
43830,-100,4,2,1,70,0,0
44682,-100,4,2,1,60,0,0
55591,-100,4,1,1,70,0,1
61046,-100,4,1,1,70,0,1
63773,-100,4,1,1,70,0,1
71955,-100,4,1,1,70,0,1
74682,-100,4,1,1,70,0,1
77409,-100,4,2,1,70,0,0
79455,-100,4,2,0,60,0,0
79966,-100,4,1,1,70,0,0
90875,-100,4,2,1,65,0,0
112864,-100,4,2,1,60,0,0
123773,-100,4,1,1,70,0,1
129227,-100,4,1,1,70,0,1
131955,-100,4,1,1,70,0,1
140136,-100,4,1,1,70,0,1
142864,-100,4,1,1,70,0,1
145591,-100,4,1,1,60,0,1
146955,-100,4,1,1,70,0,1
148318,-100,4,2,0,40,0,0
149000,340.909090909091,4,1,1,70,1,1
149085,-100,4,1,1,70,0,0
159227,-100,4,1,1,70,0,0
168090,-100,4,1,1,70,0,1
168432,-100,4,1,1,70,0,1
168773,-100,4,1,1,70,0,1
169114,-100,4,1,1,70,0,1
169455,-100,4,1,1,70,0,1
170136,-100,4,1,1,70,0,1
170818,-100,4,1,1,70,0,0
179000,-100,4,1,1,70,0,0
181727,-100,4,1,1,70,0,1
187181,-100,4,1,1,70,0,1
189909,-100,4,1,1,70,0,1
198090,-100,4,1,1,70,0,1
200818,-100,4,1,1,70,0,1
209000,-100,4,1,1,70,0,1
211727,-100,4,1,1,70,0,1
219909,-100,4,1,1,70,0,1
222636,-100,4,1,1,70,0,1
225363,-100,4,1,1,70,0,0
227238,-100,4,2,0,60,0,0
227920,-100,4,1,1,70,0,0
238296,340.909090909091,4,1,1,70,1,0
238296,-100,4,1,1,70,0,0

[Colours]
Combo1 : 249,113,140
Combo2 : 250,56,62
Combo3 : 77,147,253
Combo4 : 88,220,226

[HitObjects]
41,304,1046,6,0,B|137:267|100:345|224:316,1,160,6|0,0:0|0:0,0:0:0:0:
177,234,2068,1,0,0:0:0:0:
261,259,2409,2,0,P|285:310|278:355,1,80,2|0,0:0|0:0,0:0:0:0:
367,363,3091,2,0,P|418:339|463:346,1,80,2|0,0:0|0:0,0:0:0:0:
486,264,3773,6,0,L|486:102,1,160,2|0,0:0|0:0,0:0:0:0:
433,32,4796,1,0,0:0:0:0:
384,105,5136,2,0,L|384:265,1,160,2|0,0:0|0:0,0:0:0:0:
331,336,6159,1,2,0:0:0:0:
262,280,6500,6,0,P|206:278|157:298,1,80,0|0,1:0|0:0,0:0:0:0:
95,273,7182,2,0,P|91:233|99:194,1,80,8|8,0:0|0:0,0:0:0:0:
170,141,7864,2,0,P|103:167|28:98,1,160,8|8,0:0|0:0,0:0:0:0:
110,75,8886,1,8,0:0:0:0:
196,57,9227,6,0,L|292:64,1,80,8|8,0:0|0:0,0:0:0:0:
287,150,9909,2,0,L|383:143,1,80,8|8,0:0|0:0,0:0:0:0:
453,126,10591,1,2,0:0:0:0:
423,208,10932,1,6,0:0:0:0:
251,346,11784,6,0,B|200:343|200:343|179:352|179:352|113:352,1,120,6|8,0:0|0:0,0:0:0:0:
60,301,12636,1,2,0:0:0:0:
166,222,13148,2,0,P|174:175|152:96,1,120,2|8,0:0|0:0,0:0:0:0:
88,51,14000,1,2,0:0:0:0:
214,14,14511,6,0,L|326:17,1,80,2|2,0:0|0:0,0:0:0:0:
331,95,15193,2,0,L|443:92,1,80,2|2,0:0|0:0,0:0:0:0:
472,156,15875,2,0,P|483:208|443:293,1,120,2|8,0:0|0:0,0:0:0:0:
395,326,16727,1,2,0:0:0:0:
266,294,17239,6,0,P|209:274|151:285,1,120,2|8,0:0|0:0,0:0:0:0:
95,353,18091,1,2,0:0:0:0:
87,221,18602,2,0,L|91:96,1,120,2|8,0:0|0:0,0:0:0:0:
99,13,19455,1,2,0:0:0:0:
192,105,19966,6,0,L|317:101,1,120,2|8,0:0|0:0,0:0:0:0:
393,69,20818,1,2,0:0:0:0:
479,168,21330,2,0,P|479:226|460:266,1,80,6|2,0:0|0:0,0:0:0:0:
352,190,22182,1,10,0:0:0:0:
352,321,22693,6,0,L|238:326,2,80,4|2|0,0:0|0:0|0:0,0:0:0:0:
417,262,23716,1,2,0:0:0:0:
372,185,24057,2,0,L|375:105,1,80,2|2,0:0|0:0,0:0:0:0:
385,17,24739,2,0,B|319:8|339:49|262:45,1,120,2|0,0:0|0:0,0:0:0:0:
183,52,25591,5,0,0:0:0:0:
241,170,26102,2,0,P|170:184|146:174,1,80,2|2,0:0|0:0,0:0:0:0:
103,118,26784,2,0,P|82:151|78:190,1,80,2|2,0:0|0:0,0:0:0:0:
123,267,27466,2,0,P|156:288|195:292,1,80,0|2,0:0|0:0,0:0:0:0:
275,250,28148,6,0,L|354:260,1,80,2|2,1:0|0:0,0:0:0:0:
423,200,28830,2,0,P|444:254|435:298,2,80,0|2|2,0:0|0:0|0:0,0:0:0:0:
348,155,29852,1,2,0:0:0:0:
269,195,30193,2,0,L|172:200,1,80,0|2,0:0|0:0,0:0:0:0:
106,230,30875,6,0,L|109:150,1,80,2|2,1:0|0:0,0:0:0:0:
68,71,31557,2,0,L|165:66,1,80,0|2,0:0|0:0,0:0:0:0:
230,96,32239,2,0,L|233:16,2,80,2|2|0,0:0|0:0|0:0,0:0:0:0:
172,162,33261,1,0,1:0:0:0:
258,180,33602,6,0,P|314:177|356:149,2,80,6|2|0,0:0|0:0|0:0,0:0:0:0:
211,255,34625,1,2,0:0:0:0:
152,321,34966,2,0,P|96:318|54:290,1,80,2|2,0:0|0:0,0:0:0:0:
109,226,35648,2,0,P|127:164|86:94,1,120,0|8,0:0|0:0,0:0:0:0:
40,171,36500,5,0,0:0:0:0:
47,39,37011,2,0,P|84:19|155:38,1,80,2|2,0:0|0:0,0:0:0:0:
181,86,37693,2,0,B|226:83|226:83|251:100|251:100|324:96,1,120,2|8,1:0|0:0,0:0:0:0:
339,20,38546,1,2,0:0:0:0:
363,149,39057,6,0,L|351:266,1,80,6|2,0:0|0:0,0:0:0:0:
266,230,39739,2,0,L|149:242,1,80,0|2,0:0|0:0,0:0:0:0:
135,310,40421,2,0,P|98:259|121:181,1,120,2|8,0:0|0:0,0:0:0:0:
128,120,41273,1,2,0:0:0:0:
259,126,41784,6,0,L|361:135,2,80,2|2|0,0:0|0:0|0:0,0:0:0:0:
230,209,42807,1,2,0:0:0:0:
312,240,43148,2,0,L|414:249,1,80,2|2,1:0|0:0,0:0:0:0:
481,243,43830,2,0,L|492:381,1,120,0|0,0:0|1:0,0:0:0:0:
405,339,44682,6,0,B|363:337|363:337|328:350,1,80,6|8,0:0|0:0,0:0:0:0:
241,371,45364,1,2,0:0:0:0:
114,334,45875,1,6,0:0:0:0:
396,56,47409,6,0,B|394:98|394:98|407:133,1,80,6|8,0:0|0:0,0:0:0:0:
458,205,48091,1,2,0:0:0:0:
430,334,48602,1,6,0:0:0:0:
81,146,50136,6,0,L|184:156,1,80,6|8,0:0|0:0,0:0:0:0:
229,98,50818,1,2,0:0:0:0:
206,228,51330,1,6,0:0:0:0:
474,290,52864,6,0,B|385:273|419:343|299:322,1,160,6|8,0:0|0:0,0:0:0:0:
340,238,53886,1,8,0:0:0:0:
256,264,54227,2,0,P|236:307|243:347,1,80,2|2,0:0|0:0,0:0:0:0:
152,351,54909,1,2,0:0:0:0:
90,288,55250,1,8,0:0:0:0:
118,204,55591,6,0,P|123:164|112:101,1,80,6|8,0:0|0:0,0:0:0:0:
62,56,56273,2,0,P|113:34|190:69,1,120,2|0,0:0|0:0,0:0:0:0:
237,111,57125,2,0,L|351:102,1,80,0|0,0:0|0:0,0:0:0:0:
449,101,57977,1,8,0:0:0:0:
471,186,58318,5,2,0:0:0:0:
411,250,58659,2,0,L|402:364,1,80,12|2,0:0|0:0,0:0:0:0:
319,352,59341,1,8,0:0:0:0:
239,314,59682,2,0,P|166:304|128:322,1,80,2|8,0:0|0:0,0:0:0:0:
79,338,60364,1,2,0:0:0:0:
87,250,60705,1,2,0:0:0:0:
49,170,61046,6,0,B|42:132|42:132|50:58,1,80,6|8,0:0|0:0,0:0:0:0:
128,57,61727,2,0,L|220:60,1,80,6|8,0:0|0:0,0:0:0:0:
281,108,62409,2,0,B|285:149|285:149|278:187,1,80,6|8,0:0|0:0,0:0:0:0:
198,223,63091,1,6,0:0:0:0:
266,277,63432,1,8,0:0:0:0:
186,314,63773,6,0,P|130:289|116:248,1,80,6|8,0:0|0:0,0:0:0:0:
96,190,64455,2,0,L|90:95,1,80,6|8,0:0|0:0,0:0:0:0:
138,35,65136,1,6,0:0:0:0:
209,86,65477,1,8,0:0:0:0:
273,26,65818,2,0,P|327:31|376:68,1,80,6|8,0:0|0:0,0:0:0:0:
393,119,66500,6,0,L|494:126,1,80,6|8,0:0|0:0,0:0:0:0:
468,212,67182,2,0,L|337:202,1,120,2|0,0:0|0:0,0:0:0:0:
288,138,68034,2,0,P|262:176|265:222,1,80,0|0,0:0|0:0,0:0:0:0:
362,293,68886,1,8,0:0:0:0:
301,356,69227,5,2,0:0:0:0:
223,313,69568,2,0,L|127:318,1,80,12|2,0:0|0:0,0:0:0:0:
85,250,70250,1,8,0:0:0:0:
147,188,70591,2,0,P|154:140|145:106,1,80,2|8,0:0|0:0,0:0:0:0:
127,23,71273,1,2,0:0:0:0:
211,46,71614,1,8,0:0:0:0:
296,24,71955,6,0,B|337:21|337:21|385:38,1,80,6|8,0:0|0:0,0:0:0:0:
435,96,72636,2,0,L|425:175,1,80,6|8,0:0|0:0,0:0:0:0:
413,262,73318,2,0,B|376:249|376:249|335:252,1,80,6|8,0:0|0:0,0:0:0:0:
259,296,74000,1,6,0:0:0:0:
251,208,74341,1,8,0:0:0:0:
176,254,74682,6,0,P|112:261|81:252,1,80,6|8,0:0|0:0,0:0:0:0:
80,171,75364,2,0,L|75:85,1,80,6|8,0:0|0:0,0:0:0:0:
150,44,76046,1,6,0:0:0:0:
220,95,76386,1,8,0:0:0:0:
265,19,76727,2,0,P|297:48|302:108,1,80,8|2,0:0|0:0,0:0:0:0:
279,166,77409,6,0,P|305:274|361:158,1,320,6|0,1:0|2:0,0:0:0:0:
185,140,79455,1,2,0:0:0:0:
83,224,79966,6,0,P|51:159|60:99,1,120,6|8,0:0|0:0,0:0:0:0:
89,32,80818,1,2,0:0:0:0:
216,66,81330,2,0,L|365:57,1,120,2|8,0:0|0:0,0:0:0:0:
423,49,82182,1,2,0:0:0:0:
339,151,82693,6,0,P|314:200|325:256,1,80,6|2,0:0|0:0,0:0:0:0:
401,209,83375,2,0,P|426:258|415:314,1,80,2|2,0:0|0:0,0:0:0:0:
357,337,84057,2,0,B|313:345|313:345|289:359|289:359|215:376,1,120,2|8,0:0|0:0,0:0:0:0:
245,281,84909,1,2,0:0:0:0:
116,312,85421,6,0,L|110:203,1,80,6|2,0:0|0:0,0:0:0:0:
104,144,86102,2,0,L|98:35,1,80,2|2,0:0|0:0,0:0:0:0:
183,90,86784,2,0,B|229:86|229:86|251:96|251:96|300:93,1,120,2|8,0:0|0:0,0:0:0:0:
332,175,87636,1,2,0:0:0:0:
424,80,88148,6,0,P|465:142|443:218,1,120,6|8,0:0|0:0,0:0:0:0:
437,269,89000,1,2,0:0:0:0:
329,345,89511,2,0,L|223:351,1,80,6|2,0:0|0:0,0:0:0:0:
117,359,90364,1,2,0:0:0:0:
175,240,90875,6,0,P|121:226|77:238,2,80,6|2|0,2:0|2:0|2:0,2:0:0:0:
258,269,91898,1,2,0:0:0:0:
239,182,92239,1,2,0:0:0:0:
323,205,92580,2,0,L|426:212,2,80,2|0|2,0:0|0:0|0:0,0:0:0:0:
303,119,93602,6,0,L|297:39,1,80,2|2,2:0|2:0,2:0:0:0:
209,42,94284,2,0,L|214:121,1,80,0|2,2:0|2:0,2:0:0:0:
208,209,94966,2,0,P|161:194|134:157,2,80,0|2|0,0:0|0:0|0:0,0:0:0:0:
289,175,95989,1,2,0:0:0:0:
319,257,96330,6,0,L|308:355,1,80,2|2,0:0|0:0,0:0:0:0:
228,303,97011,2,0,P|199:292|152:299,1,80,0|2,0:0|0:0,0:0:0:0:
64,285,97693,2,0,L|53:383,2,80,2|2|0,0:0|0:0|0:0,0:0:0:0:
60,196,98716,1,2,0:0:0:0:
146,210,99057,6,0,L|225:201,1,80,2|2,0:0|0:0,0:0:0:0:
210,113,99739,2,0,L|130:121,2,80,0|2|0,0:0|0:0|0:0,0:0:0:0:
278,57,100761,1,2,0:0:0:0:
362,83,101102,2,0,B|380:118|380:118|377:185,1,80,0|0,0:0|1:0,0:0:0:0:
362,245,101784,6,0,L|282:236,1,80,6|2,0:0|0:0,0:0:0:0:
242,157,102466,1,0,0:0:0:0:
187,225,102807,1,2,0:0:0:0:
144,147,103148,2,0,P|105:188|103:238,2,80,2|2|0,0:0|0:0|0:0,0:0:0:0:
165,61,104171,1,2,0:0:0:0:
229,119,104511,6,0,L|335:124,1,80,2|2,0:0|0:0,0:0:0:0:
395,139,105193,2,0,P|381:176|350:201,1,80,0|2,0:0|0:0,0:0:0:0:
270,236,105875,1,2,0:0:0:0:
342,285,106216,1,2,0:0:0:0:
265,328,106557,2,0,L|157:334,1,80,0|2,0:0|0:0,0:0:0:0:
102,300,107239,6,0,L|96:403,2,80,2|2|0,0:0|0:0|0:0,0:0:0:0:
175,251,108261,1,2,0:0:0:0:
99,205,108602,2,0,P|93:148|111:112,1,80,2|2,0:0|0:0,0:0:0:0:
188,129,109284,2,0,P|226:118|255:91,1,80,0|2,0:0|0:0,0:0:0:0:
309,21,109966,6,0,P|346:33|375:60,2,80,2|2|0,0:0|0:0|0:0,0:0:0:0:
256,91,110989,1,2,0:0:0:0:
199,158,111330,2,0,L|197:254,1,80,2|2,0:0|0:0,0:0:0:0:
328,250,112182,2,0,L|330:154,1,80,0|0,1:0|1:0,0:0:0:0:
297,88,112864,6,0,B|338:81|338:81|390:98,1,80,6|8,0:0|0:0,0:0:0:0:
452,134,113546,1,2,0:0:0:0:
453,265,114057,1,6,0:0:0:0:
57,291,115591,6,0,L|66:174,1,80,6|8,0:0|0:0,0:0:0:0:
75,123,116273,1,2,0:0:0:0:
176,206,116784,1,6,0:0:0:0:
437,73,118318,6,0,B|448:113|448:113|439:168,1,80,6|8,0:0|0:0,0:0:0:0:
360,116,119000,1,2,0:0:0:0:
410,237,119511,1,6,0:0:0:0:
50,70,121046,6,0,P|83:37|126:125,1,160,6|8,0:0|0:0,0:0:0:0:
108,183,122068,1,8,0:0:0:0:
195,174,122409,2,0,L|296:180,1,80,2|2,0:0|0:0,0:0:0:0:
342,121,123091,1,2,0:0:0:0:
415,168,123432,1,8,0:0:0:0:
400,254,123773,6,0,P|395:300|404:350,1,80,6|8,0:0|0:0,0:0:0:0:
311,325,124455,2,0,P|248:316|177:360,1,120,2|0,0:0|0:0,0:0:0:0:
118,300,125307,2,0,L|108:199,1,80,0|0,0:0|0:0,0:0:0:0:
93,89,126159,1,8,0:0:0:0:
158,147,126500,5,2,0:0:0:0:
221,85,126841,2,0,P|285:82|324:104,1,80,12|2,0:0|0:0,0:0:0:0:
356,154,127523,1,8,0:0:0:0:
381,238,127864,2,0,L|390:355,1,80,2|8,0:0|0:0,0:0:0:0:
314,368,128546,1,0,0:0:0:0:
239,322,128886,1,8,0:0:0:0:
156,353,129227,6,0,B|114:360|114:360|68:348,1,80,6|8,0:0|0:0,0:0:0:0:
59,264,129909,2,0,L|54:167,1,80,6|8,0:0|0:0,0:0:0:0:
50,95,130591,2,0,B|92:88|92:88|138:100,1,80,6|8,0:0|0:0,0:0:0:0:
191,159,131273,1,6,0:0:0:0:
213,73,131614,1,8,0:0:0:0:
275,135,131955,6,0,P|300:85|284:28,1,80,6|8,0:0|0:0,0:0:0:0:
382,33,132636,2,0,P|421:35|454:57,1,80,6|8,0:0|0:0,0:0:0:0:
392,119,133318,1,6,0:0:0:0:
475,146,133659,1,8,0:0:0:0:
411,206,134000,2,0,L|407:315,1,80,2|2,0:0|0:0,0:0:0:0:
389,372,134682,6,0,P|358:375|310:358,1,80,6|8,0:0|0:0,0:0:0:0:
307,271,135364,2,0,B|240:265|267:314|177:302,1,120,2|0,0:0|0:0,0:0:0:0:
201,215,136216,2,0,P|145:227|117:269,1,80,0|0,0:0|0:0,0:0:0:0:
40,339,137068,1,8,0:0:0:0:
44,251,137409,5,2,0:0:0:0:
51,163,137750,2,0,L|56:55,1,80,12|2,0:0|0:0,0:0:0:0:
130,38,138432,1,8,0:0:0:0:
195,97,138773,2,0,L|303:92,1,80,2|8,0:0|0:0,0:0:0:0:
351,48,139455,1,2,0:0:0:0:
357,136,139796,1,8,0:0:0:0:
431,88,140136,6,0,B|444:125|444:125|440:165,1,80,6|8,0:0|0:0,0:0:0:0:
375,225,140818,2,0,L|296:230,1,80,6|8,0:0|0:0,0:0:0:0:
211,202,141500,2,0,B|207:241|207:241|220:279,1,80,6|8,0:0|0:0,0:0:0:0:
299,319,142182,1,6,0:0:0:0:
224,365,142523,1,8,0:0:0:0:
149,318,142864,6,0,P|87:320|41:334,1,80,6|8,0:0|0:0,0:0:0:0:
68,235,143546,2,0,P|107:228|147:229,1,80,6|8,0:0|0:0,0:0:0:0:
224,270,144227,1,6,0:0:0:0:
253,187,144568,1,8,0:0:0:0:
196,119,144909,2,0,L|189:15,1,80,2|8,0:0|0:0,0:0:0:0:
278,46,145591,6,0,B|308:57|337:48|337:48|372:74|372:74|406:62|439:78,1,160,12|8,0:0|0:0,0:0:0:0:
400,157,146614,1,8,0:0:0:0:
460,221,146955,2,0,P|472:264|461:323,1,80,8|8,0:0|0:0,0:0:0:0:
413,366,147636,1,8,0:0:0:0:
379,284,147977,1,2,0:0:0:0:
159,137,149000,6,0,P|133:79|214:71,1,160,6|2,0:0|0:0,0:0:0:0:
249,139,150022,1,8,0:0:0:0:
239,226,150363,2,0,L|234:305,1,80,2|8,0:0|0:0,0:0:0:0:
198,384,151045,1,2,0:0:0:0:
285,374,151386,1,8,0:0:0:0:
341,309,151727,6,0,B|381:296|381:296|441:308,1,80,2|8,0:0|0:0,0:0:0:0:
496,263,152409,2,0,P|507:206|494:163,1,80,2|8,0:0|0:0,0:0:0:0:
443,120,153090,2,0,B|403:107|403:107|343:119,1,80,2|8,0:0|0:0,0:0:0:0:
288,156,153772,1,2,0:0:0:0:
289,67,154113,1,8,0:0:0:0:
211,108,154454,6,0,P|195:149|232:224,1,120,6|2,0:0|0:0,0:0:0:0:
346,260,155477,1,8,0:0:0:0:
267,299,155818,2,0,P|208:311|168:290,1,80,2|8,0:0|0:0,0:0:0:0:
138,233,156500,1,2,0:0:0:0:
100,312,156840,1,8,0:0:0:0:
51,238,157181,6,0,B|39:199|39:199|50:161,1,80,6|2,0:0|0:0,0:0:0:0:
100,88,157863,2,0,B|137:76|137:76|176:88,1,80,2|2,0:0|0:0,0:0:0:0:
246,142,158545,1,2,0:0:0:0:
254,54,158886,1,2,0:0:0:0:
327,101,159227,2,0,L|419:103,1,80,2|8,0:0|0:0,0:0:0:0:
424,16,159909,5,6,0:0:0:0:
495,67,160250,2,0,B|519:178|457:121|479:253,1,160,12|8,0:0|0:0,0:0:0:0:
483,308,161272,1,2,0:0:0:0:
402,271,161613,2,0,P|350:272|303:292,1,80,8|2,0:0|0:0,0:0:0:0:
270,351,162295,1,8,0:0:0:0:
232,271,162636,6,0,B|175:273|175:273|139:299|139:299|70:306,1,160,6|2,0:0|0:0,0:0:0:0:
41,227,163659,1,8,0:0:0:0:
90,154,164000,2,0,B|98:113|98:113|86:65,1,80,2|8,0:0|0:0,0:0:0:0:
167,36,164681,2,0,L|252:49,1,80,0|8,0:0|0:0,0:0:0:0:
292,120,165363,6,0,P|332:78|330:20,2,120,6|0|8,0:0|0:0|0:0,0:0:0:0:
254,200,166727,2,0,B|294:209|294:209|331:199,1,80,2|8,0:0|0:0,0:0:0:0:
411,162,167409,2,0,B|420:202|420:202|410:239,1,80,2|8,0:0|0:0,0:0:0:0:
337,288,168090,5,6,0:0:0:0:
414,328,168431,1,2,0:0:0:0:
339,374,168772,2,0,P|290:366|265:335,1,80,2|2,0:0|0:0,0:0:0:0:
256,258,169454,1,2,0:0:0:0:
190,316,169795,1,2,0:0:0:0:
169,230,170136,2,0,L|164:128,1,80,0|2,0:0|0:0,0:0:0:0:
161,61,170818,5,6,0:0:0:0:
309,242,179000,6,0,B|403:224|358:284|457:278,1,160,6|0,0:0|0:0,0:0:0:0:
445,190,180022,1,2,0:0:0:0:
365,152,180363,2,0,P|312:152|254:169,1,80,2|2,0:0|0:0,0:0:0:0:
226,223,181045,1,2,0:0:0:0:
203,137,181386,1,8,0:0:0:0:
139,198,181727,6,0,L|132:301,1,80,6|8,0:0|0:0,0:0:0:0:
203,331,182409,2,0,L|347:322,1,120,2|0,0:0|0:0,0:0:0:0:
399,367,183261,2,0,P|409:316|394:278,1,80,0|0,0:0|0:0,0:0:0:0:
316,188,184113,1,8,0:0:0:0:
368,117,184454,5,2,0:0:0:0:
280,106,184795,2,0,P|235:142|225:192,1,80,12|2,0:0|0:0,0:0:0:0:
246,247,185477,1,8,0:0:0:0:
161,223,185818,2,0,L|63:222,1,80,0|8,0:0|0:0,0:0:0:0:
23,155,186500,1,2,0:0:0:0:
64,77,186840,1,8,0:0:0:0:
143,115,187181,6,0,B|184:121|184:121|233:99,1,80,6|8,0:0|0:0,0:0:0:0:
288,50,187863,2,0,L|386:51,1,80,6|8,0:0|0:0,0:0:0:0:
437,105,188545,2,0,B|452:140|452:140|446:181,1,80,6|8,0:0|0:0,0:0:0:0:
375,233,189227,1,6,0:0:0:0:
446,284,189568,1,8,0:0:0:0:
365,320,189909,6,0,P|319:303|297:275,1,80,6|8,0:0|0:0,0:0:0:0:
293,192,190590,2,0,P|326:156|360:146,1,80,6|8,0:0|0:0,0:0:0:0:
443,141,191272,1,6,0:0:0:0:
420,55,191613,1,8,0:0:0:0:
332,48,191954,2,0,L|220:62,1,80,6|2,0:0|0:0,0:0:0:0:
165,72,192636,6,0,L|161:188,1,80,6|8,0:0|0:0,0:0:0:0:
101,216,193318,2,0,P|153:241|212:223,1,120,2|0,0:0|0:0,0:0:0:0:
256,149,194170,2,0,P|300:145|349:164,1,80
374,283,195022,1,8,0:0:0:0:
417,206,195363,5,2,0:0:0:0:
466,278,195704,2,0,L|461:381,1,80,12|2,0:0|0:0,0:0:0:0:
374,370,196386,1,8,0:0:0:0:
307,312,196727,2,0,P|250:323|208:353,1,80,2|8,0:0|0:0,0:0:0:0:
145,355,197409,1,2,0:0:0:0:
160,268,197750,1,2,0:0:0:0:
208,194,198090,6,0,B|166:181|166:181|119:195,1,80,6|8,0:0|0:0,0:0:0:0:
45,212,198772,2,0,L|48:129,1,80,6|8,0:0|0:0,0:0:0:0:
13,50,199454,2,0,B|55:37|55:37|102:51,1,80,6|8,0:0|0:0,0:0:0:0:
160,100,200136,1,6,0:0:0:0:
169,12,200477,1,8,0:0:0:0:
241,61,200818,6,0,P|249:115|230:155,1,80,6|8,0:0|0:0,0:0:0:0:
169,189,201500,2,0,P|161:243|180:283,1,80,6|8,0:0|0:0,0:0:0:0:
210,343,202181,1,6,0:0:0:0:
255,267,202522,1,2,0:0:0:0:
300,342,202863,2,0,L|407:350,1,80,2|2,0:0|0:0,0:0:0:0:
467,355,203545,6,0,P|480:317|470:249,1,80,6|8,0:0|0:0,0:0:0:0:
392,262,204227,2,0,P|379:224|389:156,1,80,2|8,0:0|0:0,0:0:0:0:
434,115,204909,2,0,P|382:138|311:93,1,120,2|2,0:0|0:0,0:0:0:0:
239,16,205931,1,8,0:0:0:0:
235,103,206272,5,2,0:0:0:0:
158,58,206613,2,0,L|51:68,1,80,12|2,0:0|0:0,0:0:0:0:
34,142,207295,1,8,0:0:0:0:
105,193,207636,2,0,P|112:243|92:279,1,80,2|8,0:0|0:0,0:0:0:0:
45,337,208318,1,2,0:0:0:0:
131,352,208659,1,2,0:0:0:0:
184,282,209000,6,0,B|226:272|226:272|265:282,1,80,6|8,0:0|0:0,0:0:0:0:
327,339,209681,2,0,B|408:339,1,80,6|8,0:0|0:0,0:0:0:0:
474,282,210363,2,0,B|483:246|483:246|473:204,1,80,6|8,0:0|0:0,0:0:0:0:
411,140,211045,1,6,0:0:0:0:
473,77,211386,1,8,0:0:0:0:
387,56,211727,6,0,P|344:80|328:111,1,80,6|8,0:0|0:0,0:0:0:0:
293,186,212409,2,0,L|202:177,1,80,6|8,0:0|0:0,0:0:0:0:
163,105,213090,1,6,0:0:0:0:
120,182,213431,1,12,0:0:0:0:
167,255,213772,2,0,P|165:309|142:347,1,80,2|2,0:0|0:0,0:0:0:0:
240,348,214454,6,0,L|346:358,1,80,6|8,0:0|0:0,0:0:0:0:
376,288,215136,2,0,L|482:298,1,80,2|8,0:0|0:0,0:0:0:0:
468,208,215818,2,0,L|460:55,1,120,2|0,0:0|0:0,0:0:0:0:
337,133,216840,1,8,0:0:0:0:
284,62,217181,5,2,0:0:0:0:
248,142,217522,2,0,L|242:244,1,80,12|2,0:0|0:0,0:0:0:0:
243,310,218204,1,8,0:0:0:0:
162,344,218545,2,0,P|94:344|61:320,1,80,2|8,0:0|0:0,0:0:0:0:
44,260,219227,1,2,0:0:0:0:
132,260,219568,1,8,0:0:0:0:
88,183,219909,6,0,B|81:143|81:143|97:88,1,80,6|8,0:0|0:0,0:0:0:0:
169,147,220590,2,0,L|276:147,1,80,6|8,0:0|0:0,0:0:0:0:
326,104,221272,2,0,B|337:141|337:141|330:181,1,80,6|8,0:0|0:0,0:0:0:0:
259,234,221954,1,6,0:0:0:0:
337,273,222295,1,8,0:0:0:0:
263,321,222636,6,0,P|209:310|183:276,1,80,6|8,0:0|0:0,0:0:0:0:
172,207,223318,2,0,L|75:219,1,80,6|8,0:0|0:0,0:0:0:0:
4,224,224000,1,6,0:0:0:0:
37,142,224340,1,8,0:0:0:0:
123,126,224681,2,0,L|202:116,1,80,8|2,0:0|0:0,0:0:0:0:
279,73,225363,6,0,B|304:112|281:160|281:160|428:132|345:232|494:215,1,320,6|0,0:0|2:0,0:0:0:0:
209,323,227920,5,6,0:0:0:0:
77,319,228431,2,0,P|58:263|81:195,1,120,12|2,0:0|0:0,0:0:0:0:
73,117,229284,2,0,B|145:111|115:163|213:152,1,120,2|8,0:0|0:0,0:0:0:0:
192,65,230136,1,2,0:0:0:0:
274,167,230647,6,0,L|283:307,1,120,2|8,0:0|0:0,0:0:0:0:
230,358,231500,1,0,0:0:0:0:
361,355,232011,2,0,P|385:299|359:226,1,120,2|8,0:0|0:0,0:0:0:0:
296,197,232863,1,2,0:0:0:0:
207,295,233375,6,0,B|162:291|162:291|136:304|136:304|90:300,1,120,6|12,0:0|0:0,0:0:0:0:
117,216,234227,1,2,0:0:0:0:
91,86,234738,2,0,P|167:87|200:122,1,120,2|8,0:0|0:0,0:0:0:0:
203,202,235590,1,2,0:0:0:0:
328,159,236102,6,0,L|451:166,1,120,6|8,0:0|0:0,0:0:0:0:
452,260,236954,1,8,0:0:0:0:
340,330,237465,2,0,L|250:335,1,80,8|8,0:0|0:0,0:0:0:0:
133,343,238296,6,0,P|114:279|188:244,1,160,14|0,0:0|2:0,0:0:0:0:
