osu file format v14

[General]
AudioFilename: 04. Routine.mp3
AudioLeadIn: 0
PreviewTime: -1
Countdown: 1
SampleSet: Normal
StackLeniency: 0.7
Mode: 0
LetterboxInBreaks: 1
WidescreenStoryboard: 1

[Editor]
Bookmarks: 141114
DistanceSpacing: 1.5
BeatDivisor: 4
GridSize: 4
TimelineZoom: 1.6

[Metadata]
Title:Routine
TitleUnicode:Routine
Artist:Silent Siren
ArtistUnicode:Silent Siren
Creator:XREAPLEX
Version:UNDONE
Source:none
Tags:none
BeatmapID:797561
BeatmapSetID:362329

[Difficulty]
HPDrainRate:7
CircleSize:4.2
OverallDifficulty:8.5
ApproachRate:9.8
SliderMultiplier:2
SliderTickRate:1

[Events]
//Background and Video events
//Break Periods
//Storyboard Layer 0 (Background)
//Storyboard Layer 1 (Fail)
//Storyboard Layer 2 (Pass)
//Storyboard Layer 3 (Foreground)
//Storyboard Sound Samples

[TimingPoints]
1000,340.909090909091,4,1,0,100,1,0
11228,-133.333333333333,4,1,0,100,0,0
11739,-100,4,1,0,100,0,0
15148,-133.333333333333,4,1,0,100,0,0
15830,-100,4,1,0,100,0,0
33216,-66.6666666666667,4,1,0,100,0,0
33557,-100,4,1,0,100,0,0
54864,-200,4,1,0,100,0,0
55546,-83.3333333333333,4,1,0,100,0,1
77364,-100,4,1,0,100,0,0
123728,-83.3333333333333,4,1,0,100,0,1
145546,-100,4,1,0,100,0,0
148955,-83.3333333333333,4,1,0,100,0,0
159523,-57.1428571428571,4,1,0,100,0,0
159864,-83.3333333333333,4,1,0,100,0,0
170773,-100,4,1,0,100,0,0
177591,-133.333333333333,4,1,0,100,0,0
177932,-100,4,1,0,100,0,0
178273,-66.6666666666667,4,1,0,100,0,0
178614,-50,4,1,0,100,0,0
178955,-100,4,1,0,100,0,0
181682,-76.9230769230769,4,1,0,100,0,1
225319,-100,4,1,0,100,0,0

[HitObjects]
48,56,660,5,0,0:0:0:0:
48,56,1000,6,0,L|112:144,1,100
176,136,1341,2,0,L|240:36,1,100
300,48,1682,2,0,L|352:156,1,100
416,136,2023,2,0,L|472:24,1,100
416,252,2364,6,0,L|468:348,1,100
296,344,2705,2,0,L|352:248,1,100
168,256,3046,2,0,L|240:368,1,100
48,340,3387,2,0,L|104:240,1,100
120,44,3728,6,0,L|172:152,1,100
288,304,4069,2,0,L|232:184,1,100
280,44,4410,2,0,L|332:148,1,100
456,304,4750,2,0,L|392:196|392:196,1,100
444,40,5091,6,0,L|396:136,1,100
276,320,5432,2,0,L|328:212,1,100
264,40,5773,2,0,L|208:160,1,100
84,312,6114,2,0,L|148:196,1,100
84,116,6455,6,0,P|148:56|196:56,1,100
360,52,6796,2,0,B|404:52|440:120,1,100
432,276,7137,2,0,P|384:332|316:332,1,100
172,336,7478,2,0,P|100:288|100:244,1,100
160,184,7819,5,0,0:0:0:0:
264,108,7989,1,0,0:0:0:0:
248,240,8160,1,0,0:0:0:0:
364,288,8330,1,0,0:0:0:0:
412,168,8500,1,0,0:0:0:0:
300,104,8671,1,0,0:0:0:0:
240,220,8841,1,0,0:0:0:0:
132,296,9012,1,0,0:0:0:0:
96,176,9182,5,0,0:0:0:0:
100,176,9353,1,0,0:0:0:0:
252,304,9523,1,0,0:0:0:0:
252,304,9694,1,0,0:0:0:0:
412,176,9864,1,0,0:0:0:0:
412,176,10035,1,0,0:0:0:0:
248,56,10205,1,0,0:0:0:0:
248,56,10375,1,0,0:0:0:0:
248,200,10546,6,0,L|248:260|248:260,6,33.3333333333333
120,200,11228,6,0,L|176:296,1,75.0000028610231
256,332,11569,1,0,0:0:0:0:
256,140,11739,6,0,L|256:248|256:248,2,100
368,80,12250,1,0,0:0:0:0:
140,196,12421,2,0,P|168:264|208:292,1,100
312,280,12762,1,0,0:0:0:0:
376,172,12932,1,0,0:0:0:0:
212,48,13103,6,0,B|268:48|268:48|304:108,1,100
256,208,13444,1,0,0:0:0:0:
116,72,13614,1,0,0:0:0:0:
252,208,13785,1,0,0:0:0:0:
116,72,13955,1,0,0:0:0:0:
256,208,14125,1,0,0:0:0:0:
164,300,14296,1,0,0:0:0:0:
360,248,14466,6,0,P|312:312|260:312,1,100
192,236,14807,1,0,0:0:0:0:
124,124,14978,1,0,0:0:0:0:
248,76,15148,2,0,L|296:160|296:160,2,75.0000028610231
128,132,15660,1,0,0:0:0:0:
128,260,15830,2,0,P|160:308|208:332,1,100
292,332,16171,5,0,0:0:0:0:
340,216,16341,1,0,0:0:0:0:
296,332,16512,1,0,0:0:0:0:
368,148,16682,1,0,0:0:0:0:
300,332,16853,1,0,0:0:0:0:
392,80,17023,1,0,0:0:0:0:
292,89,17194,6,0,P|245:107|208:140,1,100
120,236,17535,1,0,0:0:0:0:
304,184,17705,1,0,0:0:0:0:
216,88,17875,2,0,P|160:72|144:120,1,100
144,200,18216,5,0,0:0:0:0:
240,288,18387,1,0,0:0:0:0:
144,200,18557,2,0,P|112:164|164:100,1,100
200,48,18898,5,0,0:0:0:0:
304,168,19069,1,0,0:0:0:0:
176,264,19239,1,0,0:0:0:0:
248,100,19410,5,0,0:0:0:0:
344,224,19580,1,0,0:0:0:0:
208,324,19750,1,0,0:0:0:0:
72,136,19921,6,0,L|136:224,1,100
220,308,20262,1,0,0:0:0:0:
340,248,20432,1,0,0:0:0:0:
152,208,20603,1,0,0:0:0:0:
152,208,20773,1,0,0:0:0:0:
392,136,20944,1,0,0:0:0:0:
240,68,21114,1,0,0:0:0:0:
192,292,21285,1,0,0:0:0:0:
308,252,21625,5,0,0:0:0:0:
280,188,21966,5,0,0:0:0:0:
368,152,22137,1,0,0:0:0:0:
84,160,22648,6,0,P|152:88|256:80,1,200
352,136,23160,1,0,0:0:0:0:
428,224,23330,2,0,P|372:296|256:312,1,200
196,240,23841,1,0,0:0:0:0:
144,144,24012,2,0,B|108:172|108:172|104:232,2,100
240,108,24523,1,0,0:0:0:0:
436,76,24694,2,0,P|416:164|388:184,1,100
168,256,25035,5,0,0:0:0:0:
136,120,25205,2,0,P|200:88|240:88,1,100
344,140,25546,1,0,0:0:0:0:
304,272,25716,1,0,0:0:0:0:
172,248,25887,1,0,0:0:0:0:
108,136,26057,5,0,0:0:0:0:
256,64,26228,1,0,0:0:0:0:
376,176,26398,1,0,0:0:0:0:
308,288,26569,1,0,0:0:0:0:
184,224,26739,6,0,B|152:184|152:184|180:132,1,100
404,280,27080,2,0,L|280:320,1,100
224,248,27421,5,0,0:0:0:0:
312,152,27591,1,0,0:0:0:0:
224,248,27762,1,0,0:0:0:0:
316,152,27932,1,0,0:0:0:0:
176,64,28103,1,0,0:0:0:0:
92,240,28273,6,0,B|160:268|160:268|212:248,1,100
312,232,28614,1,0,0:0:0:0:
356,120,28785,2,0,P|296:112|252:144,1,100
104,260,29125,2,0,P|128:196|160:176,1,100
376,236,29466,2,0,P|324:280|268:296,1,100
180,240,29807,1,0,0:0:0:0:
284,168,29978,1,0,0:0:0:0:
100,116,30148,6,0,B|128:72|128:72|188:60,1,100
368,272,30489,2,0,B|336:320|336:320|276:316,1,100
192,244,30830,1,0,0:0:0:0:
316,144,31000,1,0,0:0:0:0:
192,240,31171,2,0,L|124:156,1,100
376,96,31512,2,0,L|444:188,1,100
336,264,31853,1,0,0:0:0:0:
336,264,32023,1,0,0:0:0:0:
228,312,32194,6,0,P|176:256|204:220,1,100
264,136,32535,6,0,P|252:200|296:244,1,100
352,160,32875,6,0,P|368:88|416:76,1,100
432,152,33216,6,0,P|448:240|384:288,1,150.000005722046
284,256,33557,1,0,0:0:0:0:
320,128,33728,1,0,0:0:0:0:
216,268,33898,5,0,0:0:0:0:
240,112,34069,1,0,0:0:0:0:
156,244,34239,5,0,0:0:0:0:
132,88,34410,1,0,0:0:0:0:
84,216,34580,5,0,0:0:0:0:
240,136,34750,1,0,0:0:0:0:
148,256,34921,5,0,0:0:0:0:
184,88,35091,1,0,0:0:0:0:
152,260,35262,2,0,L|260:288,1,100
372,88,35603,2,0,L|408:204,1,100
256,320,35944,5,0,0:0:0:0:
348,232,36114,1,0,0:0:0:0:
380,108,36285,1,0,0:0:0:0:
288,196,36455,1,0,0:0:0:0:
184,264,36625,1,0,0:0:0:0:
60,280,36796,1,0,0:0:0:0:
120,128,36966,6,0,L|180:208,1,100
248,328,37307,2,0,L|312:212,1,100
380,140,37648,1,0,0:0:0:0:
296,36,37819,1,0,0:0:0:0:
184,100,37989,2,0,L|268:192,1,100
196,252,38330,5,0,0:0:0:0:
308,108,38500,1,0,0:0:0:0:
196,252,38671,1,0,0:0:0:0:
308,108,38841,1,0,0:0:0:0:
140,200,39012,1,0,0:0:0:0:
396,140,39182,6,0,B|380:216|380:216|332:244,1,100
256,308,39523,1,0,0:0:0:0:
80,216,39694,2,0,P|120:136|160:120,1,100
216,184,40035,1,0,0:0:0:0:
392,104,40205,1,0,0:0:0:0:
216,184,40375,6,0,L|280:288,2,100
216,184,40887,1,0,0:0:0:0:
408,64,41057,5,0,0:0:0:0:
384,216,41228,1,0,0:0:0:0:
264,312,41398,1,0,0:0:0:0:
360,64,41569,1,0,0:0:0:0:
316,200,41739,6,0,P|272:272|220:284,1,100
160,208,42080,1,0,0:0:0:0:
128,88,42250,1,0,0:0:0:0:
368,144,42421,6,0,P|352:228|312:248,1,100
228,208,42762,1,0,0:0:0:0:
184,96,42932,1,0,0:0:0:0:
400,80,43103,6,0,P|424:144|416:192,1,100
304,212,43444,1,0,0:0:0:0:
236,108,43614,1,0,0:0:0:0:
360,80,43785,5,0,0:0:0:0:
384,108,43870,1,0,0:0:0:0:
404,140,43955,1,0,0:0:0:0:
408,176,44040,1,0,0:0:0:0:
396,216,44125,1,0,0:0:0:0:
368,240,44211,1,0,0:0:0:0:
332,260,44296,2,0,L|264:292|264:292,3,50
232,300,44637,5,0,0:0:0:0:
200,104,44807,1,0,0:0:0:0:
200,104,44978,1,0,0:0:0:0:
184,264,45148,5,0,0:0:0:0:
288,64,45319,1,0,0:0:0:0:
288,64,45489,1,0,0:0:0:0:
260,232,45660,5,0,0:0:0:0:
376,36,45830,1,0,0:0:0:0:
432,156,46000,5,0,0:0:0:0:
136,276,46341,1,0,0:0:0:0:
400,308,46682,1,0,0:0:0:0:
104,64,47023,1,0,0:0:0:0:
200,84,47364,5,0,0:0:0:0:
148,240,47535,1,0,0:0:0:0:
148,240,47705,1,0,0:0:0:0:
244,76,47875,5,0,0:0:0:0:
216,300,48046,1,0,0:0:0:0:
216,300,48216,1,0,0:0:0:0:
288,68,48387,5,0,0:0:0:0:
324,324,48557,1,0,0:0:0:0:
440,256,48728,5,0,0:0:0:0:
108,140,49069,1,0,0:0:0:0:
160,260,49410,1,0,0:0:0:0:
280,216,49580,1,0,0:0:0:0:
220,100,49750,1,0,0:0:0:0:
120,72,50091,5,0,0:0:0:0:
120,72,50262,1,0,0:0:0:0:
120,304,50432,2,0,L|120:192,1,100
232,72,50773,5,0,0:0:0:0:
232,72,50944,1,0,0:0:0:0:
280,288,51114,2,0,L|256:156,1,100
352,88,51455,5,0,0:0:0:0:
172,284,51796,1,0,0:0:0:0:
88,68,52137,1,0,0:0:0:0:
456,316,52478,1,0,0:0:0:0:
316,116,52819,5,0,0:0:0:0:
244,296,52989,1,0,0:0:0:0:
368,168,53160,1,0,0:0:0:0:
120,212,53330,1,0,0:0:0:0:
176,60,53500,5,0,0:0:0:0:
368,312,53671,1,0,0:0:0:0:
172,316,53841,1,0,0:0:0:0:
348,36,54012,1,0,0:0:0:0:
272,100,54182,5,0,0:0:0:0:
264,128,54267,1,0,0:0:0:0:
256,156,54353,1,0,0:0:0:0:
248,184,54438,1,0,0:0:0:0:
240,212,54523,2,0,L|200:248,1,50
324,144,54694,2,0,L|376:188,1,50
208,56,54864,6,0,L|156:104,2,50
128,208,55375,1,0,0:0:0:0:
128,332,55546,6,0,L|260:272,1,119.999996337891
388,56,55887,2,0,L|244:112,1,119.999996337891
128,332,56228,2,0,L|248:276,1,119.999996337891
388,56,56569,6,0,L|308:88,1,59.9999981689454
264,108,56739,1,0,0:0:0:0:
428,128,56910,6,0,L|352:160,1,59.9999981689454
308,184,57080,1,0,0:0:0:0:
304,188,57250,1,0,0:0:0:0:
380,308,57421,1,0,0:0:0:0:
380,308,57591,1,0,0:0:0:0:
248,316,57762,1,0,0:0:0:0:
160,216,57932,1,0,0:0:0:0:
160,216,58103,1,0,0:0:0:0:
372,68,58273,6,0,P|444:136|456:196,1,119.999996337891
176,112,58614,2,0,P|244:60|316:68,1,119.999996337891
192,300,58955,2,0,P|140:224|168:164,1,119.999996337891
380,228,59296,2,0,P|308:296|240:296,1,119.999996337891
376,112,59637,5,0,0:0:0:0:
168,200,59807,1,0,0:0:0:0:
380,112,59978,1,0,0:0:0:0:
168,200,60148,1,0,0:0:0:0:
252,60,60319,1,0,0:0:0:0:
252,60,60404,1,0,0:0:0:0:
252,60,60489,1,0,0:0:0:0:
204,288,60660,2,0,B|248:328|248:328|320:264,1,119.999996337891
248,224,61000,5,0,0:0:0:0:
120,120,61171,1,0,0:0:0:0:
108,220,61341,1,0,0:0:0:0:
228,96,61512,1,0,0:0:0:0:
312,160,61682,5,0,0:0:0:0:
208,288,61853,1,0,0:0:0:0:
316,260,62023,1,0,0:0:0:0:
184,152,62194,1,0,0:0:0:0:
272,92,62364,5,0,0:0:0:0:
376,212,62535,1,0,0:0:0:0:
208,168,62705,5,0,0:0:0:0:
360,120,62875,1,0,0:0:0:0:
216,264,63046,5,0,0:0:0:0:
292,112,63216,1,0,0:0:0:0:
312,316,63387,5,0,0:0:0:0:
244,164,63557,1,0,0:0:0:0:
124,280,63728,6,0,B|176:324|252:312,1,119.999996337891
368,96,64069,1,0,0:0:0:0:
172,124,64239,6,0,P|168:200|212:232,1,119.999996337891
320,300,64580,2,0,P|352:240|432:216,1,119.999996337891
396,217,64921,1,0,0:0:0:0:
356,96,65091,5,0,0:0:0:0:
168,160,65262,1,0,0:0:0:0:
312,284,65432,1,0,0:0:0:0:
268,96,65603,1,0,0:0:0:0:
132,220,65773,1,0,0:0:0:0:
140,240,65858,1,0,0:0:0:0:
148,260,65944,1,0,0:0:0:0:
156,280,66029,1,0,0:0:0:0:
164,300,66114,6,0,L|216:328,1,59.9999981689454
80,256,66285,2,0,L|28:304,1,59.9999981689454
80,148,66455,6,0,P|132:80|200:64,1,119.999996337891
424,252,66796,2,0,P|348:328|288:320,1,119.999996337891
80,148,67137,2,0,P|132:80|200:60,1,119.999996337891
428,256,67478,1,0,0:0:0:0:
76,152,67648,6,0,P|106:100|156:68,1,119.999996337891
344,320,67989,2,0,P|268:280|228:336,1,119.999996337891
400,56,68330,2,0,P|400:148|336:152,1,119.999996337891
276,220,68671,1,0,0:0:0:0:
88,64,68841,6,0,L|184:152,1,119.999996337891
292,60,69182,5,0,0:0:0:0:
456,60,69353,1,0,0:0:0:0:
384,208,69523,1,0,0:0:0:0:
384,364,69694,1,0,0:0:0:0:
232,296,69864,1,0,0:0:0:0:
72,292,70035,1,0,0:0:0:0:
172,172,70205,1,0,0:0:0:0:
176,20,70375,1,0,0:0:0:0:
304,64,70546,6,0,B|368:120|368:120|316:180,1,119.999996337891
300,288,70887,2,0,B|224:332|224:332|180:296,1,119.999996337891
152,112,71228,2,0,B|108:188|108:188|136:220,1,119.999996337891
383,117,71569,2,0,B|412:136|412:136|392:220,1,119.999996337891
328,332,71910,5,0,0:0:0:0:
200,192,72080,1,0,0:0:0:0:
372,96,72250,1,0,0:0:0:0:
204,192,72421,1,0,0:0:0:0:
144,312,72591,5,0,0:0:0:0:
300,196,72762,1,0,0:0:0:0:
156,60,72932,1,0,0:0:0:0:
300,200,73103,1,0,0:0:0:0:
400,116,73273,5,0,0:0:0:0:
280,268,73444,1,0,0:0:0:0:
160,120,73614,1,0,0:0:0:0:
160,120,73785,1,0,0:0:0:0:
140,244,73955,5,0,0:0:0:0:
320,144,74125,1,0,0:0:0:0:
400,324,74296,1,0,0:0:0:0:
400,324,74466,1,0,0:0:0:0:
240,308,74637,6,0,P|248:224|288:196,1,119.999996337891
376,116,74978,1,0,0:0:0:0:
376,116,75148,1,0,0:0:0:0:
128,308,75319,6,0,P|184:224|244:208,1,119.999996337891
336,192,75660,1,0,0:0:0:0:
336,192,75830,1,0,0:0:0:0:
252,92,76000,5,0,0:0:0:0:
168,268,76171,1,0,0:0:0:0:
336,160,76341,1,0,0:0:0:0:
144,136,76512,1,0,0:0:0:0:
276,288,76682,1,0,0:0:0:0:
360,192,76853,6,0,L|416:248,1,59.9999981689454
292,116,77023,2,0,L|232:176,1,59.9999981689454
356,44,77194,6,0,L|400:92|400:92,2,59.9999981689454
256,192,77535,12,0,78387,0:0:0:0:
376,108,79069,5,0,0:0:0:0:
328,236,79239,1,0,0:0:0:0:
332,48,79410,5,0,0:0:0:0:
264,200,79580,1,0,0:0:0:0:
120,264,79750,1,0,0:0:0:0:
76,140,79921,6,0,L|188:96,1,100
244,208,80262,1,0,0:0:0:0:
308,320,80432,1,0,0:0:0:0:
424,264,80603,6,0,L|360:160,1,100
248,128,80944,1,0,0:0:0:0:
120,144,81114,1,0,0:0:0:0:
56,244,81285,6,0,L|144:316,1,100
216,212,81625,1,0,0:0:0:0:
220,48,81796,1,0,0:0:0:0:
312,140,81966,1,0,0:0:0:0:
312,300,82137,1,0,0:0:0:0:
408,220,82307,5,0,0:0:0:0:
248,224,82478,1,0,0:0:0:0:
148,136,82648,2,0,L|236:60,1,100
344,112,82989,1,0,0:0:0:0:
408,228,83160,1,0,0:0:0:0:
160,244,83330,6,0,L|248:340,1,100
344,260,83671,1,0,0:0:0:0:
396,144,83841,1,0,0:0:0:0:
136,188,84012,6,0,P|168:108|216:88,2,100
232,248,84523,1,0,0:0:0:0:
304,104,84694,1,0,0:0:0:0:
232,248,84864,1,0,0:0:0:0:
304,104,85035,1,0,0:0:0:0:
184,64,85205,1,0,0:0:0:0:
352,340,85375,1,0,0:0:0:0:
408,216,85546,1,0,0:0:0:0:
256,168,85716,6,0,P|320:104|344:108,1,100
416,84,86057,1,0,0:0:0:0:
236,264,86228,1,0,0:0:0:0:
164,196,86398,6,0,P|204:132|260:120,1,100
316,96,86739,1,0,0:0:0:0:
160,292,86910,1,0,0:0:0:0:
292,292,87080,6,0,L|396:292|400:292,2,100
364,80,87591,2,0,L|364:196|364:196,2,100
236,80,88103,5,0,0:0:0:0:
108,80,88273,1,0,0:0:0:0:
180,324,88444,5,0,0:0:0:0:
180,192,88614,1,0,0:0:0:0:
424,284,88785,5,0,0:0:0:0:
296,284,88955,1,0,0:0:0:0:
384,36,89125,5,0,0:0:0:0:
384,168,89296,1,0,0:0:0:0:
384,300,89466,1,0,0:0:0:0:
384,304,89807,5,0,0:0:0:0:
292,208,90148,1,0,0:0:0:0:
292,208,90319,1,0,0:0:0:0:
180,268,90489,2,0,L|216:312|216:312,2,50
112,200,90830,5,0,0:0:0:0:
196,96,91000,1,0,0:0:0:0:
176,272,91171,5,0,0:0:0:0:
236,148,91341,1,0,0:0:0:0:
248,260,91512,5,0,0:0:0:0:
304,136,91682,1,0,0:0:0:0:
400,60,91853,2,0,L|444:168,1,100
344,196,92194,5,0,0:0:0:0:
196,264,92364,1,0,0:0:0:0:
332,136,92535,5,0,0:0:0:0:
172,180,92705,1,0,0:0:0:0:
320,76,92875,5,0,0:0:0:0:
160,104,93046,1,0,0:0:0:0:
88,184,93216,2,0,L|148:284,1,100
220,220,93557,5,0,0:0:0:0:
240,64,93728,1,0,0:0:0:0:
324,100,93898,1,0,0:0:0:0:
180,172,94069,1,0,0:0:0:0:
208,84,94239,5,0,0:0:0:0:
304,208,94410,1,0,0:0:0:0:
208,200,94580,1,0,0:0:0:0:
332,92,94750,1,0,0:0:0:0:
412,192,94921,6,0,L|328:280,1,100
72,152,95262,2,0,L|168:64,1,100
412,188,95603,2,0,L|328:280,1,100
76,148,95944,2,0,L|168:64,1,100
200,28,96285,5,0,0:0:0:0:
296,152,96455,1,0,0:0:0:0:
224,96,96625,5,0,0:0:0:0:
408,144,96796,1,0,0:0:0:0:
256,160,96966,5,0,0:0:0:0:
476,96,97137,1,0,0:0:0:0:
416,212,97307,2,0,L|364:304,1,100
244,252,97648,5,0,0:0:0:0:
244,252,97819,1,0,0:0:0:0:
160,64,97989,1,0,0:0:0:0:
160,64,98160,1,0,0:0:0:0:
352,112,98330,1,0,0:0:0:0:
352,112,98500,1,0,0:0:0:0:
240,256,98671,6,0,L|112:204,1,100
184,96,99012,1,0,0:0:0:0:
296,28,99182,1,0,0:0:0:0:
144,316,99353,6,0,L|172:184,1,100
184,96,99694,1,0,0:0:0:0:
300,28,99864,1,0,0:0:0:0:
216,328,100035,6,0,L|236:224,1,100
252,112,100375,1,0,0:0:0:0:
368,44,100546,1,0,0:0:0:0:
288,340,100716,6,0,L|312:216,1,100
320,132,101057,1,0,0:0:0:0:
432,72,101228,1,0,0:0:0:0:
392,204,101398,1,0,0:0:0:0:
388,332,101569,1,0,0:0:0:0:
440,268,101739,6,0,P|392:248|328:288,1,100
60,176,102080,2,0,P|96:156|168:196,1,100
472,88,102421,2,0,P|420:68|364:120,1,100
404,216,102762,1,0,0:0:0:0:
164,320,102932,1,0,0:0:0:0:
116,204,103103,6,0,L|64:76,1,100
256,228,103444,2,0,L|297:319,1,100
396,204,103785,2,0,L|340:76,1,100
236,80,104125,1,0,0:0:0:0:
80,288,104296,1,0,0:0:0:0:
240,80,104466,6,0,B|336:136,1,100
192,176,104807,2,0,L|312:204,1,100
172,276,105148,2,0,L|296:272,1,100
168,364,105489,2,0,L|276:344,1,100
352,344,105830,6,0,L|380:248,1,100
244,304,106171,2,0,L|312:196,1,100
136,228,106512,2,0,L|240:152,1,100
76,116,106853,2,0,L|208:80,1,100
292,60,107194,5,0,0:0:0:0:
352,180,107364,1,0,0:0:0:0:
292,56,107535,1,0,0:0:0:0:
288,244,107705,1,0,0:0:0:0:
292,48,107875,1,0,0:0:0:0:
208,296,108046,1,0,0:0:0:0:
376,120,108216,5,0,0:0:0:0:
132,216,108387,1,0,0:0:0:0:
184,96,108557,5,0,0:0:0:0:
228,216,108728,1,0,0:0:0:0:
184,96,108898,1,0,0:0:0:0:
320,244,109069,1,0,0:0:0:0:
184,92,109239,1,0,0:0:0:0:
424,184,109410,1,0,0:0:0:0:
124,180,109580,5,0,0:0:0:0:
368,68,109750,1,0,0:0:0:0:
248,96,109921,5,0,0:0:0:0:
276,296,110091,1,0,0:0:0:0:
420,152,110262,2,0,L|372:208|372:208,2,50
320,72,110603,5,0,0:0:0:0:
232,252,110773,1,0,0:0:0:0:
96,112,110944,1,0,0:0:0:0:
96,112,111114,1,0,0:0:0:0:
96,112,111285,2,0,L|168:204,1,100
84,188,111625,6,0,L|196:108,1,100
248,76,111966,1,0,0:0:0:0:
248,76,112137,6,0,L|288:124,1,50
304,200,112307,2,0,L|360:156,1,50
420,124,112478,2,0,L|376:76,1,50
344,16,112648,2,0,L|292:60,1,50
164,184,112819,5,0,0:0:0:0:
164,184,112989,1,0,0:0:0:0:
392,312,113160,1,0,0:0:0:0:
392,312,113330,1,0,0:0:0:0:
364,56,113500,1,0,0:0:0:0:
364,56,113671,1,0,0:0:0:0:
136,172,113841,1,0,0:0:0:0:
136,172,114012,1,0,0:0:0:0:
200,284,114182,5,0,0:0:0:0:
312,48,114523,1,0,0:0:0:0:
80,240,114864,1,0,0:0:0:0:
432,100,115205,1,0,0:0:0:0:
384,224,115546,5,0,0:0:0:0:
384,224,115716,1,0,0:0:0:0:
144,328,115887,1,0,0:0:0:0:
144,328,116057,1,0,0:0:0:0:
180,72,116228,1,0,0:0:0:0:
180,72,116398,1,0,0:0:0:0:
432,100,116569,1,0,0:0:0:0:
432,100,116739,1,0,0:0:0:0:
364,208,116910,5,0,0:0:0:0:
144,68,117250,1,0,0:0:0:0:
100,184,117591,5,0,0:0:0:0:
256,312,117762,1,0,0:0:0:0:
412,184,117932,1,0,0:0:0:0:
320,96,118273,5,0,0:0:0:0:
232,264,118444,1,0,0:0:0:0:
352,120,118614,5,0,0:0:0:0:
296,312,118785,1,0,0:0:0:0:
412,92,118955,5,0,0:0:0:0:
376,288,119125,1,0,0:0:0:0:
448,188,119296,5,0,0:0:0:0:
264,144,119466,1,0,0:0:0:0:
184,52,119637,5,0,0:0:0:0:
336,268,119978,1,0,0:0:0:0:
392,80,120319,1,0,0:0:0:0:
88,328,120660,1,0,0:0:0:0:
140,204,121000,5,0,0:0:0:0:
352,56,121171,1,0,0:0:0:0:
304,312,121341,1,0,0:0:0:0:
144,108,121512,1,0,0:0:0:0:
400,140,121682,1,0,0:0:0:0:
196,296,121853,1,0,0:0:0:0:
268,44,122023,1,0,0:0:0:0:
412,256,122194,1,0,0:0:0:0:
296,316,122364,6,0,L|244:240,1,50
328,152,122535,2,0,L|368:216,1,50
296,320,122705,2,0,L|264:272,1,50
328,152,122875,2,0,L|376:224,1,50
244,200,123046,6,0,L|200:224,3,50
192,140,123387,2,0,L|164:84|164:84,3,50
292,56,123728,5,0,0:0:0:0:
164,288,123898,1,0,0:0:0:0:
80,104,124069,2,0,L|140:228,1,119.999996337891
164,288,124410,5,0,0:0:0:0:
400,172,124580,1,0,0:0:0:0:
336,284,124750,1,0,0:0:0:0:
196,76,124921,6,0,L|272:192,1,119.999996337891
384,344,125262,2,0,L|308:232,1,119.999996337891
216,256,125603,5,0,0:0:0:0:
328,104,125773,1,0,0:0:0:0:
144,216,125944,1,0,0:0:0:0:
392,156,126114,1,0,0:0:0:0:
280,316,126285,1,0,0:0:0:0:
172,228,126455,6,0,P|212:172|268:160,1,119.999996337891
272,248,126796,2,0,P|324:288|384:284,1,119.999996337891
384,72,127137,2,0,P|412:148|372:192,1,119.999996337891
132,200,127478,2,0,P|176:144|232:136,1,119.999996337891
120,276,127819,5,0,0:0:0:0:
300,200,127989,1,0,0:0:0:0:
120,276,128160,1,0,0:0:0:0:
308,200,128330,1,0,0:0:0:0:
212,112,128500,5,0,0:0:0:0:
172,360,128671,1,0,0:0:0:0:
212,108,128841,1,0,0:0:0:0:
172,364,129012,1,0,0:0:0:0:
296,300,129182,6,0,L|412:244,1,119.999996337891
336,136,129523,1,0,0:0:0:0:
172,248,129694,1,0,0:0:0:0:
216,92,129864,1,0,0:0:0:0:
300,272,130035,1,0,0:0:0:0:
132,164,130205,1,0,0:0:0:0:
388,204,130375,1,0,0:0:0:0:
352,72,130546,6,0,L|232:112,1,119.999996337891
140,192,130887,1,0,0:0:0:0:
268,304,131057,1,0,0:0:0:0:
396,192,131228,1,0,0:0:0:0:
268,334,131398,1,0,0:0:0:0:
140,192,131569,1,0,0:0:0:0:
268,356,131739,1,0,0:0:0:0:
400,192,131910,6,0,L|312:96,1,119.999996337891
200,172,132250,1,0,0:0:0:0:
124,280,132421,1,0,0:0:0:0:
180,344,132591,6,0,L|272:228,1,119.999996337891
348,160,132932,1,0,0:0:0:0:
464,112,133103,1,0,0:0:0:0:
356,280,133273,5,0,0:0:0:0:
216,132,133444,1,0,0:0:0:0:
208,284,133614,5,0,0:0:0:0:
356,152,133785,1,0,0:0:0:0:
272,56,133955,2,0,L|204:104|204:104,3,59.9999981689454
136,148,134296,2,0,B|176:200|176:200,3,59.9999981689454
240,272,134637,5,0,0:0:0:0:
380,128,134807,1,0,0:0:0:0:
240,276,134978,1,0,0:0:0:0:
240,276,135148,1,0,0:0:0:0:
176,116,135319,6,0,P|112:164|104:236,1,119.999996337891
88,304,135660,1,0,0:0:0:0:
348,96,135830,6,0,P|264:120|232:168,1,119.999996337891
160,208,136171,1,0,0:0:0:0:
224,324,136341,1,0,0:0:0:0:
252,160,136512,1,0,0:0:0:0:
328,336,136682,1,0,0:0:0:0:
336,108,136853,1,0,0:0:0:0:
432,344,137023,1,0,0:0:0:0:
432,56,137194,1,0,0:0:0:0:
320,112,137364,6,0,B|368:168|368:168|340:244,1,119.999996337891
92,272,137705,2,0,B|128:324|128:324|188:260,1,119.999996337891
240,60,138046,2,0,B|200:108|200:108|248:180,1,119.999996337891
328,236,138387,5,0,0:0:0:0:
160,208,138557,1,0,0:0:0:0:
312,96,138728,1,0,0:0:0:0:
204,300,138898,1,0,0:0:0:0:
144,52,139069,5,0,0:0:0:0:
344,272,139239,1,0,0:0:0:0:
56,136,139410,1,0,0:0:0:0:
408,172,139580,1,0,0:0:0:0:
72,284,139750,1,0,0:0:0:0:
384,52,139921,1,0,0:0:0:0:
300,100,140091,6,0,L|300:168,1,59.9999981689454
220,100,140262,2,0,L|220:160,1,59.9999981689454
140,100,140432,2,0,L|140:160,1,59.9999981689454
60,100,140603,2,0,L|60:160,1,59.9999981689454
60,312,140773,2,0,L|60:252,1,59.9999981689454
140,312,140944,2,0,L|140:236,1,59.9999981689454
220,312,141114,2,0,L|220:252,1,59.9999981689454
300,312,141285,2,0,L|300:252,1,59.9999981689454
152,56,141455,6,0,L|202:23,1,59.9999981689454
192,112,141625,2,0,L|241:78,1,59.9999981689454
280,208,141796,2,0,L|328:172,1,59.9999981689454
316,268,141966,2,0,L|364:232,1,59.9999981689454
420,91,142137,6,0,L|380:48,1,59.9999981689454
364,132,142307,2,0,L|324:88,1,59.9999981689454
264,204,142478,2,0,L|216:148,1,59.9999981689454
208,244,142648,2,0,L|169:197,1,59.9999981689454
428,200,142819,6,0,L|428:272,2,59.9999981689454
300,200,143160,1,0,0:0:0:0:
172,200,143330,1,0,0:0:0:0:
44,200,143500,2,0,L|44:264,4,59.9999981689454
144,120,144012,5,0,0:0:0:0:
328,256,144182,1,0,0:0:0:0:
368,32,144353,1,0,0:0:0:0:
148,124,144523,1,0,0:0:0:0:
328,256,144694,1,0,0:0:0:0:
208,304,144864,5,0,0:0:0:0:
200,272,144949,1,0,0:0:0:0:
192,240,145035,1,0,0:0:0:0:
184,208,145120,1,0,0:0:0:0:
192,164,145205,1,0,0:0:0:0:
220,124,145290,1,0,0:0:0:0:
260,92,145375,1,0,0:0:0:0:
304,76,145461,1,0,0:0:0:0:
376,92,145546,6,0,L|336:200,1,100
104,156,145887,2,0,L|132:268,1,100
240,324,146228,2,0,L|332:272,2,100
160,228,146739,5,0,0:0:0:0:
264,72,146910,1,0,0:0:0:0:
156,252,147080,1,0,0:0:0:0:
348,48,147250,1,0,0:0:0:0:
152,276,147421,1,0,0:0:0:0:
432,24,147591,1,0,0:0:0:0:
348,336,147932,1,0,0:0:0:0:
112,140,148444,5,0,0:0:0:0:
120,156,148529,1,0,0:0:0:0:
128,172,148614,1,0,0:0:0:0:
136,188,148699,1,0,0:0:0:0:
144,204,148785,1,0,0:0:0:0:
152,220,148870,1,0,0:0:0:0:
160,236,148955,6,0,L|212:284,1,59.9999981689454
352,236,149125,2,0,L|308:284,1,59.9999981689454
172,136,149296,2,0,L|224:192,1,59.9999981689454
336,136,149466,2,0,L|284:192,1,59.9999981689454
180,32,149637,6,0,L|236:88,1,59.9999981689454
289,70,149807,2,0,L|332:28,1,59.9999981689454
400,32,149978,2,0,L|448:88,1,59.9999981689454
440,160,150148,6,0,B|424:232|424:232|256:296,1,239.999992675781
144,256,150660,1,0,0:0:0:0:
96,100,150830,1,0,0:0:0:0:
256,128,151000,1,0,0:0:0:0:
392,36,151171,1,0,0:0:0:0:
440,192,151341,1,0,0:0:0:0:
352,328,151512,1,0,0:0:0:0:
272,268,151682,6,0,P|308:236|344:240,1,59.9999981689454
396,208,151853,1,0,0:0:0:0:
404,116,152023,6,0,P|352:128|332:168,1,59.9999981689454
276,168,152194,1,0,0:0:0:0:
188,160,152364,6,0,P|212:116|240:108,1,59.9999981689454
292,72,152535,1,0,0:0:0:0:
184,32,152705,6,0,P|144:64|136:116,1,59.9999981689454
112,152,152875,1,0,0:0:0:0:
120,248,153046,6,0,P|144:272|196:264,2,59.9999981689454
232,160,153302,6,0,P|204:180|196:224,2,59.9999981689454
320,276,153557,6,0,P|296:236|264:224,3,59.9999981689454
408,152,153898,6,0,P|376:188|388:236,1,59.9999981689454
325,116,154069,6,0,P|311:90|288:72,3,59.9999981689454
192,72,154410,5,0,0:0:0:0:
96,164,154580,1,0,0:0:0:0:
112,292,154750,1,0,0:0:0:0:
200,332,154921,5,0,0:0:0:0:
180,172,155091,1,0,0:0:0:0:
304,64,155262,1,0,0:0:0:0:
180,44,155432,5,0,0:0:0:0:
168,236,155603,1,0,0:0:0:0:
348,328,155773,1,0,0:0:0:0:
452,208,155944,5,0,0:0:0:0:
280,64,156114,1,0,0:0:0:0:
72,140,156285,1,0,0:0:0:0:
88,244,156455,6,0,L|168:204,3,59.9999981689454
136,84,156796,2,0,B|112:160|112:160,3,59.9999981689454
204,128,157137,6,0,L|280:88|280:88,2,79.9999975585938
354,226,157478,2,0,L|296:172,2,79.9999975585938
296,288,157819,5,0,0:0:0:0:
260,304,157932,1,0,0:0:0:0:
224,320,158046,1,0,0:0:0:0:
144,296,158160,5,0,0:0:0:0:
120,264,158273,1,0,0:0:0:0:
96,232,158387,1,0,0:0:0:0:
96,144,158500,6,0,L|172:196,3,59.9999981689454
200,92,158841,2,0,L|236:168,1,59.9999981689454
316,88,159012,2,0,L|308:168,1,59.9999981689454
420,116,159182,2,0,L|376:200,1,59.9999981689454
492,176,159353,2,0,L|440:248,1,59.9999981689454
384,292,159523,6,0,P|236:320|172:272,1,175.00000166893
96,216,159864,6,0,P|160:144|204:136,1,119.999996337891
308,96,160205,1,0,0:0:0:0:
424,232,160375,1,0,0:0:0:0:
268,320,160546,1,0,0:0:0:0:
120,216,160716,1,0,0:0:0:0:
208,60,160887,1,0,0:0:0:0:
364,152,161057,6,0,B|376:88|376:88|312:64,1,119.999996337891
128,216,161398,2,0,B|116:156|116:156|176:128,1,119.999996337891
208,292,161739,1,0,0:0:0:0:
388,252,161910,1,0,0:0:0:0:
339,158,162080,2,0,P|390:131|440:160,2,119.999996337891
264,80,162591,5,0,0:0:0:0:
272,88,162762,1,0,0:0:0:0:
272,88,162932,1,0,0:0:0:0:
220,208,163103,1,0,0:0:0:0:
276,88,163273,1,0,0:0:0:0:
88,264,163444,1,0,0:0:0:0:
96,136,163614,6,0,B|140:76|140:76|212:60,1,119.999996337891
372,80,163955,2,0,B|424:88|424:88|456:176,1,119.999996337891
356,252,164296,1,0,0:0:0:0:
172,128,164466,1,0,0:0:0:0:
132,344,164637,1,0,0:0:0:0:
312,196,164807,5,0,0:0:0:0:
128,64,164978,1,0,0:0:0:0:
60,280,165148,1,0,0:0:0:0:
176,320,165319,6,0,L|316:268,1,119.999996337891
92,52,165660,2,0,L|156:180,1,119.999996337891
216,48,166000,1,0,0:0:0:0:
216,48,166171,1,0,0:0:0:0:
268,228,166341,5,0,0:0:0:0:
120,112,166512,1,0,0:0:0:0:
120,112,166682,1,0,0:0:0:0:
344,152,166853,5,0,0:0:0:0:
136,244,167023,1,0,0:0:0:0:
136,244,167194,1,0,0:0:0:0:
320,76,167364,5,0,0:0:0:0:
188,300,167535,1,0,0:0:0:0:
372,360,167705,5,0,0:0:0:0:
124,48,167875,1,0,0:0:0:0:
148,132,168046,5,0,0:0:0:0:
164,196,168159,1,0,0:0:0:0:
148,260,168273,1,0,0:0:0:0:
72,260,168387,5,0,0:0:0:0:
56,196,168500,1,0,0:0:0:0:
72,132,168614,1,0,0:0:0:0:
148,132,168728,5,0,0:0:0:0:
164,196,168841,1,0,0:0:0:0:
148,260,168955,1,0,0:0:0:0:
72,260,169069,5,0,0:0:0:0:
56,196,169182,1,0,0:0:0:0:
72,132,169296,1,0,0:0:0:0:
112,60,169410,6,0,L|112:20|112:20,4,39.9999987792969
88,188,169750,6,0,L|148:188,2,59.9999981689454
440,188,170091,1,0,0:0:0:0:
440,188,170177,1,0,0:0:0:0:
440,188,170262,1,0,0:0:0:0:
440,188,170347,1,0,0:0:0:0:
440,188,170432,1,0,0:0:0:0:
88,188,170603,1,0,0:0:0:0:
440,188,170773,5,0,0:0:0:0:
92,184,171114,1,0,0:0:0:0:
360,48,171455,1,0,0:0:0:0:
352,176,171625,1,0,0:0:0:0:
276,288,171796,1,0,0:0:0:0:
152,328,171966,1,0,0:0:0:0:
108,136,172137,5,0,0:0:0:0:
224,76,172307,1,0,0:0:0:0:
352,60,172478,1,0,0:0:0:0:
168,328,172819,1,0,0:0:0:0:
104,76,173160,1,0,0:0:0:0:
80,204,173500,5,0,0:0:0:0:
180,288,173671,1,0,0:0:0:0:
312,300,173841,1,0,0:0:0:0:
444,304,174012,1,0,0:0:0:0:
404,104,174182,5,0,0:0:0:0:
280,136,174353,1,0,0:0:0:0:
164,192,174523,1,0,0:0:0:0:
80,296,174694,1,0,0:0:0:0:
200,344,174864,6,0,L|256:244,1,100
112,72,175205,2,0,L|204:120,1,100
312,64,175546,1,0,0:0:0:0:
216,208,175716,1,0,0:0:0:0:
340,264,175887,5,0,0:0:0:0:
200,36,176057,1,0,0:0:0:0:
84,100,176228,6,0,L|160:212,1,100
244,340,176569,1,0,0:0:0:0:
244,340,176739,1,0,0:0:0:0:
216,36,176910,6,0,L|276:128,1,100
412,328,177250,1,0,0:0:0:0:
416,332,177421,1,0,0:0:0:0:
404,260,177591,6,0,P|360:280|348:304,1,75.0000028610231
380,192,177932,6,0,P|320:216|296:252,1,100
364,120,178273,6,0,P|280:152|236:224,1,150.000005722046
336,48,178614,6,0,P|232:96|176:172,1,200
176,284,178955,5,0,0:0:0:0:
436,168,179125,1,0,0:0:0:0:
184,36,179296,1,0,0:0:0:0:
268,308,179466,1,0,0:0:0:0:
432,80,179637,1,0,0:0:0:0:
156,144,179807,1,0,0:0:0:0:
408,272,179978,1,0,0:0:0:0:
268,24,180148,1,0,0:0:0:0:
148,180,180319,6,0,L|104:228,1,50
212,104,180489,2,0,L|268:160,1,50
140,44,180660,6,0,L|72:112,3,50
48,136,181000,5,0,0:0:0:0:
108,244,181171,1,0,0:0:0:0:
252,324,181341,1,0,0:0:0:0:
440,272,181512,1,0,0:0:0:0:
436,72,181682,6,0,B|368:72|368:72|368:160,1,129.999994049073
152,268,182023,2,0,B|152:336|152:336|64:336,1,129.999994049073
148,64,182364,2,0,B|76:64|76:64|76:160,1,129.999994049073
424,332,182705,2,0,B|424:260|424:260|328:260,1,129.999994049073
148,268,183046,5,0,0:0:0:0:
152,64,183216,1,0,0:0:0:0:
344,64,183387,2,0,B|416:64|416:64|416:136,2,129.999994049073
212,64,183898,1,0,0:0:0:0:
80,64,184069,2,0,B|80:132|80:132|160:132,1,129.999994049073
256,68,184410,5,0,0:0:0:0:
152,68,184580,2,0,B|84:68|84:68|84:148,2,129.999994049073
256,68,185091,5,0,0:0:0:0:
388,68,185262,1,0,0:0:0:0:
104,144,185432,5,0,0:0:0:0:
352,144,185603,1,0,0:0:0:0:
232,220,185773,5,0,0:0:0:0:
424,220,185944,1,0,0:0:0:0:
54,296,186114,5,0,0:0:0:0:
386,296,186285,1,0,0:0:0:0:
282,340,186455,5,0,0:0:0:0:
282,144,186625,1,0,0:0:0:0:
282,44,186796,2,0,L|150:44,1,129.999994049073
60,48,187137,5,0,0:0:0:0:
60,240,187307,1,0,0:0:0:0:
60,144,187478,5,0,0:0:0:0:
192,348,187648,1,0,0:0:0:0:
126,294,187819,5,0,0:0:0:0:
376,348,187989,1,0,0:0:0:0:
284,348,188160,5,0,0:0:0:0:
452,172,188330,1,0,0:0:0:0:
452,56,188500,5,0,0:0:0:0:
452,288,188671,1,0,0:0:0:0:
452,172,188841,5,0,0:0:0:0:
284,348,189012,1,0,0:0:0:0:
376,348,189182,5,0,0:0:0:0:
126,294,189353,1,0,0:0:0:0:
192,348,189523,5,0,0:0:0:0:
60,144,189694,1,0,0:0:0:0:
60,48,189864,6,0,L|192:48,1,129.999994049073
388,222,190205,2,0,L|388:92,1,129.999994049073
244,192,190546,2,0,L|92:192,1,129.999994049073
460,184,190887,2,0,L|460:314,1,129.999994049073
340,284,191228,5,0,0:0:0:0:
132,112,191398,1,0,0:0:0:0:
376,40,191569,1,0,0:0:0:0:
140,348,191739,1,0,0:0:0:0:
120,252,191910,6,0,P|104:208|136:172,1,64.9999970245363
152,112,192080,2,0,P|184:80|224:72,1,64.9999970245363
224,160,192250,2,0,P|216:208|248:240,1,64.9999970245363
248,304,192421,2,0,P|268:336|308:348,1,64.9999970245363
432,352,192591,6,0,L|432:196,1,129.999994049073
88,52,192932,2,0,L|88:204,1,129.999994049073
52,312,193273,2,0,L|208:312,1,129.999994049073
444,56,193614,2,0,L|312:56,1,129.999994049073
248,308,193955,5,0,0:0:0:0:
308,56,194125,1,0,0:0:0:0:
180,308,194296,2,0,L|44:308,2,129.999994049073
80,64,194807,2,0,L|80:216,1,129.999994049073
80,296,195148,1,0,0:0:0:0:
328,296,195319,6,0,L|252:296,1,64.9999970245363
192,296,195489,1,0,0:0:0:0:
196,36,195660,1,0,0:0:0:0:
320,36,195830,1,0,0:0:0:0:
324,264,196000,6,0,L|324:180,1,64.9999970245363
324,124,196171,1,0,0:0:0:0:
68,124,196341,1,0,0:0:0:0:
68,248,196512,1,0,0:0:0:0:
198,334,196682,6,0,L|234:245,1,64.9999970245363
289,109,196853,2,0,L|313:49,1,64.9999970245363
316,333,197023,6,0,L|286:263,1,64.9999970245363
220,109,197194,2,0,L|195:50,1,64.9999970245363
397,252,197364,6,0,L|324:220,1,64.9999970245363
173,156,197535,2,0,L|114:131,1,64.9999970245363
398,134,197705,6,0,L|328:162,1,64.9999970245363
173,225,197875,2,0,L|114:252,1,64.9999970245363
44,288,198046,5,0,0:0:0:0:
88,128,198216,1,0,0:0:0:0:
160,316,198387,1,0,0:0:0:0:
184,88,198557,1,0,0:0:0:0:
264,328,198728,1,0,0:0:0:0:
304,44,198898,1,0,0:0:0:0:
372,348,199069,1,0,0:0:0:0:
440,8,199239,1,0,0:0:0:0:
496,128,199410,5,0,0:0:0:0:
244,324,199580,1,0,0:0:0:0:
320,16,199750,1,0,0:0:0:0:
392,324,199921,1,0,0:0:0:0:
92,200,200091,1,0,0:0:0:0:
364,32,200262,1,0,0:0:0:0:
232,324,200432,1,0,0:0:0:0:
112,28,200603,1,0,0:0:0:0:
208,180,200773,6,0,B|260:136|260:136|320:200,2,129.999994049073
256,48,201285,5,0,0:0:0:0:
300,288,201455,2,0,B|256:336|256:336|196:272,3,129.999994049073
112,304,202137,5,0,0:0:0:0:
256,48,202307,1,0,0:0:0:0:
392,304,202478,1,0,0:0:0:0:
256,48,202648,1,0,0:0:0:0:
382,44,202819,5,0,0:0:0:0:
256,308,202989,1,0,0:0:0:0:
112,44,203160,1,0,0:0:0:0:
256,304,203330,1,0,0:0:0:0:
448,128,203500,6,0,L|448:272,1,129.999994049073
64,258,203841,2,0,L|64:128,1,129.999994049073
448,128,204182,2,0,L|448:272,1,129.999994049073
64,258,204523,2,0,L|64:128,1,129.999994049073
448,128,204864,5,0,0:0:0:0:
256,304,205035,1,0,0:0:0:0:
448,196,205205,5,0,0:0:0:0:
188,208,205375,1,0,0:0:0:0:
448,264,205546,5,0,0:0:0:0:
120,112,205716,1,0,0:0:0:0:
448,336,205887,5,0,0:0:0:0:
52,16,206057,1,0,0:0:0:0:
48,304,206228,6,0,B|92:352|92:352|144:296,1,129.999994049073
464,80,206569,2,0,B|420:32|420:32|368:88,1,129.999994049073
380,192,206910,1,0,0:0:0:0:
132,192,207080,1,0,0:0:0:0:
384,188,207250,1,0,0:0:0:0:
136,192,207421,1,0,0:0:0:0:
136,40,207591,6,0,L|272:40,1,129.999994049073
376,344,207932,2,0,L|240:344,1,129.999994049073
148,184,208273,2,0,L|148:280,1,64.9999970245363
348,184,208444,2,0,L|348:260,1,64.9999970245363
248,40,208614,2,0,L|248:196,1,129.999994049073
248,344,208955,5,0,0:0:0:0:
120,84,209125,1,0,0:0:0:0:
404,136,209296,1,0,0:0:0:0:
168,308,209466,1,0,0:0:0:0:
228,28,209637,1,0,0:0:0:0:
380,284,209807,1,0,0:0:0:0:
104,208,209978,1,0,0:0:0:0:
340,32,210148,1,0,0:0:0:0:
152,76,210319,5,0,0:0:0:0:
364,332,210489,1,0,0:0:0:0:
344,16,210660,1,0,0:0:0:0:
88,196,210830,1,0,0:0:0:0:
368,352,211000,1,0,0:0:0:0:
292,40,211171,1,0,0:0:0:0:
84,284,211341,1,0,0:0:0:0:
392,188,211512,1,0,0:0:0:0:
120,188,211682,6,0,L|260:188,1,129.999994049073
392,192,212023,1,0,0:0:0:0:
392,192,212194,1,0,0:0:0:0:
52,188,212364,2,0,L|200:188,1,129.999994049073
464,192,212705,1,0,0:0:0:0:
464,192,212875,1,0,0:0:0:0:
352,68,213046,6,0,L|292:108,1,64.9999970245363
220,152,213216,1,0,0:0:0:0:
160,316,213387,6,0,L|220:276,1,64.9999970245363
292,232,213557,1,0,0:0:0:0:
428,240,213728,5,0,0:0:0:0:
84,108,213898,1,0,0:0:0:0:
428,112,214069,1,0,0:0:0:0:
84,242,214239,1,0,0:0:0:0:
144,364,214410,6,0,L|268:284,1,129.999994049073
368,20,214750,2,0,L|244:100,1,129.999994049073
144,364,215091,2,0,L|268:284,1,129.999994049073
368,20,215432,2,0,L|244:100,1,129.999994049073
136,160,215773,5,0,0:0:0:0:
404,352,215944,2,0,L|404:184,1,129.999994049073
312,40,216285,1,0,0:0:0:0:
76,160,216455,1,0,0:0:0:0:
176,340,216625,2,0,L|320:340,2,129.999994049073
72,340,217137,5,0,0:0:0:0:
440,340,217307,1,0,0:0:0:0:
72,140,217478,1,0,0:0:0:0:
440,140,217648,1,0,0:0:0:0:
72,40,217819,5,0,0:0:0:0:
440,40,217989,1,0,0:0:0:0:
72,240,218160,1,0,0:0:0:0:
440,240,218330,1,0,0:0:0:0:
256,48,218500,6,0,L|256:192,1,129.999994049073
256,336,218841,1,0,0:0:0:0:
68,40,219012,1,0,0:0:0:0:
444,40,219182,5,0,0:0:0:0:
434,116,219267,1,0,0:0:0:0:
416,192,219353,1,0,0:0:0:0:
390,264,219438,1,0,0:0:0:0:
356,336,219523,1,0,0:0:0:0:
68,40,219694,1,0,0:0:0:0:
68,268,219864,5,0,0:0:0:0:
464,120,220035,1,0,0:0:0:0:
320,40,220205,5,0,0:0:0:0:
196,352,220375,1,0,0:0:0:0:
468,284,220546,5,0,0:0:0:0:
44,80,220716,1,0,0:0:0:0:
416,368,220887,5,0,0:0:0:0:
104,16,221057,1,0,0:0:0:0:
80,336,221228,5,0,0:0:0:0:
200,16,221398,1,0,0:0:0:0:
468,328,221569,5,0,0:0:0:0:
84,136,221739,1,0,0:0:0:0:
336,352,221910,5,0,0:0:0:0:
436,16,222080,1,0,0:0:0:0:
44,80,222250,5,0,0:0:0:0:
448,204,222421,1,0,0:0:0:0:
136,308,222591,6,0,B|68:188|68:188|156:68,1,259.999988098145
264,192,223103,1,0,0:0:0:0:
384,80,223273,2,0,B|444:196|444:196|380:312,1,259.999988098145
136,308,223785,5,0,0:0:0:0:
244,72,223955,1,0,0:0:0:0:
132,308,224125,1,0,0:0:0:0:
392,28,224296,1,0,0:0:0:0:
72,88,224466,5,0,0:0:0:0:
440,296,224637,1,0,0:0:0:0:
281,346,224807,6,0,L|154:263,1,129.999994049073
143,253,225063,1,0,0:0:0:0:
111,227,225148,1,0,0:0:0:0:
79,201,225233,1,0,0:0:0:0:
47,175,225319,1,0,0:0:0:0:
256,192,225489,12,0,226171,0:0:0:0:
344,92,226512,5,0,0:0:0:0:
424,300,226682,2,0,L|376:168,1,100
344,92,227023,1,0,0:0:0:0:
344,92,227194,1,0,0:0:0:0:
344,92,227364,1,0,0:0:0:0:
344,92,227535,1,0,0:0:0:0:
344,92,227705,1,0,0:0:0:0:
344,92,227875,6,0,L|396:208,1,100
236,304,228216,1,0,0:0:0:0:
100,80,228387,1,0,0:0:0:0:
300,56,228557,2,0,L|372:172,1,100
448,280,228898,5,0,0:0:0:0:
360,36,229069,1,0,0:0:0:0:
108,96,229239,2,0,L|152:208,1,100
256,296,229580,1,0,0:0:0:0:
436,184,229750,1,0,0:0:0:0:
256,72,229921,1,0,0:0:0:0:
76,184,230091,1,0,0:0:0:0:
256,296,230262,1,0,0:0:0:0:
436,184,230432,1,0,0:0:0:0:
320,32,230603,6,0,L|208:100,1,100
88,164,230944,1,0,0:0:0:0:
272,348,231114,1,0,0:0:0:0:
368,180,231285,2,0,B|332:148|332:148|268:200,1,100
200,276,231625,5,0,0:0:0:0:
72,52,231796,1,0,0:0:0:0:
156,116,231966,2,0,P|104:152|36:136,2,100
272,76,232478,1,0,0:0:0:0:
272,76,232648,1,0,0:0:0:0:
272,76,232819,1,0,0:0:0:0:
420,200,232989,1,0,0:0:0:0:
320,24,233160,1,0,0:0:0:0:
368,344,233330,6,0,L|352:232,1,100
320,48,233671,1,0,0:0:0:0:
92,176,233841,1,0,0:0:0:0:
248,284,234012,2,0,L|356:352,1,100
96,176,234353,5,0,0:0:0:0:
320,48,234523,1,0,0:0:0:0:
424,288,234694,2,0,L|376:184,1,100
312,48,235035,5,0,0:0:0:0:
312,48,235205,1,0,0:0:0:0:
312,48,235375,1,0,0:0:0:0:
316,52,235546,1,0,0:0:0:0:
40,236,235716,1,0,0:0:0:0:
104,48,235887,1,0,0:0:0:0:
440,344,236057,1,0,0:0:0:0:
144,144,236398,5,0,0:0:0:0:
328,64,236569,1,0,0:0:0:0:
312,232,236739,2,0,B|296:284|296:284|224:264,1,100
88,172,237080,1,0,0:0:0:0:
376,24,237250,1,0,0:0:0:0:
216,368,237421,1,0,0:0:0:0:
140,92,237762,1,0,0:0:0:0:
328,116,238103,1,0,0:0:0:0:
268,192,238273,1,0,0:0:0:0:
256,192,238614,12,0,239296,0:0:0:0:
