osu file format v14

[General]
AudioFilename: Routine.mp3
AudioLeadIn: 0
PreviewTime: 123730
Countdown: 0
SampleSet: Soft
StackLeniency: 0.7
Mode: 0
LetterboxInBreaks: 0
WidescreenStoryboard: 0

[Editor]
DistanceSpacing: 0.8
BeatDivisor: 4
GridSize: 4
TimelineZoom: 2.4

[Metadata]
Title:Routine
TitleUnicode:Routine
Artist:Silent Siren
ArtistUnicode:Silent Siren
Creator:Shapy
Version:Jumpy Route
Source:
Tags:
BeatmapID:827317
BeatmapSetID:377921

[Difficulty]
HPDrainRate:5
CircleSize:4
OverallDifficulty:8.5
ApproachRate:9.5
SliderMultiplier:1.8
SliderTickRate:1

[Events]
//Background and Video events
0,0,"BG.jpg",0,0
//Break Periods
//Storyboard Layer 0 (Background)
//Storyboard Layer 1 (Fail)
//Storyboard Layer 2 (Pass)
//Storyboard Layer 3 (Foreground)
//Storyboard Sound Samples

[TimingPoints]
1088,340.909090909091,4,2,0,70,1,0
6201,-133.333333333333,4,2,0,70,0,0
6457,-133.333333333333,4,2,0,5,0,0
6542,-100,4,2,0,70,0,0
7053,-100,4,2,0,40,0,0
7224,-100,4,2,0,50,0,0
7394,-100,4,2,0,60,0,0
7565,-100,4,2,0,70,0,0
7735,-100,4,2,0,80,0,0
10974,-133.333333333333,4,2,0,80,0,0
11315,-100,4,2,0,80,0,0
22735,-100,4,2,0,70,0,0
46088,-100,4,2,0,40,0,0
47451,-90.9090909090909,4,2,0,70,0,0
48815,-90.9090909090909,4,2,0,40,0,0
50178,-83.3333333333333,4,2,0,70,0,0
51542,-83.3333333333333,4,2,0,40,0,0
52906,-125,4,2,0,70,0,0
55633,-86.9565217391304,4,2,0,75,0,1
77451,-86.9565217391304,4,2,0,70,0,0
78644,-100,4,2,0,70,0,0
114269,-100,4,2,0,40,0,0
115633,-86.9565217391304,4,2,0,70,0,0
116997,-100,4,2,0,40,0,0
118360,-83.3333333333333,4,2,0,70,0,0
119724,-100,4,2,0,40,0,0
121088,-100,4,2,0,70,0,0
123815,-83.3333333333333,4,2,0,75,0,1
145633,-83.3333333333333,4,2,0,75,0,0
145974,-83.3333333333333,4,2,0,20,0,0
146144,-100,4,2,0,45,0,0
146485,-100,4,2,0,55,0,0
146656,-100,4,2,0,60,0,0
146997,-100,4,2,0,70,0,0
148531,-100,4,2,0,45,0,0
149042,-100,4,2,0,70,0,0
170860,-100,4,2,0,60,0,0
179042,-100,4,2,0,70,0,0
181769,-80,4,2,0,75,0,1
203588,-74.0740740740741,4,2,0,75,0,1
214497,-66.6666666666667,4,2,0,75,0,1
225406,-181.818181818181,4,2,0,75,0,0
226428,-181.818181818181,4,2,0,5,0,0
226599,-100,4,2,0,50,0,0
227963,-100,4,2,0,70,0,0
238360,-200,4,2,0,70,0,0
239042,-200,4,2,0,15,0,0

[Colours]
Combo1 : 255,166,255
Combo2 : 128,191,255
Combo3 : 255,132,193
Combo4 : 130,130,255

[HitObjects]
368,256,1088,6,0,P|316:315|260:245,1,180
364,108,1599,1,0,0:0:0:0:
258,256,1769,1,0,0:0:0:0:
260,36,1940,1,0,0:0:0:0:
258,256,2110,1,0,0:0:0:0:
148,108,2281,1,0,0:0:0:0:
36,252,2451,6,0,P|91:310|145:251,1,180
260,128,2963,1,0,0:0:0:0:
386,254,3133,2,0,P|431:249|470:216,1,90
339,96,3474,2,0,P|294:101|255:134,1,90
259,308,3815,5,0,0:0:0:0:
259,308,3985,1,0,0:0:0:0:
80,316,4156,2,0,P|56:280|52:224,1,90
228,144,4497,2,0,P|252:181|257:225,1,90
76,148,4838,2,0,P|52:112|48:56,1,90
176,296,5178,5,0,0:0:0:0:
372,208,5349,1,0,0:0:0:0:
176,296,5519,1,0,0:0:0:0:
372,208,5690,1,0,0:0:0:0:
228,104,5860,1,0,0:0:0:0:
300,324,6031,1,0,0:0:0:0:
228,104,6201,6,0,P|166:85|116:96,1,101.250003862381
76,144,6542,2,0,L|104:324,1,180
348,264,7053,5,0,0:0:0:0:
180,208,7224,1,0,0:0:0:0:
351,154,7394,1,0,0:0:0:0:
249,287,7565,1,0,0:0:0:0:
248,108,7735,1,0,0:0:0:0:
378,284,7906,5,0,0:0:0:0:
159,202,8076,1,0,0:0:0:0:
375,138,8247,1,0,0:0:0:0:
238,317,8418,1,0,0:0:0:0:
243,84,8588,1,0,0:0:0:0:
413,292,8758,5,0,0:0:0:0:
130,190,8928,1,0,0:0:0:0:
402,120,9099,1,0,0:0:0:0:
235,341,9270,1,0,0:0:0:0:
243,59,9440,1,0,0:0:0:0:
439,301,9610,5,0,0:0:0:0:
110,185,9780,1,0,0:0:0:0:
424,110,9951,1,0,0:0:0:0:
232,356,10122,1,0,0:0:0:0:
242,39,10292,1,0,0:0:0:0:
439,301,10463,1,0,0:0:0:0:
220,296,10633,1,0,0:0:0:0:
220,296,10718,1,0,0:0:0:0:
220,296,10803,1,0,0:0:0:0:
220,296,10889,1,0,0:0:0:0:
220,296,10974,6,0,P|166:301|132:264,1,101.250003862381
104,200,11315,2,0,P|60:204|20:237,2,90
228,48,11826,2,0,B|260:41|260:41|308:83|367:55|367:55|400:84,1,180
436,252,12338,1,0,0:0:0:0:
276,168,12508,1,0,0:0:0:0:
436,252,12678,2,0,L|408:348,1,90
391,76,13019,5,0,0:0:0:0:
332,248,13190,1,0,0:0:0:0:
391,76,13360,2,0,L|296:56,1,90
180,188,13701,1,0,0:0:0:0:
304,56,13872,1,0,0:0:0:0:
124,56,14042,6,0,P|80:74|44:120,1,90
112,274,14383,1,0,0:0:0:0:
112,274,14553,2,0,P|200:286|279:231,1,180
408,116,15065,6,0,P|384:80|340:48,2,90
256,256,15576,1,0,0:0:0:0:
103,124,15747,2,0,P|128:87|164:59,2,90
256,256,16258,1,0,0:0:0:0:
476,140,16428,1,0,0:0:0:0:
252,128,16599,5,0,0:0:0:0:
252,128,16684,1,0,0:0:0:0:
252,128,16769,1,0,0:0:0:0:
472,288,16940,1,0,0:0:0:0:
328,40,17110,1,0,0:0:0:0:
364,300,17281,6,0,P|272:312|199:253,1,180
56,180,17792,1,0,0:0:0:0:
284,88,17963,1,0,0:0:0:0:
70,67,18133,2,0,P|113:77|147:108,1,90
392,196,18474,5,0,0:0:0:0:
164,288,18645,1,0,0:0:0:0:
380,311,18815,2,0,P|336:300|303:270,1,90
284,88,19156,1,0,0:0:0:0:
456,136,19326,2,0,P|476:184|473:231,1,90
288,184,19667,5,0,0:0:0:0:
464,40,19838,1,0,0:0:0:0:
240,24,20008,2,0,P|170:86|171:171,1,180
340,224,20519,1,0,0:0:0:0:
188,320,20690,1,0,0:0:0:0:
52,200,20860,6,0,P|36:244|40:300,1,90
212,240,21201,1,0,0:0:0:0:
212,240,21372,1,0,0:0:0:0:
452,48,21713,5,0,0:0:0:0:
428,76,22053,1,0,0:0:0:0:
132,32,22224,1,0,0:0:0:0:
272,144,22394,2,0,L|284:208,2,45
172,336,22735,6,0,B|208:336|208:336|259:345|259:345|312:320|312:320|360:312,1,180
468,180,23247,1,0,0:0:0:0:
300,32,23417,1,0,0:0:0:0:
440,288,23588,1,0,0:0:0:0:
464,44,23758,1,0,0:0:0:0:
328,296,23928,1,0,0:0:0:0:
464,44,24099,1,0,0:0:0:0:
280,172,24269,6,0,P|236:168|188:140,1,90
48,44,24610,2,0,P|19:82|12:132,1,90
120,304,24951,2,0,P|147:269|156:225,1,90
264,80,25292,1,0,0:0:0:0:
316,252,25463,1,0,0:0:0:0:
328,28,25633,6,0,L|420:56,1,90
484,220,25974,1,0,0:0:0:0:
312,168,26144,1,0,0:0:0:0:
312,168,26230,1,0,0:0:0:0:
312,168,26315,1,0,0:0:0:0:
412,328,26485,1,0,0:0:0:0:
228,272,26656,1,0,0:0:0:0:
424,152,26826,1,0,0:0:0:0:
274,338,26997,6,0,P|230:350|185:340,1,90
76,168,27338,2,0,L|48:264,1,90
50,254,27593,1,0,0:0:0:0:
50,254,27678,1,0,0:0:0:0:
200,64,27849,5,0,0:0:0:0:
336,240,28019,1,0,0:0:0:0:
400,32,28190,1,0,0:0:0:0:
400,32,28275,1,0,0:0:0:0:
400,32,28360,6,0,P|424:72|432:124,1,90
264,180,28701,1,0,0:0:0:0:
432,248,28872,1,0,0:0:0:0:
329,99,29042,2,0,P|289:83|229:83,1,90
68,240,29383,6,0,P|52:200|56:148,1,90
208,252,29724,1,0,0:0:0:0:
60,352,29894,1,0,0:0:0:0:
140,184,30065,1,0,0:0:0:0:
236,353,30235,1,0,0:0:0:0:
140,184,30406,2,0,P|144:140|168:92,1,90
412,80,30747,2,0,P|407:124|389:165,1,90
256,348,31088,5,0,0:0:0:0:
296,56,31258,1,0,0:0:0:0:
220,344,31428,1,0,0:0:0:0:
332,56,31599,1,0,0:0:0:0:
184,340,31769,1,0,0:0:0:0:
372,60,31940,1,0,0:0:0:0:
256,348,32110,5,0,0:0:0:0:
216,56,32280,1,0,0:0:0:0:
292,344,32450,1,0,0:0:0:0:
180,56,32621,1,0,0:0:0:0:
328,340,32791,1,0,0:0:0:0:
140,60,32962,1,0,0:0:0:0:
68,228,33133,5,0,0:0:0:0:
107,236,33218,1,0,0:0:0:0:
147,236,33303,1,0,0:0:0:0:
187,229,33388,1,0,0:0:0:0:
225,214,33473,1,0,0:0:0:0:
452,48,33644,6,0,B|448:104|464:144|464:144|428:168|409:207,1,180
256,108,34156,1,0,0:0:0:0:
216,304,34326,1,0,0:0:0:0:
120,120,34497,1,0,0:0:0:0:
332,307,34667,1,0,0:0:0:0:
120,120,34838,1,0,0:0:0:0:
332,307,35008,1,0,0:0:0:0:
256,108,35178,6,0,P|292:84|348:68,1,90
463,197,35519,1,0,0:0:0:0:
332,307,35690,1,0,0:0:0:0:
332,307,35775,1,0,0:0:0:0:
332,307,35860,1,0,0:0:0:0:
160,256,36031,5,0,0:0:0:0:
256,108,36201,2,0,P|218:83|175:69,1,90
56,256,36542,2,0,P|52:304|68:360,1,90
256,108,36883,2,0,P|268:64|266:17,1,90
432,256,37224,2,0,P|444:300|441:345,1,90
416,80,37565,5,0,0:0:0:0:
248,316,37735,1,0,0:0:0:0:
96,80,37906,1,0,0:0:0:0:
248,316,38076,1,0,0:0:0:0:
416,80,38247,2,0,L|440:176,1,90
352,328,38588,5,0,0:0:0:0:
88,192,38758,1,0,0:0:0:0:
400,232,38928,1,0,0:0:0:0:
100,331,39099,1,0,0:0:0:0:
256,68,39269,2,0,L|256:168,1,90
256,338,39610,5,0,0:0:0:0:
400,232,39781,1,0,0:0:0:0:
220,240,39951,2,0,P|176:236|128:207,1,90
256,68,40292,1,0,0:0:0:0:
76,80,40463,1,0,0:0:0:0:
40,256,40633,6,0,L|80:344,1,90
199,159,40974,1,0,0:0:0:0:
256,328,41144,1,0,0:0:0:0:
199,159,41315,2,0,P|239:137|292:128,1,90
408,256,41656,1,0,0:0:0:0:
468,88,41826,1,0,0:0:0:0:
408,256,41997,6,0,P|364:246|324:225,1,90
36,220,42338,2,0,P|75:198|119:189,1,90
304,316,42678,2,0,P|343:337|387:346,1,90
188,132,43019,2,0,P|148:110|104:101,1,90
104,101,43275,1,0,0:0:0:0:
104,101,43360,1,0,0:0:0:0:
376,48,43531,5,0,0:0:0:0:
468,300,43701,1,0,0:0:0:0:
204,244,43872,1,0,0:0:0:0:
468,300,44042,1,0,0:0:0:0:
392,132,44213,5,0,0:0:0:0:
356,128,44298,1,0,0:0:0:0:
320,124,44383,1,0,0:0:0:0:
284,120,44468,1,0,0:0:0:0:
248,124,44553,1,0,0:0:0:0:
212,132,44639,1,0,0:0:0:0:
176,140,44724,6,0,P|152:184|148:232,1,90
280,344,45065,1,0,0:0:0:0:
36,256,45235,1,0,0:0:0:0:
304,220,45406,1,0,0:0:0:0:
56,116,45576,1,0,0:0:0:0:
280,344,45747,6,0,P|328:344|373:326,1,90
462,182,46088,1,0,0:0:0:0:
40,32,46428,5,0,0:0:0:0:
366,329,46769,1,0,0:0:0:0:
24,124,47110,1,0,0:0:0:0:
462,182,47451,6,0,P|464:136|438:86,1,99.0000030212403
244,248,47792,2,0,P|266:291|264:340,1,99.0000030212403
60,100,48133,2,0,P|37:143|39:192,1,99.0000030212403
256,32,48474,1,0,0:0:0:0:
256,32,48644,1,0,0:0:0:0:
368,252,48815,5,0,0:0:0:0:
368,252,49156,1,0,0:0:0:0:
52,36,49497,1,0,0:0:0:0:
344,84,49667,1,0,0:0:0:0:
76,212,49838,1,0,0:0:0:0:
344,84,50178,6,0,P|388:118|416:168,1,107.999996704102
192,320,50519,1,0,0:0:0:0:
244,56,50690,1,0,0:0:0:0:
92,276,50860,2,0,P|49:243|21:197,1,107.999996704102
272,300,51201,1,0,0:0:0:0:
120,76,51372,1,0,0:0:0:0:
380,252,51542,5,0,0:0:0:0:
44,32,51883,1,0,0:0:0:0:
460,316,52224,1,0,0:0:0:0:
32,112,52565,1,0,0:0:0:0:
32,112,52906,6,0,L|56:256,1,144
284,320,53417,1,0,0:0:0:0:
444,64,53588,1,0,0:0:0:0:
192,228,53758,1,0,0:0:0:0:
480,144,53928,1,0,0:0:0:0:
176,136,54099,1,0,0:0:0:0:
460,236,54269,5,0,0:0:0:0:
460,236,54355,1,0,0:0:0:0:
460,236,54440,1,0,0:0:0:0:
216,56,54610,1,0,0:0:0:0:
216,56,54695,1,0,0:0:0:0:
216,56,54781,1,0,0:0:0:0:
384,288,54951,5,0,0:0:0:0:
116,136,55122,1,0,0:0:0:0:
368,328,55292,1,0,0:0:0:0:
144,96,55463,1,0,0:0:0:0:
456,48,55633,6,0,L|353:37,1,103.500001974106
69,165,55974,2,0,L|171:175,1,103.500001974106
436,340,56315,2,0,L|333:329,1,103.500001974106
69,165,56656,2,0,L|171:175,1,103.500001974106
483,175,56997,5,0,0:0:0:0:
192,76,57167,1,0,0:0:0:0:
448,40,57338,2,0,P|424:84|368:116,1,103.500001974106
212,308,57678,1,0,0:0:0:0:
116,68,57849,1,0,0:0:0:0:
108,324,58019,1,0,0:0:0:0:
192,76,58190,1,0,0:0:0:0:
304,308,58360,6,0,P|408:312|447:224,1,207.000003948212
171,175,58872,1,0,0:0:0:0:
452,44,59042,2,0,L|448:152,1,103.500001974106
212,352,59383,2,0,L|216:248,1,103.500001974106
448,147,59724,5,0,0:0:0:0:
160,40,59894,1,0,0:0:0:0:
367,250,60065,1,0,0:0:0:0:
68,168,60235,1,0,0:0:0:0:
356,48,60406,1,0,0:0:0:0:
176,300,60576,5,0,0:0:0:0:
176,300,60661,1,0,0:0:0:0:
176,300,60747,1,0,0:0:0:0:
448,147,60917,1,0,0:0:0:0:
448,147,61002,1,0,0:0:0:0:
448,147,61088,1,0,0:0:0:0:
148,68,61258,5,0,0:0:0:0:
388,264,61428,1,0,0:0:0:0:
76,288,61599,1,0,0:0:0:0:
364,172,61769,1,0,0:0:0:0:
64,88,61940,1,0,0:0:0:0:
252,336,62110,6,0,L|236:228,1,103.500001974106
392,44,62451,1,0,0:0:0:0:
124,204,62622,1,0,0:0:0:0:
432,232,62792,1,0,0:0:0:0:
164,44,62963,1,0,0:0:0:0:
360,284,63133,5,0,0:0:0:0:
100,116,63303,1,0,0:0:0:0:
412,140,63474,1,0,0:0:0:0:
140,292,63644,1,0,0:0:0:0:
332,48,63815,6,0,P|284:36|216:46,1,103.500001974106
148,188,64156,1,0,0:0:0:0:
456,152,64326,5,0,0:0:0:0:
177,282,64497,2,0,P|149:238|149:182,1,103.500001974106
456,152,64838,2,0,P|454:203|426:246,1,103.500001974106
164,80,65178,5,0,0:0:0:0:
472,40,65349,1,0,0:0:0:0:
304,312,65519,1,0,0:0:0:0:
148,44,65690,1,0,0:0:0:0:
472,80,65860,1,0,0:0:0:0:
308,344,66031,5,0,0:0:0:0:
308,344,66116,1,0,0:0:0:0:
308,344,66201,2,0,B|248:316|200:344|200:344|140:332|152:264,1,207.000003948212
404,92,66713,1,0,0:0:0:0:
100,44,66883,6,0,P|52:56|8:96,1,103.500001974106
276,252,67224,2,0,P|325:239|364:205,1,103.500001974106
56,256,67565,1,0,0:0:0:0:
296,176,67735,1,0,0:0:0:0:
296,176,67906,6,0,L|345:282,2,103.500001974106
11,90,68417,1,0,0:0:0:0:
320,44,68588,1,0,0:0:0:0:
32,160,68758,1,0,0:0:0:0:
340,112,68928,1,0,0:0:0:0:
56,236,69099,1,0,0:0:0:0:
248,348,69269,6,0,L|224:248,1,103.500001974106
428,48,69610,2,0,L|452:148,1,103.500001974106
144,120,69951,1,0,0:0:0:0:
412,276,70122,1,0,0:0:0:0:
144,120,70292,2,0,P|94:148|67:189,1,103.500001974106
344,40,70633,5,0,0:0:0:0:
193,310,70803,1,0,0:0:0:0:
452,148,70974,1,0,0:0:0:0:
147,198,71144,1,0,0:0:0:0:
444,292,71315,1,0,0:0:0:0:
268,40,71485,5,0,0:0:0:0:
268,40,71570,1,0,0:0:0:0:
268,40,71656,1,0,0:0:0:0:
316,344,71826,2,0,L|308:284,1,51.7500009870529
296,216,71997,5,0,0:0:0:0:
40,40,72167,1,0,0:0:0:0:
344,112,72338,1,0,0:0:0:0:
56,228,72508,1,0,0:0:0:0:
352,316,72678,1,0,0:0:0:0:
187,45,72849,5,0,0:0:0:0:
87,339,73019,1,0,0:0:0:0:
332,156,73190,1,0,0:0:0:0:
22,156,73360,1,0,0:0:0:0:
276,336,73531,1,0,0:0:0:0:
187,45,73701,5,0,0:0:0:0:
376,292,73872,1,0,0:0:0:0:
72,236,74042,1,0,0:0:0:0:
336,68,74213,1,0,0:0:0:0:
196,344,74383,1,0,0:0:0:0:
64,64,74553,1,0,0:0:0:0:
348,196,74724,6,0,P|404:196|456:176,1,103.500001974106
168,48,75065,1,0,0:0:0:0:
36,328,75235,6,0,P|84:344|136:343,1,103.500001974106
336,68,75576,1,0,0:0:0:0:
476,344,75747,2,0,P|424:344|375:328,1,103.500001974106
132,132,76088,5,0,0:0:0:0:
428,44,76258,1,0,0:0:0:0:
268,308,76428,1,0,0:0:0:0:
228,304,76514,1,0,0:0:0:0:
188,296,76599,1,0,0:0:0:0:
148,280,76684,1,0,0:0:0:0:
112,260,76769,1,0,0:0:0:0:
80,232,76855,1,0,0:0:0:0:
60,196,76940,1,0,0:0:0:0:
52,156,77025,1,0,0:0:0:0:
48,116,77110,6,0,P|144:76|248:86,1,207.000003948212
404,276,78644,5,0,0:0:0:0:
404,276,78815,1,0,0:0:0:0:
372,72,79155,1,0,0:0:0:0:
256,260,79326,2,0,P|212:264|152:245,2,90
220,80,79838,1,0,0:0:0:0:
52,140,80008,6,0,L|44:340,1,180
224,344,80519,1,0,0:0:0:0:
188,168,80690,1,0,0:0:0:0:
324,284,80860,2,0,P|368:268|408:236,1,90
402,61,81201,5,0,0:0:0:0:
244,148,81372,1,0,0:0:0:0:
402,242,81542,2,0,P|446:242|494:222,2,90
244,148,82053,2,0,P|200:148|152:168,1,90
100,336,82394,5,0,0:0:0:0:
40,120,82565,1,0,0:0:0:0:
224,252,82735,2,0,P|320:260|363:191,1,180
468,48,83247,1,0,0:0:0:0:
282,196,83417,1,0,0:0:0:0:
456,148,83588,6,0,L|480:240,2,90
296,68,84099,2,0,B|260:92|240:95|209:85|209:85|192:112|172:118|120:120,1,180
60,284,84610,1,0,0:0:0:0:
232,344,84781,1,0,0:0:0:0:
232,344,84866,1,0,0:0:0:0:
232,344,84951,1,0,0:0:0:0:
400,196,85122,5,0,0:0:0:0:
160,276,85292,1,0,0:0:0:0:
296,68,85463,2,0,P|392:60|462:109,1,180
458,285,85974,1,0,0:0:0:0:
312,180,86144,1,0,0:0:0:0:
458,285,86315,6,0,P|440:328|400:364,1,90
232,316,86656,1,0,0:0:0:0:
384,220,86826,1,0,0:0:0:0:
208,188,86997,2,0,P|224:146|256:114,2,90
76,312,87508,5,0,0:0:0:0:
312,228,87678,1,0,0:0:0:0:
60,232,87849,1,0,0:0:0:0:
300,312,88019,1,0,0:0:0:0:
60,232,88190,2,0,P|72:144|160:114,1,180
312,228,88701,5,0,0:0:0:0:
448,108,88872,1,0,0:0:0:0:
284,36,89042,2,0,L|184:32,1,90
312,228,89383,2,0,L|401:231,1,90
124,340,89894,5,0,0:0:0:0:
124,340,90235,1,0,0:0:0:0:
232,196,90406,1,0,0:0:0:0:
60,244,90576,2,0,L|28:288,2,45
232,196,90917,6,0,P|192:108|110:92,1,180
33,280,91428,1,0,0:0:0:0:
200,348,91599,1,0,0:0:0:0:
336,232,91769,2,0,P|344:188|332:140,1,90
117,90,92110,6,0,P|109:134|121:182,1,90
337,319,92451,2,0,P|345:275|333:227,1,90
252,72,92792,1,0,0:0:0:0:
216,248,92963,1,0,0:0:0:0:
368,152,93133,2,0,P|414:159|452:192,2,90
184,133,93644,6,0,B|156:160|132:129|108:147|108:147|116:176|116:205|68:238,1,180
232,336,94156,1,0,0:0:0:0:
376,232,94326,1,0,0:0:0:0:
232,336,94497,2,0,L|144:320,1,90
260,180,94838,5,0,0:0:0:0:
40,44,95008,1,0,0:0:0:0:
296,84,95178,1,0,0:0:0:0:
40,136,95349,1,0,0:0:0:0:
260,180,95519,5,0,0:0:0:0:
480,44,95689,1,0,0:0:0:0:
224,84,95859,1,0,0:0:0:0:
480,136,96030,1,0,0:0:0:0:
260,180,96201,1,0,0:0:0:0:
360,32,96372,6,0,L|372:216,1,180
248,352,96883,1,0,0:0:0:0:
188,136,97053,1,0,0:0:0:0:
132,356,97224,1,0,0:0:0:0:
60,144,97394,1,0,0:0:0:0:
248,352,97565,6,0,P|296:356|352:336,1,90
384,152,97906,1,0,0:0:0:0:
472,344,98076,1,0,0:0:0:0:
284,260,98247,1,0,0:0:0:0:
496,240,98417,1,0,0:0:0:0:
384,72,98588,6,0,P|340:58|292:58,1,90
100,188,98928,2,0,P|142:201|187:202,1,90
368,268,99269,1,0,0:0:0:0:
144,116,99440,1,0,0:0:0:0:
420,204,99610,1,0,0:0:0:0:
100,188,99781,1,0,0:0:0:0:
408,124,99951,1,0,0:0:0:0:
124,264,100122,1,0,0:0:0:0:
384,44,100292,5,0,0:0:0:0:
184,324,100463,1,0,0:0:0:0:
312,28,100633,1,0,0:0:0:0:
264,352,100803,1,0,0:0:0:0:
236,28,100974,1,0,0:0:0:0:
344,349,101144,1,0,0:0:0:0:
160,28,101315,1,0,0:0:0:0:
420,348,101485,1,0,0:0:0:0:
420,348,101570,1,0,0:0:0:0:
420,348,101656,1,0,0:0:0:0:
104,80,101826,6,0,P|52:160|75:244,1,180
224,324,102338,1,0,0:0:0:0:
132,168,102508,1,0,0:0:0:0:
312,176,102678,2,0,P|344:208|360:256,1,90
136,320,103019,2,0,P|151:278|183:246,1,90
256,80,103360,5,0,0:0:0:0:
224,324,103531,1,0,0:0:0:0:
48,128,103701,1,0,0:0:0:0:
224,324,103872,1,0,0:0:0:0:
48,128,104042,6,0,L|40:224,1,90
248,169,104383,2,0,L|255:79,1,90
460,140,104724,2,0,L|452:236,1,90
320,344,105065,1,0,0:0:0:0:
156,176,105235,1,0,0:0:0:0:
376,232,105406,1,0,0:0:0:0:
160,296,105576,1,0,0:0:0:0:
284,108,105747,1,0,0:0:0:0:
320,344,105917,1,0,0:0:0:0:
284,108,106088,6,0,L|188:104,1,90
320,344,106428,1,0,0:0:0:0:
388,128,106599,1,0,0:0:0:0:
228,284,106769,2,0,L|124:284,1,90
36,136,107110,1,0,0:0:0:0:
32,316,107281,5,0,0:0:0:0:
144,176,107451,1,0,0:0:0:0:
24,40,107622,1,0,0:0:0:0:
144,176,107792,2,0,L|252:176,1,90
432,284,108133,2,0,L|342:284,1,90
240,84,108474,5,0,0:0:0:0:
224,296,108644,1,0,0:0:0:0:
352,168,108815,2,0,P|398:163|448:172,1,90
240,84,109156,2,0,P|195:77|151:82,1,90
48,228,109497,5,0,0:0:0:0:
196,332,109667,1,0,0:0:0:0:
196,152,109838,1,0,0:0:0:0:
116,313,110008,2,0,P|183:255|265:284,1,180
440,260,110519,5,0,0:0:0:0:
372,92,110690,1,0,0:0:0:0:
440,260,110860,2,0,P|395:260|344:240,1,90
240,104,111201,2,0,P|208:132|188:183,1,90
252,344,111542,5,0,0:0:0:0:
80,288,111713,1,0,0:0:0:0:
252,344,111883,2,0,L|344:336,1,90
436,184,112224,1,0,0:0:0:0:
436,184,112309,1,0,0:0:0:0:
436,184,112394,6,0,L|432:128,1,45
252,68,112565,2,0,L|255:112,1,45
84,208,112735,2,0,L|80:152,1,45
164,324,112906,6,0,L|264:308,1,90
432,344,113247,1,0,0:0:0:0:
268,156,113417,1,0,0:0:0:0:
432,344,113588,1,0,0:0:0:0:
492,100,113758,1,0,0:0:0:0:
432,344,113928,1,0,0:0:0:0:
368,100,114099,1,0,0:0:0:0:
368,100,114269,5,0,0:0:0:0:
48,40,114610,1,0,0:0:0:0:
244,324,114951,1,0,0:0:0:0:
432,60,115292,1,0,0:0:0:0:
244,188,115463,1,0,0:0:0:0:
244,188,115548,1,0,0:0:0:0:
244,188,115633,6,0,P|189:198|142:191,1,103.500001974106
432,60,115974,2,0,P|448:116|444:168,1,103.500001974106
240,320,116315,1,0,0:0:0:0:
188,68,116485,1,0,0:0:0:0:
412,252,116656,1,0,0:0:0:0:
128,296,116826,1,0,0:0:0:0:
128,296,116997,5,0,0:0:0:0:
432,60,117338,1,0,0:0:0:0:
44,40,117678,1,0,0:0:0:0:
260,172,117849,1,0,0:0:0:0:
56,316,118019,1,0,0:0:0:0:
160,88,118190,1,0,0:0:0:0:
160,88,118275,1,0,0:0:0:0:
160,88,118360,6,0,L|160:208,1,107.999996704102
416,288,118701,1,0,0:0:0:0:
148,340,118872,1,0,0:0:0:0:
416,288,119042,2,0,L|416:180,1,107.999996704102
160,88,119383,1,0,0:0:0:0:
288,324,119553,1,0,0:0:0:0:
44,208,119724,5,0,0:0:0:0:
467,208,120065,1,0,0:0:0:0:
51,105,120406,1,0,0:0:0:0:
465,105,120747,1,0,0:0:0:0:
52,208,121088,6,0,P|121:240|116:164,1,180
324,72,121599,1,0,0:0:0:0:
212,316,121769,1,0,0:0:0:0:
452,192,121940,1,0,0:0:0:0:
224,48,122110,1,0,0:0:0:0:
304,324,122281,1,0,0:0:0:0:
368,52,122451,6,0,L|340:96,1,45
292,164,122622,1,0,0:0:0:0:
52,284,122792,6,0,L|76:246,1,45
128,172,122963,1,0,0:0:0:0:
376,276,123133,5,0,0:0:0:0:
152,56,123303,1,0,0:0:0:0:
304,332,123474,1,0,0:0:0:0:
244,24,123644,1,0,0:0:0:0:
52,344,123815,6,0,P|40:288|52:232,1,107.999996704102
460,40,124156,2,0,P|469:92|457:145,1,107.999996704102
88,36,124497,2,0,P|48:80|40:140,1,107.999996704102
416,348,124838,2,0,P|453:309|465:257,1,107.999996704102
124,116,125178,5,0,0:0:0:0:
460,40,125349,1,0,0:0:0:0:
276,308,125519,2,0,P|224:328|168:328,1,107.999996704102
348,56,125860,1,0,0:0:0:0:
68,220,126031,1,0,0:0:0:0:
392,200,126201,1,0,0:0:0:0:
96,64,126372,1,0,0:0:0:0:
224,352,126542,6,0,L|224:240,1,107.999996704102
468,60,126883,1,0,0:0:0:0:
168,176,127053,1,0,0:0:0:0:
468,60,127224,2,0,P|472:120|458:175,1,107.999996704102
52,168,127565,2,0,P|40:115|45:61,1,107.999996704102
468,60,127906,2,0,P|472:120|458:175,1,107.999996704102
256,344,128247,5,0,0:0:0:0:
256,32,128417,1,0,0:0:0:0:
60,292,128588,1,0,0:0:0:0:
364,180,128758,1,0,0:0:0:0:
364,180,128843,1,0,0:0:0:0:
364,180,128928,2,0,P|264:160|168:220,1,215.999993408203
472,344,129440,5,0,0:0:0:0:
176,80,129610,1,0,0:0:0:0:
468,220,129781,1,0,0:0:0:0:
160,324,129951,1,0,0:0:0:0:
408,64,130122,1,0,0:0:0:0:
116,204,130292,1,0,0:0:0:0:
420,320,130463,1,0,0:0:0:0:
256,40,130633,1,0,0:0:0:0:
256,40,130803,6,0,L|264:152,1,107.999996704102
48,344,131144,1,0,0:0:0:0:
264,148,131315,1,0,0:0:0:0:
472,348,131485,1,0,0:0:0:0:
156,264,131656,1,0,0:0:0:0:
452,134,131826,1,0,0:0:0:0:
136,32,131997,6,0,P|192:32|248:44,1,107.999996704102
396,328,132338,1,0,0:0:0:0:
96,208,132508,1,0,0:0:0:0:
420,192,132678,2,0,P|367:181|313:181,1,107.999996704102
296,196,132934,1,0,0:0:0:0:
280,212,133019,1,0,0:0:0:0:
48,44,133190,5,0,0:0:0:0:
184,336,133360,1,0,0:0:0:0:
148,32,133531,1,0,0:0:0:0:
280,328,133701,1,0,0:0:0:0:
244,28,133872,1,0,0:0:0:0:
384,320,134042,1,0,0:0:0:0:
88,184,134213,5,0,0:0:0:0:
88,184,134298,1,0,0:0:0:0:
88,184,134383,1,0,0:0:0:0:
404,112,134553,1,0,0:0:0:0:
404,112,134639,1,0,0:0:0:0:
404,112,134724,6,0,L|420:224,1,107.999996704102
44,348,135065,2,0,L|59:241,1,107.999996704102
304,24,135406,2,0,L|236:112,1,107.999996704102
237,349,135747,2,0,L|303:263,1,107.999996704102
60,48,136088,5,0,0:0:0:0:
392,224,136258,1,0,0:0:0:0:
28,320,136428,1,0,0:0:0:0:
288,44,136599,1,0,0:0:0:0:
192,348,136769,1,0,0:0:0:0:
392,28,136940,5,0,0:0:0:0:
88,248,137110,1,0,0:0:0:0:
416,60,137281,1,0,0:0:0:0:
108,276,137451,2,0,P|163:278|224:248,1,107.999996704102
440,336,137792,2,0,L|404:232,1,107.999996704102
108,100,138133,5,0,0:0:0:0:
428,132,138303,1,0,0:0:0:0:
184,348,138474,1,0,0:0:0:0:
304,48,138644,1,0,0:0:0:0:
40,236,138815,1,0,0:0:0:0:
364,232,138985,1,0,0:0:0:0:
40,236,139156,6,0,P|32:184|40:124,2,107.999996704102
348,340,139667,1,0,0:0:0:0:
348,340,139752,1,0,0:0:0:0:
348,340,139838,2,0,P|436:300|400:204,1,215.999993408203
186,205,140349,5,0,0:0:0:0:
468,48,140519,1,0,0:0:0:0:
144,32,140690,1,0,0:0:0:0:
369,270,140860,1,0,0:0:0:0:
48,218,141031,1,0,0:0:0:0:
416,139,141201,5,0,0:0:0:0:
100,348,141372,1,0,0:0:0:0:
308,33,141542,1,0,0:0:0:0:
473,344,141713,1,0,0:0:0:0:
106,133,141883,5,0,0:0:0:0:
473,49,142053,1,0,0:0:0:0:
256,344,142224,1,0,0:0:0:0:
406,133,142394,1,0,0:0:0:0:
39,49,142564,1,0,0:0:0:0:
256,344,142735,1,0,0:0:0:0:
39,49,142906,6,0,P|89:38|155:42,1,107.999996704102
462,247,143247,1,0,0:0:0:0:
97,344,143417,1,0,0:0:0:0:
348,59,143588,2,0,P|365:114|362:172,1,107.999996704102
19,317,143928,1,0,0:0:0:0:
397,339,144099,1,0,0:0:0:0:
73,145,144269,5,0,0:0:0:0:
440,237,144440,1,0,0:0:0:0:
440,237,144525,1,0,0:0:0:0:
440,237,144610,1,0,0:0:0:0:
61,259,144781,1,0,0:0:0:0:
61,259,144866,1,0,0:0:0:0:
61,259,144951,1,0,0:0:0:0:
381,55,145122,5,0,0:0:0:0:
340,48,145207,1,0,0:0:0:0:
296,44,145292,1,0,0:0:0:0:
252,44,145377,1,0,0:0:0:0:
208,48,145463,1,0,0:0:0:0:
164,56,145548,1,0,0:0:0:0:
124,72,145633,6,0,P|112:184|157:273,1,215.999993408203
296,156,146144,1,0,0:0:0:0:
372,320,146315,1,0,0:0:0:0:
452,160,146485,1,0,0:0:0:0:
268,320,146656,1,0,0:0:0:0:
372,72,146826,1,0,0:0:0:0:
472,324,146997,1,0,0:0:0:0:
264,152,147167,5,0,0:0:0:0:
84,328,147338,1,0,0:0:0:0:
328,220,147508,1,0,0:0:0:0:
32,264,147678,1,0,0:0:0:0:
32,264,147764,1,0,0:0:0:0:
32,264,147849,1,0,0:0:0:0:
220,68,148019,1,0,0:0:0:0:
220,68,148105,1,0,0:0:0:0:
220,68,148190,1,0,0:0:0:0:
404,320,148531,6,0,L|424:272,5,45
428,244,149042,1,0,0:0:0:0:
410,212,149127,1,0,0:0:0:0:
386,185,149212,1,0,0:0:0:0:
358,163,149297,1,0,0:0:0:0:
326,146,149382,1,0,0:0:0:0:
292,136,149468,1,0,0:0:0:0:
256,133,149553,1,0,0:0:0:0:
220,136,149638,1,0,0:0:0:0:
184,144,149724,6,0,L|168:192,1,45
52,336,149894,2,0,L|56:292,1,45
40,212,150065,1,0,0:0:0:0:
136,60,150235,1,0,0:0:0:0:
136,60,150406,2,0,P|179:45|236:40,1,90
308,200,150747,5,0,0:0:0:0:
156,305,150917,2,0,P|64:285|41:205,2,180
156,124,151769,1,0,0:0:0:0:
415,341,152025,1,0,0:0:0:0:
230,34,152281,1,0,0:0:0:0:
230,34,152451,1,0,0:0:0:0:
255,350,152707,5,0,0:0:0:0:
349,35,152963,1,0,0:0:0:0:
349,35,153133,1,0,0:0:0:0:
140,300,153389,1,0,0:0:0:0:
396,136,153644,6,0,P|432:220|406:304,1,180
232,344,154156,1,0,0:0:0:0:
104,216,154326,1,0,0:0:0:0:
280,248,154497,2,0,P|280:200|260:160,1,90
96,92,154838,5,0,0:0:0:0:
316,56,155008,1,0,0:0:0:0:
104,216,155178,2,0,P|100:264|116:308,1,90
340,160,155519,5,0,0:0:0:0:
120,32,155690,1,0,0:0:0:0:
299,239,155860,2,0,P|343:251|392:235,1,90
140,120,156201,5,0,0:0:0:0:
300,340,156372,1,0,0:0:0:0:
63,170,156542,2,0,P|51:122|59:78,1,90
164,332,156883,1,0,0:0:0:0:
164,332,156968,1,0,0:0:0:0:
164,332,157053,1,0,0:0:0:0:
164,332,157139,1,0,0:0:0:0:
164,332,157224,2,0,L|164:284,7,45
166,250,157906,5,0,0:0:0:0:
183,218,157991,1,0,0:0:0:0:
209,193,158076,1,0,0:0:0:0:
241,178,158161,1,0,0:0:0:0:
277,175,158246,1,0,0:0:0:0:
312,182,158332,1,0,0:0:0:0:
348,185,158417,1,0,0:0:0:0:
380,170,158502,1,0,0:0:0:0:
404,144,158588,6,0,L|412:88,1,45
101,99,158758,2,0,L|108:144,1,45
397,188,158928,2,0,L|405:132,1,45
94,54,159099,2,0,L|101:99,1,45
104,136,159269,5,0,0:0:0:0:
88,168,159355,1,0,0:0:0:0:
60,192,159440,1,0,0:0:0:0:
36,216,159525,1,0,0:0:0:0:
24,252,159610,1,0,0:0:0:0:
32,288,159695,1,0,0:0:0:0:
48,320,159781,1,0,0:0:0:0:
80,336,159866,1,0,0:0:0:0:
116,344,159951,6,0,P|140:312|144:248,1,90
324,342,160292,1,0,0:0:0:0:
463,109,160463,1,0,0:0:0:0:
225,235,160633,1,0,0:0:0:0:
493,247,160803,1,0,0:0:0:0:
274,87,160974,1,0,0:0:0:0:
423,329,161144,1,0,0:0:0:0:
274,87,161315,6,0,P|229:74|180:74,1,90
92,278,161656,1,0,0:0:0:0:
316,278,161826,2,0,B|368:248|405:267|405:267|438:233|404:176,1,180
186,73,162338,1,0,0:0:0:0:
92,278,162508,1,0,0:0:0:0:
316,278,162678,6,0,P|251:217|146:202,1,180
319,92,163190,1,0,0:0:0:0:
191,326,163360,1,0,0:0:0:0:
403,175,163531,1,0,0:0:0:0:
109,257,163701,1,0,0:0:0:0:
354,324,163872,6,0,P|439:326|476:244,1,180
261,182,164383,1,0,0:0:0:0:
102,340,164553,1,0,0:0:0:0:
183,129,164724,2,0,P|216:104|271:87,1,90
443,221,165065,6,0,P|504:188|433:171,1,180
257,307,165576,1,0,0:0:0:0:
74,173,165747,1,0,0:0:0:0:
252,37,165917,2,0,P|265:85|254:135,1,90
136,324,166258,5,0,0:0:0:0:
415,326,166428,1,0,0:0:0:0:
136,212,166599,2,0,B|86:215|48:236,1,90
327,331,166940,2,0,B|375:343|415:327,1,90
252,37,167281,1,0,0:0:0:0:
180,316,167451,6,0,P|136:324|84:320,2,90
352,168,167963,1,0,0:0:0:0:
148,76,168133,1,0,0:0:0:0:
148,76,168218,1,0,0:0:0:0:
148,76,168303,1,0,0:0:0:0:
148,76,168389,1,0,0:0:0:0:
148,76,168474,6,0,L|136:128,1,45
248,288,168644,2,0,L|258:244,1,45
440,116,168815,2,0,L|428:168,1,45
228,288,168985,2,0,L|238:244,1,45
459,119,169156,2,0,L|447:171,1,45
200,288,169326,2,0,L|210:244,1,45
192,144,169497,5,0,0:0:0:0:
160,132,169582,1,0,0:0:0:0:
124,136,169667,1,0,0:0:0:0:
92,152,169752,1,0,0:0:0:0:
64,176,169838,1,0,0:0:0:0:
44,204,169923,1,0,0:0:0:0:
36,240,170008,1,0,0:0:0:0:
36,276,170093,1,0,0:0:0:0:
48,308,170178,2,0,L|80:352,3,45
208,344,170519,6,0,L|234:307,3,45
280,248,170860,1,0,0:0:0:0:
52,48,171201,1,0,0:0:0:0:
396,156,171542,1,0,0:0:0:0:
172,184,171713,1,0,0:0:0:0:
172,184,171883,6,0,P|152:228|148:276,1,90
364,336,172224,1,0,0:0:0:0:
292,124,172394,1,0,0:0:0:0:
208,340,172565,1,0,0:0:0:0:
68,60,172906,5,0,0:0:0:0:
88,284,173076,1,0,0:0:0:0:
184,80,173247,1,0,0:0:0:0:
364,336,173588,5,0,0:0:0:0:
68,60,173928,1,0,0:0:0:0:
448,300,174269,1,0,0:0:0:0:
360,92,174440,1,0,0:0:0:0:
448,300,174610,2,0,P|400:300|355:285,1,90
44,144,175122,5,0,0:0:0:0:
160,336,175292,1,0,0:0:0:0:
44,144,175633,1,0,0:0:0:0:
264,188,175803,1,0,0:0:0:0:
52,264,175974,1,0,0:0:0:0:
452,60,176315,5,0,0:0:0:0:
96,336,176656,1,0,0:0:0:0:
452,60,176997,1,0,0:0:0:0:
420,284,177167,1,0,0:0:0:0:
252,136,177338,2,0,P|208:136|152:152,1,90
420,284,177849,5,0,0:0:0:0:
344,72,178019,1,0,0:0:0:0:
344,72,178360,5,0,0:0:0:0:
268,284,178531,1,0,0:0:0:0:
196,64,178701,1,0,0:0:0:0:
420,284,179042,5,0,0:0:0:0:
168,180,179213,1,0,0:0:0:0:
168,180,179298,1,0,0:0:0:0:
168,180,179383,1,0,0:0:0:0:
436,144,179553,1,0,0:0:0:0:
436,144,179639,1,0,0:0:0:0:
436,144,179724,2,0,L|432:88,1,45
336,44,179894,1,0,0:0:0:0:
168,180,180065,5,0,0:0:0:0:
168,180,180150,1,0,0:0:0:0:
168,180,180235,1,0,0:0:0:0:
376,304,180406,5,0,0:0:0:0:
339,320,180491,1,0,0:0:0:0:
300,332,180576,1,0,0:0:0:0:
260,338,180661,1,0,0:0:0:0:
220,340,180747,6,0,P|172:340|129:318,1,90
256,40,181088,1,0,0:0:0:0:
76,223,181258,1,0,0:0:0:0:
436,224,181428,1,0,0:0:0:0:
72,72,181599,1,0,0:0:0:0:
402,326,181769,6,0,P|433:274|434:214,1,112.5
110,326,182110,2,0,P|79:274|78:214,1,112.5
473,45,182451,2,0,P|469:100|440:148,1,112.5
40,46,182792,2,0,P|44:101|74:149,1,112.5
252,352,183133,5,0,0:0:0:0:
252,24,183303,1,0,0:0:0:0:
64,352,183474,1,0,0:0:0:0:
368,104,183644,1,0,0:0:0:0:
39,245,183815,6,0,P|41:301|64:352,1,112.5
452,288,184156,1,0,0:0:0:0:
80,164,184326,1,0,0:0:0:0:
456,44,184497,1,0,0:0:0:0:
80,164,184667,1,0,0:0:0:0:
452,288,184838,6,0,L|476:176,1,112.5
103,53,185178,2,0,L|79:163,1,112.5
352,344,185519,1,0,0:0:0:0:
232,32,185690,1,0,0:0:0:0:
60,348,185860,1,0,0:0:0:0:
416,248,186031,1,0,0:0:0:0:
79,163,186201,1,0,0:0:0:0:
408,64,186372,1,0,0:0:0:0:
184,344,186542,6,0,L|188:220,1,112.5
408,64,186883,1,0,0:0:0:0:
456,348,187053,2,0,P|424:348|392:328,1,56.25
352,268,187224,1,0,0:0:0:0:
80,68,187394,5,0,0:0:0:0:
440,40,187565,1,0,0:0:0:0:
40,152,187735,1,0,0:0:0:0:
480,112,187906,1,0,0:0:0:0:
132,204,188076,1,0,0:0:0:0:
392,192,188247,1,0,0:0:0:0:
172,284,188417,1,0,0:0:0:0:
356,268,188588,1,0,0:0:0:0:
36,340,188758,5,0,0:0:0:0:
476,300,188929,1,0,0:0:0:0:
80,68,189099,1,0,0:0:0:0:
416,192,189269,1,0,0:0:0:0:
56,232,189440,1,0,0:0:0:0:
388,108,189610,1,0,0:0:0:0:
124,352,189781,1,0,0:0:0:0:
308,44,189951,6,0,P|252:36|190:51,1,112.5
464,340,190292,2,0,P|409:351|353:343,1,112.5
36,192,190633,2,0,L|152:192,1,112.5
476,192,190974,2,0,L|363:192,1,112.5
124,344,191315,5,0,0:0:0:0:
308,44,191485,1,0,0:0:0:0:
472,340,191656,1,0,0:0:0:0:
136,304,191826,1,0,0:0:0:0:
348,40,191997,1,0,0:0:0:0:
424,344,192167,1,0,0:0:0:0:
424,344,192252,1,0,0:0:0:0:
424,344,192338,6,0,P|312:328|304:227,1,225
40,48,192849,1,0,0:0:0:0:
368,128,193019,2,0,L|244:144,1,112.5
64,344,193360,2,0,L|175:329,1,112.5
40,48,193701,1,0,0:0:0:0:
272,300,193872,5,0,0:0:0:0:
468,48,194042,1,0,0:0:0:0:
132,96,194213,1,0,0:0:0:0:
440,232,194383,2,0,P|436:292|409:351,1,112.5
84,276,194724,5,0,0:0:0:0:
396,156,194894,1,0,0:0:0:0:
116,348,195065,1,0,0:0:0:0:
340,96,195235,1,0,0:0:0:0:
84,276,195406,2,0,P|52:232|44:168,1,112.5
472,172,195747,2,0,P|463:227|431:272,1,112.5
48,88,196088,5,0,0:0:0:0:
360,336,196258,1,0,0:0:0:0:
128,96,196428,1,0,0:0:0:0:
468,92,196599,1,0,0:0:0:0:
236,336,196769,1,0,0:0:0:0:
300,36,196940,1,0,0:0:0:0:
464,332,197110,1,0,0:0:0:0:
300,36,197281,1,0,0:0:0:0:
236,336,197451,5,0,0:0:0:0:
180,332,197536,1,0,0:0:0:0:
128,312,197622,1,0,0:0:0:0:
88,272,197707,1,0,0:0:0:0:
64,228,197792,2,0,P|108:192|176:184,1,112.5
464,332,198133,5,0,0:0:0:0:
400,268,198303,1,0,0:0:0:0:
464,332,198474,1,0,0:0:0:0:
337,205,198644,1,0,0:0:0:0:
464,332,198815,1,0,0:0:0:0:
273,141,198985,1,0,0:0:0:0:
464,332,199156,1,0,0:0:0:0:
210,78,199326,1,0,0:0:0:0:
464,332,199497,5,0,0:0:0:0:
104,64,199667,1,0,0:0:0:0:
464,332,199838,1,0,0:0:0:0:
54,149,200008,1,0,0:0:0:0:
464,332,200178,1,0,0:0:0:0:
40,244,200349,1,0,0:0:0:0:
464,332,200519,1,0,0:0:0:0:
44,336,200690,1,0,0:0:0:0:
464,332,200860,6,0,L|452:216,1,112.5
160,52,201201,1,0,0:0:0:0:
332,344,201372,1,0,0:0:0:0:
472,36,201542,2,0,P|416:36|344:60,1,112.5
64,332,201883,2,0,P|124:336|182:313,1,112.5
228,44,202224,5,0,0:0:0:0:
228,44,202309,1,0,0:0:0:0:
228,44,202394,1,0,0:0:0:0:
368,288,202565,5,0,0:0:0:0:
368,288,202650,1,0,0:0:0:0:
368,288,202735,1,0,0:0:0:0:
116,164,202906,5,0,0:0:0:0:
116,164,202991,1,0,0:0:0:0:
116,164,203076,1,0,0:0:0:0:
396,132,203247,6,0,L|416:188,1,56.25
444,275,203417,1,0,0:0:0:0:
236,316,203588,6,0,P|176:316|113:341,1,121.500000463486
344,68,203928,2,0,P|400:46|461:46,1,121.500000463486
180,240,204269,2,0,P|120:240|57:265,1,121.500000463486
368,152,204610,2,0,P|424:130|485:130,1,121.500000463486
376,336,204951,5,0,0:0:0:0:
212,80,205122,1,0,0:0:0:0:
468,336,205292,1,0,0:0:0:0:
116,68,205463,1,0,0:0:0:0:
464,248,205633,1,0,0:0:0:0:
96,164,205803,1,0,0:0:0:0:
468,336,205974,6,0,P|412:348|332:340,1,121.500000463486
56,48,206315,2,0,P|115:35|175:39,1,121.500000463486
468,336,206656,1,0,0:0:0:0:
116,248,206826,1,0,0:0:0:0:
476,176,206997,6,0,P|436:132|368:96,1,121.500000463486
104,340,207338,1,0,0:0:0:0:
312,36,207508,1,0,0:0:0:0:
368,352,207678,6,0,P|420:321|461:277,1,121.500000463486
144,32,208019,2,0,P|91:62|50:106,1,121.500000463486
50,106,208275,1,0,0:0:0:0:
50,106,208360,1,0,0:0:0:0:
344,184,208531,1,0,0:0:0:0:
344,184,208616,1,0,0:0:0:0:
344,184,208701,1,0,0:0:0:0:
52,268,208872,2,0,L|44:336,1,60.7500002317429
120,208,209042,5,0,0:0:0:0:
452,52,209213,1,0,0:0:0:0:
220,332,209383,1,0,0:0:0:0:
148,32,209553,1,0,0:0:0:0:
356,332,209724,5,0,0:0:0:0:
50,106,209894,1,0,0:0:0:0:
404,200,210065,1,0,0:0:0:0:
56,308,210235,1,0,0:0:0:0:
296,32,210406,1,0,0:0:0:0:
476,348,210576,1,0,0:0:0:0:
44,268,210747,5,0,0:0:0:0:
336,32,210917,1,0,0:0:0:0:
436,348,211088,1,0,0:0:0:0:
32,227,211258,1,0,0:0:0:0:
376,32,211428,1,0,0:0:0:0:
384,348,211599,1,0,0:0:0:0:
116,100,211769,6,0,L|144:228,1,121.500000463486
448,224,212110,1,0,0:0:0:0:
168,348,212281,1,0,0:0:0:0:
264,60,212451,2,0,P|328:60|388:80,1,121.500000463486
72,256,212792,5,0,0:0:0:0:
428,340,212963,1,0,0:0:0:0:
112,160,213133,1,0,0:0:0:0:
464,256,213303,1,0,0:0:0:0:
108,344,213474,1,0,0:0:0:0:
428,176,213644,1,0,0:0:0:0:
80,68,213815,5,0,0:0:0:0:
80,68,213900,1,0,0:0:0:0:
80,68,213985,1,0,0:0:0:0:
444,56,214156,1,0,0:0:0:0:
392,72,214241,1,0,0:0:0:0:
348,108,214326,1,0,0:0:0:0:
320,152,214411,1,0,0:0:0:0:
312,200,214497,6,0,P|248:216|189:178,1,135.000005149842
39,326,214838,2,0,P|103:310|160:344,1,135.000005149842
444,56,215178,2,0,P|387:89|323:73,1,135.000005149842
39,326,215519,2,0,P|103:310|160:344,1,135.000005149842
468,176,215860,5,0,0:0:0:0:
136,56,216031,1,0,0:0:0:0:
340,340,216201,1,0,0:0:0:0:
104,32,216372,1,0,0:0:0:0:
468,176,216542,1,0,0:0:0:0:
28,184,216713,1,0,0:0:0:0:
444,56,216883,6,0,L|344:156,1,135.000005149842
21,303,217224,2,0,L|116:207,1,135.000005149842
436,348,217565,2,0,L|328:248,1,135.000005149842
68,32,217906,2,0,L|167:123,1,135.000005149842
436,348,218247,5,0,0:0:0:0:
44,228,218417,1,0,0:0:0:0:
472,200,218588,1,0,0:0:0:0:
44,40,218758,1,0,0:0:0:0:
480,36,218928,1,0,0:0:0:0:
256,348,219099,1,0,0:0:0:0:
44,40,219269,1,0,0:0:0:0:
480,36,219440,1,0,0:0:0:0:
480,36,219525,1,0,0:0:0:0:
480,36,219610,2,0,P|416:62|441:127,1,135.000005149842
456,340,219951,5,0,0:0:0:0:
61,344,220122,1,0,0:0:0:0:
451,241,220292,1,0,0:0:0:0:
58,241,220463,1,0,0:0:0:0:
448,139,220633,1,0,0:0:0:0:
57,139,220803,1,0,0:0:0:0:
452,47,220974,1,0,0:0:0:0:
56,48,221144,1,0,0:0:0:0:
452,47,221315,5,0,0:0:0:0:
256,348,221485,1,0,0:0:0:0:
56,48,221656,1,0,0:0:0:0:
444,192,221826,1,0,0:0:0:0:
64,192,221997,1,0,0:0:0:0:
452,47,222167,1,0,0:0:0:0:
256,348,222338,1,0,0:0:0:0:
56,48,222508,1,0,0:0:0:0:
256,348,222678,6,0,L|256:200,2,135.000005149842
256,48,223190,1,0,0:0:0:0:
256,348,223360,2,0,L|256:200,2,135.000005149842
52,344,223872,1,0,0:0:0:0:
455,344,224042,1,0,0:0:0:0:
48,48,224213,1,0,0:0:0:0:
456,48,224383,1,0,0:0:0:0:
52,344,224553,1,0,0:0:0:0:
256,44,224724,5,0,0:0:0:0:
256,77,224809,1,0,0:0:0:0:
256,110,224894,1,0,0:0:0:0:
256,144,224980,1,0,0:0:0:0:
256,177,225065,1,0,0:0:0:0:
256,210,225150,1,0,0:0:0:0:
256,243,225235,1,0,0:0:0:0:
256,276,225320,1,0,0:0:0:0:
256,312,225406,6,0,P|116:340|104:208,1,297.000009063721
223,91,226599,1,0,0:0:0:0:
223,91,226769,2,0,P|320:80|390:130,1,180
385,305,227281,1,0,0:0:0:0:
385,305,227451,2,0,P|343:314|292:304,2,90
192,232,227963,6,0,B|156:216|80:256|23:182,1,180
144,52,228474,1,0,0:0:0:0:
316,104,228644,1,0,0:0:0:0:
316,104,228815,2,0,P|364:96|412:104,1,90
468,270,229156,1,0,0:0:0:0:
288,252,229326,2,0,P|260:288|248:336,1,90
68,336,229667,5,0,0:0:0:0:
44,68,229838,1,0,0:0:0:0:
160,312,230008,1,0,0:0:0:0:
44,68,230178,2,0,P|84:52|136:48,1,90
296,120,230519,1,0,0:0:0:0:
363,287,230690,6,0,P|456:272|460:197,1,180
296,120,231201,1,0,0:0:0:0:
228,288,231372,1,0,0:0:0:0:
132,136,231542,2,0,P|92:156|44:192,2,90
124,316,232053,5,0,0:0:0:0:
316,200,232224,1,0,0:0:0:0:
148,52,232394,1,0,0:0:0:0:
228,288,232565,1,0,0:0:0:0:
268,68,232735,1,0,0:0:0:0:
268,68,232820,1,0,0:0:0:0:
268,68,232906,6,0,P|312:56|368:56,1,90
484,184,233247,1,0,0:0:0:0:
256,328,233417,2,0,P|172:292|143:204,1,180
320,188,233928,1,0,0:0:0:0:
428,332,234099,1,0,0:0:0:0:
484,184,234269,6,0,P|472:136|440:100,1,90
184,40,234610,1,0,0:0:0:0:
72,288,234781,1,0,0:0:0:0:
304,152,234951,2,0,P|256:152|202:125,1,90
44,192,235292,5,0,0:0:0:0:
157,344,235463,1,0,0:0:0:0:
68,108,235633,1,0,0:0:0:0:
72,348,235803,1,0,0:0:0:0:
156,104,235974,1,0,0:0:0:0:
244,320,236144,6,0,P|336:324|412:272,1,180
449,101,236656,1,0,0:0:0:0:
449,101,236826,1,0,0:0:0:0:
252,212,236997,1,0,0:0:0:0:
104,44,237167,1,0,0:0:0:0:
252,212,237338,1,0,0:0:0:0:
449,101,237508,1,0,0:0:0:0:
64,336,237849,5,0,0:0:0:0:
380,44,238190,1,0,0:0:0:0:
96,160,238360,2,0,P|151:216|196:151,1,180
