osu file format v14

[General]
AudioFilename: audio.mp3
AudioLeadIn: 0
PreviewTime: -1
Countdown: 0
SampleSet: Normal
StackLeniency: 0.8
Mode: 0
LetterboxInBreaks: 0
WidescreenStoryboard: 0

[Editor]
DistanceSpacing: 1.2
BeatDivisor: 4
GridSize: 16
TimelineZoom: 1

[Metadata]
Title:Routine
TitleUnicode:Routine
Artist:Silent Siren
ArtistUnicode:Silent Siren
Creator:My Angel Kare
Version:Extra
Source:
Tags:
BeatmapID:1509545
BeatmapSetID:714277

[Difficulty]
HPDrainRate:4
CircleSize:4
OverallDifficulty:6
ApproachRate:9.5
SliderMultiplier:2
SliderTickRate:1

[Events]
//Background and Video events
//Break Periods
2,44794,45518
//Storyboard Layer 0 (Background)
//Storyboard Layer 1 (Fail)
//Storyboard Layer 2 (Pass)
//Storyboard Layer 3 (Foreground)
//Storyboard Sound Samples

[TimingPoints]
1043,340.909090909091,4,1,0,100,1,0

[HitObjects]
53,61,1043,5,0,0:0:0:0:
161,68,1383,2,0,L|261:30,1,100
201,165,1724,2,0,L|318:223,1,100
307,96,2065,2,0,L|431:29,1,100
467,182,2406,6,0,L|365:226,1,100
307,292,2747,2,0,L|201:331,1,100
243,220,3088,2,0,L|152:165,1,100
156,276,3429,2,0,L|40:309,1,100
22,206,3770,2,0,L|36:87,1,100
290,58,4111,2,0,L|374:116,1,100
399,216,4452,2,0,L|290:187,1,100
290,295,4793,2,0,L|157:325,1,100
121,223,5133,2,0,L|137:108,1,100
170,54,5474,2,0,L|271:126,1,100
292,187,5815,2,0,L|242:297,1,100
250,278,6156,5,0,0:0:0:0:
250,278,6497,1,0,0:0:0:0:
234,229,6838,1,0,0:0:0:0:
234,154,7008,1,0,0:0:0:0:
299,192,7179,1,0,0:0:0:0:
202,284,7349,5,0,0:0:0:0:
202,99,7520,1,0,0:0:0:0:
362,192,7690,1,0,0:0:0:0:
169,342,7861,5,0,0:0:0:0:
169,41,8031,1,0,0:0:0:0:
429,192,8202,1,0,0:0:0:0:
85,222,8372,5,0,0:0:0:0:
315,29,8543,1,0,0:0:0:0:
367,324,8713,1,0,0:0:0:0:
108,83,8884,5,0,0:0:0:0:
407,98,9054,1,0,0:0:0:0:
244,350,9224,1,0,0:0:0:0:
228,20,9395,5,0,0:0:0:0:
417,254,9565,1,0,0:0:0:0:
121,301,9736,1,0,0:0:0:0:
158,110,9906,5,0,0:0:0:0:
375,148,10077,1,0,0:0:0:0:
251,298,10247,1,0,0:0:0:0:
264,199,10418,1,0,0:0:0:0:
279,112,10588,5,0,0:0:0:0:
279,112,10673,1,0,0:0:0:0:
279,112,10758,1,0,0:0:0:0:
362,114,10929,1,0,0:0:0:0:
304,53,11270,6,0,L|386:52,1,50
304,131,11440,2,0,L|377:132,1,50
295,209,11611,2,0,L|377:211,1,50
419,216,11781,6,0,P|306:301|242:263,1,200
161,225,12293,1,0,0:0:0:0:
66,143,12463,2,0,P|121:61|257:55,1,200
324,91,12974,5,0,0:0:0:0:
438,129,13145,2,0,P|408:258|310:266,1,200
276,258,13656,1,0,0:0:0:0:
193,219,13827,1,0,0:0:0:0:
115,147,13997,1,0,0:0:0:0:
178,62,14168,1,0,0:0:0:0:
306,88,14338,1,0,0:0:0:0:
219,168,14508,1,0,0:0:0:0:
366,264,14849,5,0,0:0:0:0:
339,229,14934,1,0,0:0:0:0:
313,195,15019,1,0,0:0:0:0:
369,101,15190,2,0,P|280:71|178:98,1,200
182,202,15702,1,0,0:0:0:0:
182,202,15872,2,0,B|300:180|300:180|376:142,1,200
381,231,16554,1,0,0:0:0:0:
186,108,16724,1,0,0:0:0:0:
196,291,16895,5,0,0:0:0:0:
309,147,17065,1,0,0:0:0:0:
112,172,17236,1,0,0:0:0:0:
96,284,17577,6,0,L|241:294,1,100
316,287,17918,2,0,P|429:257|452:171,1,200
452,66,18429,1,0,0:0:0:0:
363,54,18599,2,0,L|166:90,1,200
109,149,19281,5,0,0:0:0:0:
150,262,19452,1,0,0:0:0:0:
265,232,19622,1,0,0:0:0:0:
332,161,19793,2,0,L|310:110,1,50
416,112,19963,2,0,L|387:67,1,50
306,49,20304,1,0,0:0:0:0:
214,57,20474,5,0,0:0:0:0:
130,135,20645,2,0,B|201:321|211:315,1,200
211,314,21156,1,0,0:0:0:0:
288,221,21327,1,0,0:0:0:0:
391,48,21668,1,0,0:0:0:0:
208,80,22094,1,0,0:0:0:0:
176,112,22179,1,0,0:0:0:0:
160,160,22264,1,0,0:0:0:0:
156,200,22690,6,0,P|239:283|316:261,1,200
389,197,23372,1,0,0:0:0:0:
389,112,23713,1,0,0:0:0:0:
330,56,24054,2,0,B|229:52,2,100
230,52,24736,1,0,0:0:0:0:
143,54,25247,6,0,P|161:185|195:185,1,200
191,185,25673,1,0,0:0:0:0:
219,177,25758,1,0,0:0:0:0:
413,36,26099,1,0,0:0:0:0:
259,124,26270,1,0,0:0:0:0:
352,281,26440,1,0,0:0:0:0:
352,281,26781,2,0,P|244:308|195:243,1,200
74,37,27463,5,0,0:0:0:0:
147,120,27633,2,0,L|280:123,1,100
246,122,27974,1,0,0:0:0:0:
246,122,28145,1,0,0:0:0:0:
376,131,28315,2,0,B|363:184|386:208|342:242,1,100
308,322,28827,2,0,P|222:334|127:275,2,200
85,52,30190,5,0,0:0:0:0:
85,52,30361,1,0,0:0:0:0:
174,60,30531,2,0,B|166:186|168:235|226:202|244:224,1,200
330,188,31043,5,0,0:0:0:0:
438,137,31213,1,0,0:0:0:0:
357,53,31554,2,0,P|222:129|148:99,2,200
369,293,32577,1,0,0:0:0:0:
128,291,32918,1,0,0:0:0:0:
48,80,33258,5,0,0:0:0:0:
64,84,33344,1,0,0:0:0:0:
64,84,33429,1,0,0:0:0:0:
64,84,33599,6,0,P|142:45|301:103,1,250
419,49,34281,2,0,L|303:50,1,100
413,148,34622,2,0,L|301:147,1,100
412,262,34963,2,0,L|302:260,1,100
312,260,35304,1,0,0:0:0:0:
312,260,35645,2,0,P|205:301|136:260,1,200
137,261,36156,5,0,0:0:0:0:
91,149,36327,1,0,0:0:0:0:
147,43,36497,1,0,0:0:0:0:
279,51,36668,1,0,0:0:0:0:
368,272,37008,1,0,0:0:0:0:
130,308,37349,1,0,0:0:0:0:
67,106,37690,2,0,P|143:38|212:51,1,150
419,241,38372,6,0,P|323:318|316:317,1,100
262,338,38713,1,0,0:0:0:0:
142,327,38883,1,0,0:0:0:0:
49,250,39054,1,0,0:0:0:0:
63,131,39224,2,0,P|170:66|234:85,1,200
353,108,39736,1,0,0:0:0:0:
426,336,40077,1,0,0:0:0:0:
276,292,40247,1,0,0:0:0:0:
280,299,40332,1,0,0:0:0:0:
280,299,40418,1,0,0:0:0:0:
276,292,41099,5,0,0:0:0:0:
179,309,41270,1,0,0:0:0:0:
94,273,41440,2,0,P|57:228|43:176,1,100
81,104,41781,1,0,0:0:0:0:
185,177,42122,1,0,0:0:0:0:
289,67,42463,1,0,0:0:0:0:
415,307,42804,1,0,0:0:0:0:
402,47,43145,1,0,0:0:0:0:
301,313,43486,1,0,0:0:0:0:
304,41,43827,1,0,0:0:0:0:
416,96,44168,5,0,0:0:0:0:
397,144,44253,1,0,0:0:0:0:
370,183,44338,1,0,0:0:0:0:
333,210,44423,1,0,0:0:0:0:
293,217,44508,1,0,0:0:0:0:
244,215,44594,1,0,0:0:0:0:
422,38,46043,5,0,0:0:0:0:
66,38,46383,1,0,0:0:0:0:
64,311,46724,1,0,0:0:0:0:
454,311,47065,1,0,0:0:0:0:
251,166,47406,1,0,0:0:0:0:
472,40,48770,5,0,0:0:0:0:
46,339,49111,1,0,0:0:0:0:
46,32,49452,2,0,L|188:32,2,100
144,32,50133,1,0,0:0:0:0:
193,35,50218,1,0,0:0:0:0:
241,49,50303,1,0,0:0:0:0:
284,75,50388,1,0,0:0:0:0:
319,111,50473,1,0,0:0:0:0:
344,153,50559,1,0,0:0:0:0:
359,201,50644,1,0,0:0:0:0:
362,251,50729,1,0,0:0:0:0:
353,300,50814,1,0,0:0:0:0:
64,45,51497,5,0,0:0:0:0:
96,87,51838,1,0,0:0:0:0:
136,145,52179,1,0,0:0:0:0:
176,208,52520,1,0,0:0:0:0:
208,271,52861,5,0,0:0:0:0:
96,48,53202,1,0,0:0:0:0:
426,68,53543,1,0,0:0:0:0:
129,208,53883,1,0,0:0:0:0:
416,211,54224,5,0,0:0:0:0:
416,211,54310,1,0,0:0:0:0:
416,211,54395,1,0,0:0:0:0:
135,64,54565,5,0,0:0:0:0:
140,67,54650,1,0,0:0:0:0:
140,67,54736,1,0,0:0:0:0:
420,73,54906,1,0,0:0:0:0:
473,348,55077,1,0,0:0:0:0:
240,185,55247,1,0,0:0:0:0:
24,27,55418,1,0,0:0:0:0:
464,256,55588,5,0,0:0:0:0:
80,32,55758,1,0,0:0:0:0:
368,336,55929,1,0,0:0:0:0:
176,16,56099,1,0,0:0:0:0:
224,352,56270,5,0,0:0:0:0:
304,16,56440,1,0,0:0:0:0:
96,320,56611,1,0,0:0:0:0:
416,64,56781,1,0,0:0:0:0:
48,208,56952,5,0,0:0:0:0:
448,192,57122,1,0,0:0:0:0:
48,96,57293,1,0,0:0:0:0:
400,336,57463,1,0,0:0:0:0:
128,32,57633,1,0,0:0:0:0:
256,352,57804,1,0,0:0:0:0:
240,80,57974,5,0,0:0:0:0:
280,50,58059,1,0,0:0:0:0:
328,37,58144,1,0,0:0:0:0:
377,41,58229,1,0,0:0:0:0:
416,64,58315,2,0,P|464:144|416:224,1,150
400,272,58656,5,0,0:0:0:0:
288,320,58827,1,0,0:0:0:0:
160,288,58997,1,0,0:0:0:0:
64,176,59168,1,0,0:0:0:0:
112,64,59338,1,0,0:0:0:0:
240,48,59508,1,0,0:0:0:0:
384,96,59679,6,0,P|432:144|432:176,1,100
432,172,60020,2,0,P|448:224|416:272,1,100
427,262,60361,2,0,P|432:320|400:320,1,100
336,320,60617,5,0,0:0:0:0:
272,304,60702,1,0,0:0:0:0:
210,275,60787,1,0,0:0:0:0:
158,232,60872,1,0,0:0:0:0:
113,180,60957,1,0,0:0:0:0:
88,116,61043,1,0,0:0:0:0:
80,48,61129,5,0,0:0:0:0:
176,80,61298,1,0,0:0:0:0:
176,0,61469,1,0,0:0:0:0:
240,48,61639,1,0,0:0:0:0:
288,16,61724,6,0,P|352:32|384:64,1,100
376,53,61980,2,0,P|448:112|416:160,1,150
432,256,62406,1,0,0:0:0:0:
32,256,62577,1,0,0:0:0:0:
128,48,62747,1,0,0:0:0:0:
352,320,62918,1,0,0:0:0:0:
80,144,63088,1,0,0:0:0:0:
112,320,63258,1,0,0:0:0:0:
144,336,63343,2,0,P|224:288|224:256,1,100
224,288,63599,2,0,P|272:240|256:208,1,100
352,80,64281,5,0,0:0:0:0:
128,80,64452,1,0,0:0:0:0:
224,48,64963,1,0,0:0:0:0:
304,288,65134,1,0,0:0:0:0:
272,48,65304,1,0,0:0:0:0:
352,272,65475,1,0,0:0:0:0:
320,48,65645,1,0,0:0:0:0:
400,256,65815,6,0,P|432:208|416:160,1,100
416,160,65986,1,0,0:0:0:0:
369,140,66071,1,0,0:0:0:0:
321,128,66156,1,0,0:0:0:0:
271,122,66241,1,0,0:0:0:0:
221,123,66326,1,0,0:0:0:0:
64,64,66497,5,0,0:0:0:0:
368,336,66668,1,0,0:0:0:0:
176,32,66838,1,0,0:0:0:0:
240,336,67008,1,0,0:0:0:0:
304,32,67179,5,0,0:0:0:0:
112,304,67349,1,0,0:0:0:0:
416,80,67520,1,0,0:0:0:0:
64,176,67690,1,0,0:0:0:0:
432,208,67861,5,0,0:0:0:0:
80,80,68031,1,0,0:0:0:0:
352,288,68202,1,0,0:0:0:0:
160,48,68372,2,0,P|240:64|256:112,1,100
192,336,68713,1,0,0:0:0:0:
400,64,68883,1,0,0:0:0:0:
112,272,69054,1,0,0:0:0:0:
320,48,69224,1,0,0:0:0:0:
80,176,69395,1,0,0:0:0:0:
112,32,69565,2,0,P|96:96|128:128,1,100
113,119,69906,2,0,P|112:176|160:192,1,100
416,64,70247,1,0,0:0:0:0:
112,304,70418,1,0,0:0:0:0:
416,64,70588,1,0,0:0:0:0:
112,304,70758,1,0,0:0:0:0:
416,64,70929,1,0,0:0:0:0:
112,304,71099,1,0,0:0:0:0:
416,64,71270,2,0,P|384:144|320:144,1,150
329,148,71611,2,0,L|224:160,1,100
