osu file format v14

[General]
AudioFilename: audio.mp3
AudioLeadIn: 0
PreviewTime: 55522
Countdown: 0
SampleSet: Soft
StackLeniency: 0.7
Mode: 0
LetterboxInBreaks: 0
WidescreenStoryboard: 0

[Editor]
Bookmarks: 6514,10605
DistanceSpacing: 0.3
BeatDivisor: 4
GridSize: 16
TimelineZoom: 4.399997

[Metadata]
Title:Routine
TitleUnicode:Routine
Artist:Silent Siren
ArtistUnicode:Silent Siren
Creator:Kuki1537
Version:Reason
Source:
Tags:サイレントサイレン major 3rd third album j-pop japanese female vocal サイサイ pop jpop cut version
BeatmapID:2266013
BeatmapSetID:1083437

[Difficulty]
HPDrainRate:5.5
CircleSize:4.2
OverallDifficulty:9
ApproachRate:9.2
SliderMultiplier:2
SliderTickRate:1

[Events]
//Background and Video events
0,0,"bg.jpg",0,0
//Break Periods
//Storyboard Layer 0 (Background)
//Storyboard Layer 1 (Fail)
//Storyboard Layer 2 (Pass)
//Storyboard Layer 3 (Foreground)
//Storyboard Layer 4 (Overlay)
//Storyboard Sound Samples

[TimingPoints]
-304,340.909090909091,4,2,45,61,1,0
1059,-166.666666666667,4,2,45,61,0,0
6514,365.853658536585,4,2,45,61,1,0
6879,337.078651685393,4,2,45,46,1,0
6879,-166.666666666667,4,2,45,46,0,0
7721,315.789473684211,4,2,45,46,1,0
7877,340.909090909091,4,2,45,58,1,0
7877,-166.666666666667,4,2,45,58,0,0
9240,-166.666666666667,4,2,45,75,0,0
10263,-133.333333333333,4,2,45,75,0,0
11286,-133.333333333333,4,2,45,53,0,0
11797,-111.111111111111,4,2,45,75,0,0
16741,361.44578313253,4,2,45,75,1,0
16741,-111.111111111111,4,2,45,75,0,0
16921,322.58064516129,4,2,45,75,1,0
17081,340.909090909091,4,2,45,75,1,0
17081,-111.111111111111,4,2,45,75,0,0
17422,340.909090909091,4,2,45,75,1,0
17422,-111.111111111111,4,2,45,75,0,0
20661,361.44578313253,4,2,45,75,1,0
20661,-111.111111111111,4,2,45,75,0,0
21022,319.148936170213,4,2,45,75,1,0
21022,-111.111111111111,4,2,45,75,0,0
21342,340.909090909091,4,2,45,75,1,0
21342,-111.111111111111,4,2,45,75,0,0
22194,363.636363636364,4,2,45,75,1,0
22737,326.086956521739,4,2,45,75,1,0
22737,-125,4,2,45,75,0,0
23063,340.909090909091,4,2,45,75,1,0
23063,-125,4,2,45,75,0,0
23728,340.909090909091,4,2,45,75,1,0
23728,-125,4,2,45,75,0,0
24238,340.909090909091,4,2,45,75,1,0
24238,-125,4,2,45,75,0,0
25601,387.096774193548,4,2,45,75,1,0
25794,298.507462686567,4,2,45,75,1,0
25794,-125,4,2,45,75,0,0
25942,340.909090909091,4,2,45,75,1,0
25942,-125,4,2,45,75,0,0
26965,340.909090909091,4,2,45,75,1,0
26965,-125,4,2,45,75,0,0
33105,319.148936170213,4,2,45,75,1,0
33105,-125,4,2,45,75,0,0
33583,352.941176470588,4,2,45,75,1,0
33583,-111.111111111111,4,2,45,75,0,0
33935,-125,4,2,45,75,0,0
34465,372.670807453416,4,2,45,75,1,0
34650,333.333333333333,4,2,45,75,1,0
34650,-125,4,2,45,75,0,0
34983,346.820809248555,4,2,45,75,1,0
35155,340.909090909091,4,2,45,75,1,0
35155,-125,4,2,45,75,0,0
44700,-99.9999999999999,4,2,45,75,0,0
45382,375,4,2,45,75,1,0
45569,307.692307692308,4,2,45,75,1,0
45722,333.333333333333,4,2,45,75,1,0
45888,352.941176470588,4,2,45,75,1,0
46064,340.909090909091,4,2,45,56,1,0
46064,-99.9999999999999,4,2,45,56,0,0
47427,-99.9999999999999,4,2,45,75,0,0
48279,319.148936170213,4,2,45,75,1,0
48438,337.078651685393,4,2,45,75,1,0
48606,370.37037037037,4,2,45,75,1,0
48791,340.909090909091,4,2,45,56,1,0
48791,-99.9999999999999,4,2,45,56,0,0
50155,-99.9999999999999,4,2,45,75,0,0
50836,329.67032967033,4,2,45,75,1,0
51165,352.941176470588,4,2,45,75,1,0
51518,340.909090909091,4,2,45,56,1,0
51518,-99.9999999999999,4,2,45,56,0,0
52882,-99.9999999999999,4,2,45,75,0,0
54245,307.692307692308,4,2,45,75,1,0
54398,375,4,2,45,75,1,0
54586,300,4,2,45,75,1,0
54736,382.165605095541,4,2,45,75,1,0
54927,372.670807453416,4,2,45,75,1,0
55112,324.324324324324,4,2,45,75,1,0
55436,344.827586206897,4,2,45,75,1,0
55608,340.909090909091,4,2,45,83,1,0
55608,-90.9090909090909,4,2,45,83,0,1
76403,-90.9090909090909,4,2,45,75,0,1
76744,-90.9090909090909,4,2,45,69,0,1
77085,-90.9090909090909,4,2,45,63,0,1
77426,-90.9090909090909,4,2,45,63,0,0
79471,-117.647058823529,4,2,45,53,0,0
79983,-100,4,2,45,75,0,0
81005,387.096774193548,4,2,45,75,1,0
81198,307.692307692308,4,2,45,75,1,0
81351,333.333333333333,4,2,45,75,1,0
81517,340.909090909091,4,2,45,75,1,0
87312,333.333333333333,4,2,45,75,1,0
87645,340.909090909091,4,2,45,75,1,0
88326,340.909090909091,4,2,45,75,1,0
89348,363.636363636364,4,2,45,75,1,0
89530,340.909090909091,4,2,45,75,1,0
89870,337.078651685393,4,2,45,75,1,0
90207,306.122448979592,4,2,45,75,1,0
90360,340.909090909091,4,2,45,75,1,0
90360,-125,4,2,45,75,0,0
90445,-125,4,2,45,5,0,0
90871,-125,4,2,45,40,0,0

[Colours]
Combo1 : 57,150,52
Combo2 : 240,120,0
Combo3 : 107,112,143
Combo4 : 30,65,232

[HitObjects]
149,122,1059,6,0,B|208:112|206:162|268:147,1,119.999996337891,6|2,1:2|0:0,0:0:0:0:
314,53,1571,1,0,0:0:0:0:
314,53,1741,2,0,P|348:37|378:32,1,59.9999981689454,2|0,0:0|0:0,0:0:0:0:
425,155,2082,2,0,P|389:147|359:131,1,59.9999981689454,2|0,0:0|0:0,0:0:0:0:
496,103,2423,6,0,B|514:145|514:145|505:243,1,119.999996337891,2|2,0:0|0:0,0:0:0:0:
424,275,2934,1,0,0:0:0:0:
424,275,3105,2,0,P|390:254|348:249,1,59.9999981689454,2|0,1:2|0:0,0:0:0:0:
317,332,3446,2,0,P|282:346|252:349,1,59.9999981689454,2|0,0:0|0:0,0:0:0:0:
206,272,3786,6,0,P|224:321|163:369,1,119.999996337891,2|2,1:2|0:0,0:0:0:0:
112,288,4298,1,0,0:0:0:0:
112,288,4468,2,0,L|118:216,1,59.9999981689454,2|0,0:0|0:0,0:0:0:0:
11,169,4809,2,0,L|16:240,1,59.9999981689454,2|0,0:0|0:0,0:0:0:0:
133,150,5150,6,0,L|123:4,1,119.999996337891,2|2,0:0|0:0,0:0:0:0:
23,78,5661,1,0,0:0:0:0:
23,78,5832,2,0,P|67:92|87:93,1,59.9999981689454,2|0,0:0|0:0,0:0:0:0:
174,32,6173,2,0,P|217:34|248:47,1,59.9999981689454,2|0,1:2|0:0,0:0:0:0:
298,154,6514,5,8,1:2:0:0:
298,154,6879,5,8,1:2:0:0:
267,323,7047,1,8,0:0:0:0:
143,185,7216,1,8,1:2:0:0:
172,368,7384,1,8,0:0:0:0:
222,130,7553,1,8,1:2:0:0:
100,317,7721,1,8,0:0:0:0:
146,88,7878,5,8,1:2:0:0:
247,340,8047,1,8,0:0:0:0:
286,79,8217,1,8,1:2:0:0:
179,289,8388,1,8,0:0:0:0:
216,45,8558,1,8,1:2:0:0:
319,297,8729,1,8,0:0:0:0:
283,0,8899,1,8,1:2:0:0:
122,235,9070,1,8,0:0:0:0:
396,178,9240,5,8,1:2:0:0:
137,71,9411,1,8,0:0:0:0:
247,340,9581,1,8,1:2:0:0:
362,21,9752,1,8,0:0:0:0:
324,374,9922,1,8,1:2:0:0:
215,36,10092,1,8,0:0:0:0:
168,373,10263,1,0,1:2:0:0:
303,99,10433,1,0,1:2:0:0:
405,343,10604,5,8,1:2:0:0:
405,343,10689,1,0,1:2:0:0:
405,343,10774,2,0,L|399:294,1,37.5000014305115,0|0,1:2|1:2,0:0:0:0:
381,168,10945,2,0,P|354:207|287:227,1,112.500004291535,8|0,1:2|0:0,0:0:0:0:
261,218,11286,2,0,L|267:300,2,75.0000028610231,2|2|2,0:0|0:0|0:0,0:0:0:0:
138,67,11797,6,0,B|158:110|158:110|144:254,1,179.999994506836,6|2,0:0|1:2,0:0:0:0:
25,327,12308,1,10,0:0:0:0:
0,152,12479,2,0,P|44:130|101:138,1,89.9999972534181,2|0,0:0|1:2,0:0:0:0:
229,291,12820,1,2,1:2:0:0:
57,210,12990,1,10,0:0:0:0:
237,91,13161,6,0,L|244:189,1,89.9999972534181,2|0,1:2|0:0,0:0:0:0:
306,360,13502,1,2,1:2:0:0:
145,241,13672,1,10,0:0:0:0:
342,165,13842,1,0,0:0:0:0:
222,372,14013,1,2,1:2:0:0:
165,140,14183,1,2,1:2:0:0:
365,301,14354,1,10,0:0:0:0:
406,92,14524,6,0,P|418:36|404:-3,1,89.9999972534181,2|0,1:2|0:0,0:0:0:0:
254,152,14865,1,2,1:2:0:0:
452,179,15036,1,10,0:0:0:0:
335,25,15206,2,0,L|239:17,1,89.9999972534181,2|0,0:0|1:2,0:0:0:0:
141,154,15547,1,2,1:2:0:0:
326,101,15717,1,10,0:0:0:0:
125,70,15888,6,0,P|76:98|54:140,1,89.9999972534181,2|0,1:2|0:0,0:0:0:0:
197,248,16229,1,2,1:2:0:0:
247,66,16399,1,10,0:0:0:0:
115,205,16570,1,0,0:0:0:0:
66,17,16740,1,2,1:2:0:0:
222,156,16921,1,2,1:2:0:0:
36,242,17082,1,10,0:0:0:0:
160,44,17251,6,0,P|203:45|255:86,1,89.9999972534181,2|0,1:2|0:0,0:0:0:0:
287,224,17592,1,2,1:2:0:0:
144,125,17762,1,10,0:0:0:0:
361,67,17933,2,0,L|355:159,1,89.9999972534181,2|0,0:0|1:2,0:0:0:0:
378,314,18274,1,2,1:2:0:0:
442,128,18444,1,10,0:0:0:0:
266,204,18615,6,0,P|265:249|290:296,1,89.9999972534181,2|0,1:2|0:0,0:0:0:0:
512,319,18956,1,2,1:2:0:0:
354,229,19126,1,10,0:0:0:0:
430,382,19297,1,0,0:0:0:0:
507,194,19467,1,2,1:2:0:0:
283,288,19637,1,2,1:2:0:0:
512,319,19808,1,10,0:0:0:0:
366,147,19978,6,0,B|313:137|288:176|285:180|281:183|261:224|199:214,1,179.999994506836,2|2,1:2|1:2,0:0:0:0:
19,163,20490,1,10,0:0:0:0:
211,135,20660,1,2,0:0:0:0:
0,242,20841,1,0,1:2:0:0:
221,286,21022,1,2,1:2:0:0:
81,94,21181,1,10,0:0:0:0:
30,315,21341,5,2,1:2:0:0:
47,329,21682,5,2,2:2:0:0:
66,344,22023,5,2,1:2:0:0:
144,202,22194,1,8,0:0:0:0:
163,357,22375,1,0,1:0:0:0:
163,357,22466,1,0,1:0:0:0:
163,357,22557,1,0,1:0:0:0:
0,227,22737,6,0,P|39:245|80:242,1,80,6|0,0:0|0:0,0:0:0:0:
105,84,23063,1,2,1:2:0:0:
54,158,23233,1,8,0:0:0:0:
187,120,23403,2,0,L|198:34,1,80,2|0,0:0|1:2,0:0:0:0:
96,4,23728,2,0,L|106:103,1,80,2|8,1:2|0:0,0:0:0:0:
236,195,24068,1,2,1:2:0:0:
272,117,24239,5,2,0:0:0:0:
155,208,24408,2,0,L|166:291,1,80,2|8,1:2|0:0,0:0:0:0:
322,274,24749,2,0,B|336:152|336:152|301:200,1,160,2|0,1:2|1:2,0:0:0:0:
273,336,25260,2,0,P|314:352|363:342,1,80,10|0,0:0|1:2,0:0:0:0:
473,190,25601,5,2,0:0:0:0:
407,241,25794,2,0,L|416:331,1,80,2|8,1:2|0:0,0:0:0:0:
490,272,26112,1,2,0:0:0:0:
393,156,26282,1,2,1:2:0:0:
335,309,26453,2,0,L|425:322,1,80,2|8,1:2|0:0,0:0:0:0:
418,124,26794,6,0,B|378:105|348:139|345:141|342:145|316:179|267:166,1,160,2|0,1:2|1:2,0:0:0:0:
207,76,27305,2,0,L|307:91,1,80,8|2,0:0|0:0,0:0:0:0:
139,134,27646,1,2,1:2:0:0:
120,58,27817,1,2,1:2:0:0:
209,174,27987,1,10,0:0:0:0:
101,204,28158,1,2,1:2:0:0:
207,76,28328,5,2,0:0:0:0:
292,155,28499,2,0,P|296:202|273:244,1,80,2|8,1:2|0:0,0:0:0:0:
130,302,28840,2,0,P|167:276|216:273,1,80,2|0,0:0|1:2,0:0:0:0:
336,368,29180,2,0,P|294:348|268:307,1,80,2|8,1:2|0:0,0:0:0:0:
375,177,29521,6,0,B|383:302|383:302|353:271,1,160,2|0,1:2|1:2,0:0:0:0:
273,192,30033,1,8,0:0:0:0:
319,100,30203,2,0,L|404:87,1,80,2|0,0:0|1:2,0:0:0:0:
454,188,30544,2,0,L|361:174,1,80,2|8,1:2|0:0,0:0:0:0:
227,115,30885,1,2,1:2:0:0:
325,17,31055,5,2,0:0:0:0:
291,168,31226,2,0,P|256:193|199:194,1,80,2|8,1:2|0:0,0:0:0:0:
147,105,31567,2,0,L|231:115,1,80,2|0,0:0|1:2,0:0:0:0:
125,191,31908,2,0,L|42:201,1,80,2|8,1:2|0:0,0:0:0:0:
0,46,32249,1,2,1:2:0:0:
69,122,32419,5,0,0:0:0:0:
173,27,32590,2,0,L|91:40,1,80,2|8,1:2|0:0,0:0:0:0:
174,117,32930,1,2,0:0:0:0:
281,71,33101,1,0,1:2:0:0:
281,71,33184,1,0,1:2:0:0:
281,71,33264,2,0,L|287:115,2,40,8|8|10,0:0|0:0|0:0,0:0:0:0:
412,140,33583,6,0,L|396:329,1,179.999994506836,6|2,0:0|1:2,0:0:0:0:
301,361,34112,1,8,0:0:0:0:
238,269,34288,2,0,L|335:284,1,80,2|0,0:0|1:2,0:0:0:0:
218,352,34651,2,0,L|139:363,1,80,2|8,1:2|0:0,0:0:0:0:
97,210,34983,1,2,1:2:0:0:
153,283,35156,5,2,0:0:0:0:
13,244,35325,2,0,L|24:153,1,80,2|8,1:2|0:0,0:0:0:0:
165,85,35666,2,0,B|178:207|178:207|195:170,1,160,2|0,0:0|1:2,0:0:0:0:
259,64,36177,1,10,0:0:0:0:
193,0,36348,1,2,1:2:0:0:
212,146,36518,5,2,0:0:0:0:
330,115,36689,2,0,L|339:32,1,80,2|8,1:2|0:0,0:0:0:0:
273,216,37030,2,0,P|313:233|355:227,1,80,2|0,0:0|1:2,0:0:0:0:
497,101,37370,2,0,P|455:93|410:112,1,80,2|8,1:2|0:0,0:0:0:0:
476,289,37711,6,0,B|463:171|463:171|445:208,1,160,2|0,1:2|1:2,0:0:0:0:
369,343,38223,1,8,0:0:0:0:
469,373,38393,1,2,0:0:0:0:
311,262,38564,1,2,1:2:0:0:
276,367,38734,1,2,1:2:0:0:
410,250,38905,1,10,0:0:0:0:
222,274,39075,6,0,B|161:282|161:282|123:275|123:275|57:283,1,160,6|0,1:2|1:2,0:0:0:0:
5,157,39586,1,10,0:0:0:0:
97,102,39757,2,0,L|86:186,1,80,2|0,0:0|1:2,0:0:0:0:
167,200,40098,1,2,1:2:0:0:
266,141,40268,1,10,0:0:0:0:
172,0,40439,6,0,B|187:118|187:118|213:64,1,160,2|0,1:2|1:2,0:0:0:0:
331,90,40950,2,0,P|349:127|345:171,1,80,8|2,0:0|0:0,0:0:0:0:
245,286,41291,1,2,1:2:0:0:
264,195,41461,1,2,1:2:0:0:
335,254,41632,1,10,0:0:0:0:
176,222,41802,6,0,L|166:132,1,80,2|0,1:2|0:0,0:0:0:0:
257,26,42143,2,0,L|249:116,1,80,2|8,1:2|0:0,0:0:0:0:
96,99,42484,2,0,P|131:67|174:59,1,80,2|0,0:0|1:2,0:0:0:0:
249,127,42825,2,0,P|286:152|329:154,1,80,2|8,1:2|0:0,0:0:0:0:
463,129,43166,6,0,L|469:47,1,80,2|0,1:2|0:0,0:0:0:0:
344,63,43507,1,2,1:2:0:0:
411,196,43677,2,0,P|454:215|493:209,1,80,12|2,0:0|0:0,0:0:0:0:
322,154,44018,2,0,L|326:209,1,40,4|0,1:2|1:2,0:0:0:0:
377,320,44189,2,0,L|373:270,1,40,0|8,1:2|1:2,0:0:0:0:
238,131,44359,1,10,1:2:0:0:
239,150,44444,1,8,1:2:0:0:
240,169,44530,1,8,1:2:0:0:
242,188,44615,1,8,1:2:0:0:
244,207,44700,5,6,0:0:0:0:
186,320,44870,2,0,P|134:343|83:335,1,100,2|8,0:0|0:0,0:0:0:0:
12,140,45211,5,2,0:0:0:0:
163,233,45382,1,2,1:2:0:0:
55,341,45569,2,0,L|67:235,1,100,2|8,1:2|0:0,0:0:0:0:
174,56,45888,1,2,1:2:0:0:
296,165,46064,5,2,0:0:0:0:
284,180,46404,1,2,0:0:0:0:
272,195,46745,1,2,0:0:0:0:
260,210,47086,1,2,0:0:0:0:
248,225,47427,5,6,0:0:0:0:
285,86,47598,2,0,P|328:64|390:71,1,100,2|8,0:0|0:0,0:0:0:0:
499,248,47939,5,2,0:0:0:0:
347,151,48109,1,2,1:2:0:0:
479,6,48279,2,0,P|500:63|488:110,1,100,2|8,1:2|0:0,0:0:0:0:
374,281,48606,1,2,1:2:0:0:
221,154,48791,5,2,0:0:0:0:
225,132,49131,1,2,0:0:0:0:
229,110,49472,1,2,0:0:0:0:
149,130,49643,1,2,0:0:0:0:
69,150,49813,1,2,0:0:0:0:
64,134,50154,5,6,0:0:0:0:
139,267,50325,2,0,P|89:289|34:280,1,100,2|8,0:0|0:0,0:0:0:0:
161,41,50666,5,2,0:0:0:0:
231,235,50836,1,2,1:2:0:0:
57,115,51000,2,0,L|67:11,1,100,2|8,1:2|0:0,0:0:0:0:
254,117,51341,1,2,1:2:0:0:
142,275,51517,5,2,0:0:0:0:
119,271,51858,1,2,0:0:0:0:
96,267,52199,1,2,0:0:0:0:
73,263,52540,1,2,0:0:0:0:
50,259,52881,6,0,L|45:157,1,100,6|0,0:0|0:0,0:0:0:0:
201,21,53222,5,10,0:0:0:0:
138,304,53393,1,0,1:2:0:0:
295,44,53563,5,10,0:0:0:0:
353,331,53733,1,0,1:2:0:0:
438,120,53904,6,0,L|424:9,1,100,10|0,0:0|0:0,0:0:0:0:
347,226,54245,5,10,0:2:0:0:
347,226,54321,1,0,1:2:0:0:
347,226,54398,2,0,L|408:237,1,50,0|0,1:2|1:2,0:0:0:0:
222,96,54585,1,8,0:2:0:0:
222,96,54661,1,8,0:2:0:0:
222,96,54736,1,0,1:2:0:0:
169,302,54927,5,2,1:2:0:0:
333,41,55113,1,8,0:0:0:0:
47,238,55274,1,8,0:0:0:0:
386,332,55436,1,8,0:0:0:0:
180,29,55608,6,0,P|121:4|69:10,1,110.000003356934,2|0,1:2|0:0,0:0:0:0:
245,251,55948,2,0,P|307:250|362:205,1,110.000003356934,10|0,1:2|0:0,0:0:0:0:
82,96,56289,1,2,1:2:0:0:
129,351,56460,1,0,0:0:0:0:
277,159,56630,1,10,1:2:0:0:
7,218,56801,6,0,L|16:336,1,110.000003356934,2|0,0:0|1:2,0:0:0:0:
171,138,57142,2,0,L|180:24,1,110.000003356934,2|8,0:0|1:2,0:0:0:0:
95,299,57483,2,0,P|148:320|216:304,1,110.000003356934,2|0,0:0|1:2,0:0:0:0:
280,57,57823,1,2,0:0:0:0:
92,197,57994,1,10,1:2:0:0:
302,292,58164,1,0,0:0:0:0:
179,28,58335,6,0,P|118:35|69:71,1,110.000003356934,2|0,1:2|0:0,0:0:0:0:
255,232,58676,2,0,P|309:258|367:251,1,110.000003356934,10|0,1:2|0:0,0:0:0:0:
350,8,59017,1,2,1:2:0:0:
177,172,59187,1,0,0:0:0:0:
412,116,59358,2,0,P|436:62|432:2,1,110.000003356934,10|0,1:2|0:0,0:0:0:0:
144,101,59698,6,0,L|151:228,1,110.000003356934,2|0,1:2|0:0,0:0:0:0:
351,366,60039,2,0,L|360:254,1,110.000003356934,10|0,1:2|0:0,0:0:0:0:
334,29,60380,5,0,1:2:0:0:
334,29,60465,1,8,0:2:0:0:
334,29,60551,2,0,L|267:40,1,55.0000016784668,8|8,0:2|0:0,0:0:0:0:
159,117,60721,2,0,L|225:127,1,55.0000016784668,0|2,1:2|0:0,0:0:0:0:
343,187,60892,2,0,L|352:134,1,36.6666677856446,8|8,0:0|0:0,0:0:0:0:
442,22,61062,6,0,L|455:136,1,110.000003356934,2|0,1:2|0:0,0:0:0:0:
465,226,61318,1,2,0:0:0:0:
465,226,61403,2,0,P|408:203|347:217,1,110.000003356934,8|2,1:2|0:0,0:0:0:0:
170,296,61744,6,0,P|218:338|278:343,1,110.000003356934,2|0,1:2|0:0,0:0:0:0:
253,250,62000,1,2,0:0:0:0:
253,250,62085,2,0,L|239:128,1,110.000003356934,8|2,1:2|0:0,0:0:0:0:
42,9,62426,5,2,1:2:0:0:
81,269,62596,1,0,0:0:0:0:
81,269,62681,1,2,0:0:0:0:
81,269,62767,1,8,1:2:0:0:
222,47,62937,1,2,0:0:0:0:
1,175,63108,5,2,1:2:0:0:
253,250,63278,1,0,0:0:0:0:
253,250,63363,1,2,0:0:0:0:
253,250,63448,1,8,1:2:0:0:
126,51,63619,1,2,0:0:0:0:
184,320,63789,6,0,P|232:347|286:344,1,110.000003356934,2|0,1:2|0:0,0:0:0:0:
393,136,64130,1,8,1:2:0:0:
162,225,64301,1,2,0:0:0:0:
424,280,64471,2,0,P|465:235|468:172,1,110.000003356934,2|0,1:2|0:0,0:0:0:0:
251,38,64812,1,8,1:2:0:0:
334,252,64983,1,2,0:0:0:0:
468,73,65153,5,2,1:2:0:0:
140,119,65323,1,2,0:0:0:0:
424,280,65494,1,10,1:2:0:0:
76,229,65664,1,2,0:0:0:0:
381,30,65835,5,2,1:2:0:0:
385,73,65920,1,0,1:2:0:0:
374,115,66005,1,8,1:2:0:0:
347,150,66090,1,8,1:2:0:0:
307,168,66176,2,0,L|235:180,3,55.0000016784668,8|0|0|0,1:2|1:2|1:2|1:2,0:0:0:0:
186,46,66517,6,0,P|252:45|309:95,1,110.000003356934,6|0,1:2|0:0,0:0:0:0:
122,238,66858,2,0,P|70:263|12:256,1,110.000003356934,10|0,1:2|0:0,0:0:0:0:
104,23,67198,1,2,1:2:0:0:
307,168,67369,1,0,0:0:0:0:
58,172,67539,1,10,1:2:0:0:
309,5,67710,6,0,L|420:23,1,110.000003356934,2|0,0:0|1:2,0:0:0:0:
250,227,68051,2,0,L|138:242,1,110.000003356934,2|8,0:0|1:2,0:0:0:0:
400,150,68392,2,0,P|425:206|409:275,1,110.000003356934,2|0,0:0|1:2,0:0:0:0:
182,320,68733,1,2,0:0:0:0:
329,90,68903,1,10,1:2:0:0:
379,326,69073,1,0,0:0:0:0:
128,143,69244,6,0,P|135:75|176:30,1,110.000003356934,2|0,1:2|0:0,0:0:0:0:
104,255,69585,2,0,P|40:279|-12:270,1,110.000003356934,10|0,1:2|0:0,0:0:0:0:
208,222,69926,2,0,P|260:262|280:320,1,110.000003356934,2|0,1:2|0:0,0:0:0:0:
25,175,70267,1,10,1:2:0:0:
249,122,70437,1,2,0:0:0:0:
120,335,70608,5,2,1:2:0:0:
52,95,70778,1,2,0:0:0:0:
271,302,70948,2,0,L|285:188,1,110.000003356934,10|0,1:2|0:0,0:0:0:0:
311,31,71289,5,2,1:2:0:0:
375,258,71460,1,8,0:0:0:0:
375,258,71545,1,8,0:0:0:0:
375,258,71630,2,0,L|381:199,1,55.0000016784668,8|0,0:0|0:0,0:0:0:0:
400,48,71801,1,8,0:0:0:0:
400,48,71886,1,8,0:0:0:0:
400,48,71971,6,0,P|463:63|498:107,1,110.000003356934,2|0,1:2|0:0,0:0:0:0:
480,184,72227,1,2,0:0:0:0:
480,184,72312,2,0,L|466:314,1,110.000003356934,8|2,1:2|0:0,0:0:0:0:
316,340,72653,6,0,P|279:289|285:213,1,110.000003356934,2|0,1:2|0:0,0:0:0:0:
293,154,72909,1,2,0:0:0:0:
293,154,72994,2,0,L|170:169,1,110.000003356934,8|2,1:2|0:0,0:0:0:0:
133,365,73335,5,2,1:2:0:0:
360,239,73505,1,0,0:0:0:0:
360,239,73590,1,2,0:0:0:0:
360,239,73676,1,8,1:2:0:0:
88,162,73846,1,2,0:0:0:0:
314,343,74017,5,2,1:2:0:0:
309,80,74187,1,0,0:0:0:0:
309,80,74272,1,2,0:0:0:0:
309,80,74358,1,8,1:2:0:0:
106,270,74528,1,2,0:0:0:0:
360,239,74698,6,0,P|383:184|376:127,1,110.000003356934,2|0,1:2|0:0,0:0:0:0:
191,15,75039,1,8,1:2:0:0:
258,230,75210,1,2,0:0:0:0:
401,20,75380,2,0,P|353:0|292:7,1,110.000003356934,2|0,1:2|0:0,0:0:0:0:
140,172,75721,1,8,1:2:0:0:
320,84,75892,1,2,0:0:0:0:
112,16,76062,5,12,1:2:0:0:
112,16,76147,1,8,1:2:0:0:
112,16,76233,2,0,L|120:80,1,55.0000016784668,8|8,1:2|1:2,0:0:0:0:
240,220,76403,1,8,1:2:0:0:
240,220,76488,1,8,1:2:0:0:
240,220,76573,2,0,L|248:156,1,55.0000016784668,8|8,1:2|1:2,0:0:0:0:
68,272,76744,6,0,L|132:280,3,55.0000016784668,8|0|0|0,1:2|1:2|1:2|1:2,0:0:0:0:
248,356,77085,2,0,L|184:364,3,55.0000016784668,0|0|0|0,1:2|1:2|1:2|1:2,0:0:0:0:
328,256,77426,5,4,1:2:0:0:
256,192,77511,12,0,78789,0:0:0:0:
167,164,79471,6,0,L|174:256,2,85.0000016212464,2|2|2,0:0|0:0|0:0,0:0:0:0:
112,24,79983,6,0,B|80:72|80:72|91:248,1,200,6|2,0:0|1:2,0:0:0:0:
210,363,80494,1,10,0:0:0:0:
260,180,80664,2,0,P|219:159|155:169,1,100,2|0,0:0|1:2,0:0:0:0:
316,326,81005,1,2,1:2:0:0:
381,137,81198,1,10,0:0:0:0:
202,263,81351,6,0,L|211:383,1,100,2|0,1:2|0:0,0:0:0:0:
429,282,81687,1,2,1:2:0:0:
291,103,81857,1,10,0:0:0:0:
301,314,82028,1,0,0:0:0:0:
466,170,82198,1,2,1:2:0:0:
262,189,82369,1,2,1:2:0:0:
463,74,82539,1,10,0:0:0:0:
396,296,82710,6,0,L|383:186,1,100,2|0,1:2|0:0,0:0:0:0:
196,119,83051,1,2,1:2:0:0:
283,302,83221,1,10,0:0:0:0:
369,101,83392,2,0,P|327:63|271:58,1,100,2|0,0:0|1:2,0:0:0:0:
111,197,83732,1,2,1:2:0:0:
292,144,83903,1,10,0:0:0:0:
118,16,84073,6,0,L|106:125,1,100,2|0,1:2|0:0,0:0:0:0:
163,328,84414,1,2,1:2:0:0:
215,131,84585,1,10,0:0:0:0:
62,300,84755,1,0,0:0:0:0:
21,94,84926,1,2,1:2:0:0:
183,252,85096,1,2,1:2:0:0:
233,55,85267,1,10,0:0:0:0:
35,209,85437,6,0,P|41:275|68:305,1,100,6|0,1:2|0:0,0:0:0:0:
258,300,85778,1,2,1:2:0:0:
105,150,85948,1,14,0:0:0:0:
211,368,86119,2,0,P|272:379|321:356,1,100,2|0,0:0|1:2,0:0:0:0:
190,157,86460,1,2,1:2:0:0:
127,337,86630,1,10,0:0:0:0:
272,192,86801,6,0,L|384:182,1,100,2|0,1:2|0:0,0:0:0:0:
380,362,87142,1,2,1:2:0:0:
179,273,87312,1,10,0:0:0:0:
394,180,87478,1,0,0:0:0:0:
282,381,87645,1,2,1:2:0:0:
256,117,87815,1,2,1:2:0:0:
266,367,87985,1,10,0:0:0:0:
448,56,88156,6,0,B|477:102|477:102|466:258,1,200,6|2,1:2|0:0,0:0:0:0:
241,209,88666,1,2,1:2:0:0:
367,7,88837,1,2,1:2:0:0:
390,278,89007,1,10,1:2:0:0:
123,151,89178,1,2,0:0:0:0:
375,114,89348,1,0,1:2:0:0:
212,313,89529,5,10,0:0:0:0:
192,323,89870,5,10,0:0:0:0:
172,333,90207,5,10,0:0:0:0:
53,170,90360,2,0,B|119:138|154:189|163:200|171:210|212:258|272:235,1,240,10|0,0:0|0:0,0:0:0:0:
