osu file format v14

[General]
AudioFilename: audio.mp3
AudioLeadIn: 0
PreviewTime: 55522
Countdown: 0
SampleSet: Soft
StackLeniency: 0.7
Mode: 0
LetterboxInBreaks: 0
WidescreenStoryboard: 1

[Editor]
Bookmarks: 6514,10605
DistanceSpacing: 1
BeatDivisor: 4
GridSize: 32
TimelineZoom: 4.100004

[Metadata]
Title:Routine
TitleUnicode:Routine
Artist:Silent Siren
ArtistUnicode:Silent Siren
Creator:Kuki1537
Version:Normal
Source:
Tags:サイレントサイレン major 3rd third album j-pop japanese female vocal サイサイ pop jpop cut version
BeatmapID:2272134
BeatmapSetID:1083437

[Difficulty]
HPDrainRate:3
CircleSize:3.5
OverallDifficulty:4
ApproachRate:5.5
SliderMultiplier:1
SliderTickRate:1

[Events]
//Background and Video events
0,0,"bg.jpg",0,0
//Break Periods
//Storyboard Layer 0 (Background)
//Storyboard Layer 1 (Fail)
//Storyboard Layer 2 (Pass)
//Storyboard Layer 3 (Foreground)
//Storyboard Layer 4 (Overlay)
//Storyboard Sound Samples

[TimingPoints]
-304,340.909090909091,4,2,45,61,1,0
1059,-100,4,2,45,61,0,0
6514,365.853658536585,4,2,45,61,1,0
6879,337.078651685393,4,2,45,46,1,0
6879,-100,4,2,45,46,0,0
7721,315.789473684211,4,2,45,46,1,0
7877,340.909090909091,4,2,45,58,1,0
7877,-100,4,2,45,58,0,0
9241,-100,4,2,45,75,0,0
11286,-100,4,2,45,53,0,0
11798,-100,4,2,45,75,0,0
16741,361.44578313253,4,2,45,75,1,0
16921,322.58064516129,4,2,45,75,1,0
17081,340.909090909091,4,2,45,75,1,0
17422,340.909090909091,4,2,45,75,1,0
20661,361.44578313253,4,2,45,75,1,0
21022,319.148936170213,4,2,45,75,1,0
21342,340.909090909091,4,2,45,75,1,0
22194,363.636363636364,4,2,45,75,1,0
22737,326.086956521739,4,2,45,75,1,0
23063,340.909090909091,4,2,45,75,1,0
23403,-95.6022944550669,4,2,45,75,0,0
23728,340.909090909091,4,2,45,75,1,0
24238,340.909090909091,4,2,45,75,1,0
25601,387.096774193548,4,2,45,75,1,0
25794,298.507462686567,4,2,45,75,1,0
25794,-106.951871657754,4,2,45,75,0,0
25868,-106.951871657754,4,2,45,5,0,0
25942,340.909090909091,4,2,45,75,1,0
25942,-100,4,2,45,5,0,0
26112,-100,4,2,45,75,0,0
26965,340.909090909091,4,2,45,75,1,0
32930,-98.0392156862745,4,2,45,75,0,0
33105,319.148936170213,4,2,45,75,1,0
33583,352.941176470588,4,2,45,75,1,0
34465,372.670807453416,4,2,45,75,1,0
34650,333.333333333333,4,2,45,75,1,0
34983,346.820809248555,4,2,45,75,1,0
34983,-99.304865938431,4,2,45,75,0,0
35155,340.909090909091,4,2,45,75,1,0
45382,375,4,2,45,75,1,0
45569,307.692307692308,4,2,45,75,1,0
45722,333.333333333333,4,2,45,75,1,0
45888,352.941176470588,4,2,45,75,1,0
46064,340.909090909091,4,2,45,56,1,0
46064,-100,4,2,45,56,0,0
47428,-100,4,2,45,75,0,0
48279,319.148936170213,4,2,45,75,1,0
48438,337.078651685393,4,2,45,75,1,0
48606,370.37037037037,4,2,45,75,1,0
48791,340.909090909091,4,2,45,56,1,0
48791,-100,4,2,45,56,0,0
50155,-100,4,2,45,75,0,0
50836,329.67032967033,4,2,45,75,1,0
51165,352.941176470588,4,2,45,75,1,0
51518,340.909090909091,4,2,45,56,1,0
51519,-100,4,2,45,56,0,0
52883,-100,4,2,45,75,0,0
54245,307.692307692308,4,2,45,75,1,0
54245,-111.111111111111,4,2,45,75,0,0
54321,-111.111111111111,4,2,45,5,0,0
54398,375,4,2,45,75,1,0
54398,-100,4,2,45,5,0,0
54586,300,4,2,45,75,1,0
54736,382.165605095541,4,2,45,75,1,0
54927,372.670807453416,4,2,45,75,1,0
55112,324.324324324324,4,2,45,75,1,0
55436,344.827586206897,4,2,45,75,1,0
55608,340.909090909091,4,2,45,83,1,0
55608,-100,4,2,45,83,0,1
76405,-100,4,2,45,75,0,1
76746,-100,4,2,45,69,0,1
77087,-100,4,2,45,63,0,1
77426,-100,4,2,45,63,0,0
79473,-100,4,2,45,53,0,0
79985,-100,4,2,45,75,0,0
81005,387.096774193548,4,2,45,75,1,0
81198,307.692307692308,4,2,45,75,1,0
81351,333.333333333333,4,2,45,75,1,0
81351,-101.010101010101,4,2,45,75,0,0
81517,340.909090909091,4,2,45,75,1,0
87312,333.333333333333,4,2,45,75,1,0
87645,340.909090909091,4,2,45,75,1,0
88326,340.909090909091,4,2,45,75,1,0
89348,363.636363636364,4,2,45,75,1,0
89530,340.909090909091,4,2,45,75,1,0
89870,337.078651685393,4,2,45,75,1,0
90207,306.122448979592,4,2,45,75,1,0
90360,340.909090909091,4,2,45,75,1,0
90445,-100,4,2,45,5,0,0
90871,-100,4,2,45,40,0,0

[Colours]
Combo1 : 57,150,52
Combo2 : 240,120,0
Combo3 : 107,112,143
Combo4 : 30,65,232

[HitObjects]
40,89,1059,6,0,P|74:125|131:130,1,100,6|2,1:2|0:0,0:0:0:0:
202,72,1741,1,2,0:0:0:0:
299,51,2082,1,2,0:0:0:0:
388,95,2423,2,0,L|374:211,1,100,2|2,0:0|0:0,0:0:0:0:
414,286,3105,2,0,P|358:292|315:274,1,100,2|2,1:2|0:0,0:0:0:0:
273,186,3786,6,0,P|217:179|174:197,1,100,2|2,1:2|0:0,0:0:0:0:
149,292,4468,1,2,0:0:0:0:
62,342,4809,1,2,0:0:0:0:
1,262,5150,2,0,B|-13:222|-13:222|-4:147,1,100,2|2,0:0|0:0,0:0:0:0:
37,75,5832,1,2,0:0:0:0:
129,36,6173,1,2,1:2:0:0:
223,67,6514,6,0,L|237:179,1,100,8|8,1:2|1:2,0:0:0:0:
244,215,7047,1,8,0:0:0:0:
244,215,7216,2,0,L|180:226,2,50,8|8|8,1:2|0:0|1:2,0:0:0:0:
331,166,7878,2,0,P|378:147|434:164,1,100,8|8,1:2|1:2,0:0:0:0:
459,194,8388,1,8,0:0:0:0:
459,194,8558,2,0,L|515:202,2,50,8|8|8,1:2|0:0|1:2,0:0:0:0:
422,287,9240,6,0,B|411:358|411:358|366:367,1,100,8|8,1:2|1:2,0:0:0:0:
333,372,9752,1,8,0:0:0:0:
333,372,9922,2,0,L|326:321,2,50,8|8|0,1:2|0:0|1:2,0:0:0:0:
238,339,10604,2,0,L|175:328,1,50,8|0,1:2|1:2,0:0:0:0:
151,296,10945,1,8,1:2:0:0:
56,265,11286,2,0,L|45:327,2,50,2|2|2,0:0|0:0|0:0,0:0:0:0:
40,217,11797,6,0,L|26:106,1,100,6|2,0:0|1:2,0:0:0:0:
64,80,12308,2,0,L|121:70,1,50,10|2,0:0|0:0,0:0:0:0:
178,147,12820,2,0,L|188:207,1,50,2|10,1:2|0:0,0:0:0:0:
225,226,13161,2,0,L|338:246,1,100,2|2,1:2|1:2,0:0:0:0:
372,254,13672,1,10,0:0:0:0:
479,270,14013,1,2,1:2:0:0:
479,270,14183,2,0,L|485:214,1,50,2|10,1:2|0:0,0:0:0:0:
467,174,14524,6,0,B|461:124|461:124|475:70,1,100,2|2,1:2|1:2,0:0:0:0:
501,34,15036,2,0,L|447:27,1,50,10|2,0:0|0:0,0:0:0:0:
369,85,15547,2,0,L|311:94,1,50,2|10,1:2|0:0,0:0:0:0:
286,54,15888,2,0,P|257:27|196:30,1,100,2|2,1:2|1:2,0:0:0:0:
156,55,16399,1,10,0:0:0:0:
64,77,16741,2,0,L|73:142,1,50,2|2,1:2|1:2,0:0:0:0:
112,157,17082,1,10,0:0:0:0:
112,157,17251,6,0,P|130:208|101:257,1,100,2|2,1:2|1:2,0:0:0:0:
75,282,17762,2,0,L|68:336,1,50,10|2,0:0|0:0,0:0:0:0:
158,374,18274,2,0,L|217:368,1,50,2|10,1:2|0:0,0:0:0:0:
242,332,18615,2,0,L|231:231,1,100,2|2,1:2|1:2,0:0:0:0:
247,185,19126,1,10,0:0:0:0:
341,218,19467,1,2,1:2:0:0:
341,218,19637,2,0,L|346:276,1,50,2|10,1:2|0:0,0:0:0:0:
359,310,19978,6,0,P|410:350|466:347,1,100,2|2,1:2|1:2,0:0:0:0:
491,339,20490,1,10,0:0:0:0:
509,240,20841,1,0,1:2:0:0:
509,240,21022,2,0,L|502:179,1,50,2|10,1:2|0:0,0:0:0:0:
473,149,21341,1,2,1:2:0:0:
502,53,21682,1,2,2:2:0:0:
411,10,22023,1,2,1:2:0:0:
411,10,22194,2,0,P|331:27|298:13,1,100,8|0,0:0|1:0,0:0:0:0:
269,5,22737,6,0,L|165:18,1,100,6|2,0:0|1:2,0:0:0:0:
70,48,23403,2,0,P|62:107|86:145,1,100,2|2,0:0|1:2,0:0:0:0:
178,167,24068,2,0,L|186:112,2,50,2|2|2,1:2|0:0|1:2,0:0:0:0:
99,229,24749,2,0,B|22:239|22:239|17:263,1,100,2|0,1:2|1:2,0:0:0:0:
9,310,25260,1,10,0:0:0:0:
106,330,25601,5,2,0:0:0:0:
106,330,25794,2,0,P|133:354|196:351,1,100,2|2,1:2|0:0,0:0:0:0:
233,321,26282,2,0,P|282:295|334:311,1,100,2|8,1:2|0:0,0:0:0:0:
364,333,26794,2,0,L|353:222,1,100,2|0,1:2|1:2,0:0:0:0:
393,141,27476,1,2,0:0:0:0:
393,141,27646,2,0,P|338:132|287:162,1,100,2|10,1:2|0:0,0:0:0:0:
271,191,28158,1,2,1:2:0:0:
271,191,28328,6,0,L|198:202,1,50,2|2,0:0|1:2,0:0:0:0:
128,162,28840,1,2,0:0:0:0:
33,194,29180,1,2,1:2:0:0:
34,294,29521,2,0,P|68:324|141:320,1,100,2|0,1:2|1:2,0:0:0:0:
192,258,30203,2,0,B|238:232|238:232|308:243,1,100,2|2,0:0|1:2,0:0:0:0:
358,306,30885,6,0,L|418:313,1,50,2|2,1:2|0:0,0:0:0:0:
453,291,31226,1,2,1:2:0:0:
502,203,31567,2,0,P|475:192|408:202,1,100,2|2,0:0|1:2,0:0:0:0:
306,189,32249,1,2,1:2:0:0:
215,230,32590,1,2,1:2:0:0:
125,185,32930,2,0,P|95:153|94:97,1,100,2|8,0:0|0:0,0:0:0:0:
111,52,33424,1,10,0:0:0:0:
111,52,33583,6,0,L|215:41,1,100,6|2,0:0|1:2,0:0:0:0:
298,88,34288,1,2,0:0:0:0:
370,19,34651,1,2,1:2:0:0:
472,19,34983,2,0,L|481:69,1,50,2|2,1:2|0:0,0:0:0:0:
465,115,35325,1,2,1:2:0:0:
388,179,35666,2,0,L|375:287,1,100,2|0,0:0|1:2,0:0:0:0:
393,325,36177,6,0,L|448:335,2,50,10|2|2,0:0|1:2|0:0,0:0:0:0:
357,361,36689,1,2,1:2:0:0:
280,297,37030,2,0,P|240:279|171:291,1,100,2|2,0:0|1:2,0:0:0:0:
87,303,37711,2,0,L|77:201,1,100,2|0,1:2|1:2,0:0:0:0:
64,105,38393,2,0,L|10:113,2,50,2|2|2,0:0|1:2|1:2,0:0:0:0:
99,69,38905,1,10,0:0:0:0:
99,69,39075,2,0,L|156:61,1,50,6|0,1:2|0:0,0:0:0:0:
250,45,39586,5,10,0:0:0:0:
250,45,39757,2,0,P|292:26|360:38,1,100,2|2,0:0|1:2,0:0:0:0:
388,52,40268,1,10,0:0:0:0:
388,52,40439,2,0,L|401:160,1,100,2|0,1:2|1:2,0:0:0:0:
452,236,41120,2,0,L|512:228,2,50,2|2|2,0:0|1:2|1:2,0:0:0:0:
416,271,41632,1,10,0:0:0:0:
416,271,41802,6,0,P|372:310|315:306,1,100,2|2,1:2|1:2,0:0:0:0:
249,256,42484,2,0,L|239:357,1,100,2|2,0:0|1:2,0:0:0:0:
140,357,43166,2,0,L|131:302,1,50,2|0,1:2|0:0,0:0:0:0:
113,260,43507,1,2,1:2:0:0:
113,260,43677,2,0,P|56:235|1:249,2,100,12|4|10,0:0|1:2|1:2,0:0:0:0:
184,190,44700,6,0,L|250:200,2,50,6|2|8,0:0|0:0|0:0,0:0:0:0:
142,161,45211,1,2,0:0:0:0:
142,161,45382,2,0,L|135:109,1,50,2|2,1:2|1:2,0:0:0:0:
164,76,45722,2,0,L|171:24,1,50,8|2,0:0|1:2,0:0:0:0:
351,274,47427,6,0,L|344:335,2,50,6|2|8,0:0|0:0|0:0,0:0:0:0:
386,238,47939,1,2,0:0:0:0:
386,238,48109,2,0,P|415:238|441:230,1,50,2|2,1:2|1:2,0:0:0:0:
460,192,48438,2,0,P|474:166|480:140,1,50,8|2,0:0|1:2,0:0:0:0:
129,140,50154,6,0,P|97:133|68:141,2,50,6|2|8,0:0|0:0|0:0,0:0:0:0:
162,177,50666,1,2,0:0:0:0:
162,177,50836,2,0,L|171:232,1,50,2|2,1:2|1:2,0:0:0:0:
207,254,51165,2,0,L|198:309,1,50,8|2,0:0|1:2,0:0:0:0:
334,95,52881,5,6,0:0:0:0:
243,52,53222,1,10,0:0:0:0:
174,125,53563,1,10,0:0:0:0:
228,208,53904,1,10,0:0:0:0:
326,189,54245,2,0,P|369:182|428:221,1,100,10|8,0:2|0:2,0:0:0:0:
422,307,54927,1,2,1:2:0:0:
422,307,55112,2,0,L|474:318,2,50,8|8|8,0:0|0:0|0:0,0:0:0:0:
372,298,55608,6,0,L|254:315,1,100,2|10,1:2|1:2,0:0:0:0:
195,375,56289,2,0,P|174:336|178:267,1,100,2|10,1:2|1:2,0:0:0:0:
191,234,56801,2,0,L|86:220,1,100,2|2,0:0|0:0,0:0:0:0:
15,156,57483,2,0,B|26:90|26:90|73:74,1,100,2|2,0:0|0:0,0:0:0:0:
106,68,57994,1,10,1:2:0:0:
195,23,58335,5,2,1:2:0:0:
276,81,58676,1,10,1:2:0:0:
366,38,59017,1,2,1:2:0:0:
449,93,59358,2,0,L|456:154,1,50,10|0,1:2|0:0,0:0:0:0:
442,192,59698,2,0,P|442:250|419:296,1,100,2|10,1:2|1:2,0:0:0:0:
325,296,60380,2,0,L|333:359,2,50,0|8|0,1:2|0:2|1:2,0:0:0:0:
285,264,60892,1,8,0:0:0:0:
285,264,61062,6,0,L|192:276,2,75,2|2|2,1:2|0:0|0:0,0:0:0:0:
312,222,61744,2,0,L|321:112,1,100,2|8,1:2|1:2,0:0:0:0:
360,30,62426,2,0,P|394:58|413:107,2,75,2|2|2,1:2|0:0|0:0,0:0:0:0:
311,19,63108,2,0,L|193:31,1,100,2|8,1:2|1:2,0:0:0:0:
112,40,63789,6,0,P|66:75|69:136,1,100,2|8,1:2|1:2,0:0:0:0:
100,152,64301,1,2,0:0:0:0:
100,152,64471,2,0,P|135:186|137:241,1,100,2|8,1:2|1:2,0:0:0:0:
83,318,65153,2,0,L|144:329,1,50,2|2,1:2|0:0,0:0:0:0:
181,315,65494,2,0,L|242:326,1,50,10|2,1:2|0:0,0:0:0:0:
278,312,65835,2,0,L|398:334,1,100,2|8,1:2|1:2,0:0:0:0:
476,337,66517,6,0,B|492:272|492:272|476:222,1,100,6|10,1:2|1:2,0:0:0:0:
448,146,67198,2,0,B|433:106|433:106|447:47,1,100,2|10,1:2|1:2,0:0:0:0:
460,2,67710,2,0,L|349:15,1,100,2|2,0:0|0:0,0:0:0:0:
285,80,68392,2,0,P|246:87|193:58,1,100,2|2,0:0|0:0,0:0:0:0:
171,15,68903,1,10,1:2:0:0:
74,41,69244,5,2,1:2:0:0:
19,125,69585,1,10,1:2:0:0:
38,223,69926,1,2,1:2:0:0:
124,272,70267,2,0,L|130:328,1,50,10|2,1:2|0:0,0:0:0:0:
159,361,70608,2,0,L|215:355,1,50,2|2,1:2|0:0,0:0:0:0:
247,323,70948,2,0,L|236:201,2,100,10|2|8,1:2|1:2|0:0,0:0:0:0:
345,338,71971,6,0,P|374:355|427:347,2,75,2|2|2,1:2|0:0|0:0,0:0:0:0:
339,288,72653,2,0,L|352:181,1,100,2|8,1:2|1:2,0:0:0:0:
415,111,73335,2,0,L|495:119,2,75,2|2|2,1:2|0:0|0:0,0:0:0:0:
377,78,74017,2,0,P|321:44|281:44,1,100,2|8,1:2|1:2,0:0:0:0:
212,109,74698,6,0,B|160:133|160:133|106:125,1,100,2|8,1:2|1:2,0:0:0:0:
68,115,75210,1,2,0:0:0:0:
68,115,75380,2,0,P|74:164|42:226,1,100,2|8,1:2|1:2,0:0:0:0:
22,304,76062,2,0,L|80:294,1,50,12|8,1:2|1:2,0:0:0:0:
119,310,76403,2,0,L|177:300,1,50,8|8,1:2|1:2,0:0:0:0:
206,268,76744,1,8,1:2:0:0:
304,248,77085,1,0,1:2:0:0:
371,322,77426,5,4,1:2:0:0:
256,192,77596,12,0,78789,0:0:0:0:
163,368,79471,6,0,L|214:375,2,50,2|2|2,0:0|0:0|0:0,0:0:0:0:
126,334,79983,6,0,L|132:229,1,100,6|2,0:0|1:2,0:0:0:0:
104,192,80494,2,0,L|97:140,1,50,10|2,0:0|0:0,0:0:0:0:
70,46,81005,2,0,L|137:37,1,50,2|10,1:2|0:0,0:0:0:0:
161,67,81351,2,0,P|188:50|257:57,1,100,2|2,1:2|1:2,0:0:0:0:
293,86,81857,1,10,0:0:0:0:
388,52,82198,1,2,1:2:0:0:
388,52,82369,2,0,L|394:110,1,50,2|10,1:2|0:0,0:0:0:0:
431,135,82710,6,0,L|417:258,1,100,2|2,1:2|1:2,0:0:0:0:
434,282,83221,2,0,L|381:289,1,50,10|2,0:0|0:0,0:0:0:0:
325,368,83732,2,0,L|267:360,1,50,2|10,1:2|0:0,0:0:0:0:
251,317,84073,2,0,P|232:295|152:289,1,100,2|2,1:2|1:2,0:0:0:0:
122,309,84585,1,10,0:0:0:0:
24,324,84926,2,0,L|16:377,2,50,2|2|10,1:2|1:2|0:0,0:0:0:0:
7,276,85437,6,0,P|-10:230|12:172,1,100,6|2,1:2|1:2,0:0:0:0:
38,145,85948,1,14,0:0:0:0:
127,98,86289,1,0,1:2:0:0:
127,98,86460,2,0,L|190:84,1,50,2|10,1:2|0:0,0:0:0:0:
221,109,86801,2,0,P|245:134|320:140,1,100,2|2,1:2|1:2,0:0:0:0:
356,131,87312,1,10,0:0:0:0:
438,73,87645,1,2,1:2:0:0:
438,73,87815,2,0,L|494:82,1,50,2|10,1:2|0:0,0:0:0:0:
510,125,88156,6,0,P|523:177|497:231,1,100,6|2,1:2|0:0,0:0:0:0:
469,251,88666,1,2,1:2:0:0:
374,280,89007,2,0,L|258:266,1,100,10|0,1:2|1:2,0:0:0:0:
244,229,89529,1,10,0:0:0:0:
227,130,89870,1,10,0:0:0:0:
211,31,90207,1,10,0:0:0:0:
211,31,90360,2,0,B|295:12|276:81|369:57,1,150,10|0,0:0|0:0,0:0:0:0:
