osu file format v14

[General]
AudioFilename: audio.mp3
AudioLeadIn: 0
PreviewTime: 55522
Countdown: 0
SampleSet: Soft
StackLeniency: 0.7
Mode: 0
LetterboxInBreaks: 0
WidescreenStoryboard: 1

[Editor]
Bookmarks: 6514,10605
DistanceSpacing: 0.1
BeatDivisor: 4
GridSize: 32
TimelineZoom: 8

[Metadata]
Title:Routine
TitleUnicode:Routine
Artist:Silent Siren
ArtistUnicode:Silent Siren
Creator:Kuki1537
Version:Insane
Source:
Tags:サイレントサイレン major 3rd third album j-pop japanese female vocal サイサイ pop jpop cut version
BeatmapID:2270805
BeatmapSetID:1083437

[Difficulty]
HPDrainRate:4.5
CircleSize:4
OverallDifficulty:8.2
ApproachRate:8.8
SliderMultiplier:1.8
SliderTickRate:1

[Events]
//Background and Video events
0,0,"bg.jpg",0,0
//Break Periods
//Storyboard Layer 0 (Background)
//Storyboard Layer 1 (Fail)
//Storyboard Layer 2 (Pass)
//Storyboard Layer 3 (Foreground)
//Storyboard Layer 4 (Overlay)
//Storyboard Sound Samples

[TimingPoints]
-304,340.909090909091,4,2,45,61,1,0
1059,-142.857142857143,4,2,45,61,0,0
6514,365.853658536585,4,2,45,61,1,0
6879,337.078651685393,4,2,45,46,1,0
6879,-111.111111111111,4,2,45,46,0,0
7721,315.789473684211,4,2,45,46,1,0
7877,340.909090909091,4,2,45,58,1,0
7877,-111.111111111111,4,2,45,58,0,0
9241,-111.111111111111,4,2,45,75,0,0
10945,-125,4,2,45,75,0,0
11286,-125,4,2,45,53,0,0
11797,-111.111111111111,4,2,45,75,0,0
16741,361.44578313253,4,2,45,75,1,0
16741,-111.111111111111,4,2,45,75,0,0
16921,322.58064516129,4,2,45,75,1,0
17081,340.909090909091,4,2,45,75,1,0
17081,-111.111111111111,4,2,45,75,0,0
17422,340.909090909091,4,2,45,75,1,0
17422,-111.111111111111,4,2,45,75,0,0
20661,361.44578313253,4,2,45,75,1,0
20661,-111.111111111111,4,2,45,75,0,0
21022,319.148936170213,4,2,45,75,1,0
21022,-111.111111111111,4,2,45,75,0,0
21342,340.909090909091,4,2,45,75,1,0
21342,-111.111111111111,4,2,45,75,0,0
22194,363.636363636364,4,2,45,75,1,0
22194,-111.111111111111,4,2,45,75,0,0
22737,326.086956521739,4,2,45,75,1,0
22737,-125,4,2,45,75,0,0
23063,340.909090909091,4,2,45,75,1,0
23063,-125,4,2,45,75,0,0
23728,340.909090909091,4,2,45,75,1,0
23728,-125,4,2,45,75,0,0
24238,340.909090909091,4,2,45,75,1,0
24238,-125,4,2,45,75,0,0
25601,387.096774193548,4,2,45,75,1,0
25794,298.507462686567,4,2,45,75,1,0
25794,-125,4,2,45,75,0,0
25942,340.909090909091,4,2,45,75,1,0
25942,-125,4,2,45,75,0,0
26965,340.909090909091,4,2,45,75,1,0
26965,-125,4,2,45,75,0,0
32930,-128.865979381443,4,2,45,75,0,0
33105,319.148936170213,4,2,45,75,1,0
33105,-125,4,2,45,75,0,0
33583,352.941176470588,4,2,45,75,1,0
33583,-111.111111111111,4,2,45,75,0,0
33935,-125,4,2,45,75,0,0
34465,372.670807453416,4,2,45,75,1,0
34650,333.333333333333,4,2,45,75,1,0
34650,-125,4,2,45,75,0,0
34983,346.820809248555,4,2,45,75,1,0
35155,340.909090909091,4,2,45,75,1,0
35155,-125,4,2,45,75,0,0
44700,-99.9999999999999,4,2,45,75,0,0
45382,375,4,2,45,75,1,0
45569,307.692307692308,4,2,45,75,1,0
45722,333.333333333333,4,2,45,75,1,0
45888,352.941176470588,4,2,45,75,1,0
46064,340.909090909091,4,2,45,56,1,0
46064,-99.9999999999999,4,2,45,56,0,0
47427,-99.9999999999999,4,2,45,75,0,0
48279,319.148936170213,4,2,45,75,1,0
48438,337.078651685393,4,2,45,75,1,0
48606,370.37037037037,4,2,45,75,1,0
48791,340.909090909091,4,2,45,56,1,0
48791,-99.9999999999999,4,2,45,56,0,0
50154,-99.9999999999999,4,2,45,75,0,0
50836,329.67032967033,4,2,45,75,1,0
51165,352.941176470588,4,2,45,75,1,0
51518,340.909090909091,4,2,45,56,1,0
51519,-99.9999999999999,4,2,45,56,0,0
52883,-99.9999999999999,4,2,45,75,0,0
54245,307.692307692308,4,2,45,75,1,0
54398,375,4,2,45,75,1,0
54586,300,4,2,45,75,1,0
54736,382.165605095541,4,2,45,75,1,0
54927,372.670807453416,4,2,45,75,1,0
55112,324.324324324324,4,2,45,75,1,0
55436,344.827586206897,4,2,45,75,1,0
55608,340.909090909091,4,2,45,83,1,0
55608,-90.9090909090909,4,2,45,83,0,1
76405,-90.9090909090909,4,2,45,75,0,1
76746,-90.9090909090909,4,2,45,69,0,1
77087,-90.9090909090909,4,2,45,63,0,1
77426,-90.9090909090909,4,2,45,63,0,0
79471,-117.647058823529,4,2,45,53,0,0
79983,-100,4,2,45,75,0,0
81005,387.096774193548,4,2,45,75,1,0
81198,307.692307692308,4,2,45,75,1,0
81351,333.333333333333,4,2,45,75,1,0
81351,-101.010101010101,4,2,45,75,0,0
81517,340.909090909091,4,2,45,75,1,0
87312,333.333333333333,4,2,45,75,1,0
87645,340.909090909091,4,2,45,75,1,0
88326,340.909090909091,4,2,45,75,1,0
89348,363.636363636364,4,2,45,75,1,0
89530,340.909090909091,4,2,45,75,1,0
89870,337.078651685393,4,2,45,75,1,0
90207,306.122448979592,4,2,45,75,1,0
90360,340.909090909091,4,2,45,75,1,0
90360,-125,4,2,45,75,0,0
90445,-125,4,2,45,5,0,0
90871,-125,4,2,45,40,0,0

[Colours]
Combo1 : 57,150,52
Combo2 : 240,120,0
Combo3 : 107,112,143
Combo4 : 30,65,232

[HitObjects]
70,188,1059,6,0,P|97:222|199:227,1,125.999996154785,6|2,1:2|0:0,0:0:0:0:
219,147,1571,1,0,0:0:0:0:
219,147,1741,2,0,L|145:158,1,62.9999980773926,2|0,0:0|0:0,0:0:0:0:
262,224,2082,2,0,L|336:235,1,62.9999980773926,2|0,0:0|0:0,0:0:0:0:
419,194,2423,6,0,B|382:159|382:159|291:145,1,125.999996154785,2|2,0:0|0:0,0:0:0:0:
344,238,2934,1,0,0:0:0:0:
344,238,3105,2,0,P|353:279|343:311,1,62.9999980773926,2|0,1:2|0:0,0:0:0:0:
426,315,3446,2,0,P|409:353|383:374,1,62.9999980773926,2|0,0:0|0:0,0:0:0:0:
315,372,3786,6,0,B|246:383|260:345|190:355,1,125.999996154785,2|2,1:2|0:0,0:0:0:0:
107,332,4298,1,0,0:0:0:0:
107,332,4468,2,0,P|85:296|85:255,1,62.9999980773926,2|0,0:0|0:0,0:0:0:0:
168,272,4809,2,0,P|170:229|194:196,1,62.9999980773926,2|0,0:0|0:0,0:0:0:0:
254,173,5150,6,0,L|100:157,1,125.999996154785,2|2,0:0|0:0,0:0:0:0:
52,114,5661,1,0,0:0:0:0:
52,114,5832,2,0,L|43:42,1,62.9999980773926,2|0,0:0|0:0,0:0:0:0:
143,13,6173,2,0,L|136:80,1,62.9999980773926,2|0,1:2|0:0,0:0:0:0:
128,159,6514,5,8,1:2:0:0:
128,159,6879,6,0,P|133:211|165:250,1,80.9999975280763,8|8,1:2|0:0,0:0:0:0:
302,173,7216,2,0,P|252:165|213:178,1,80.9999975280763,8|8,1:2|0:0,0:0:0:0:
211,381,7553,1,8,1:2:0:0:
264,251,7721,1,8,0:0:0:0:
31,328,7877,6,0,P|67:349|127:341,1,80.9999975280763,8|8,1:2|0:0,0:0:0:0:
102,157,8217,2,0,L|86:272,1,80.9999975280763,8|8,1:2|0:0,0:0:0:0:
288,336,8558,1,8,1:2:0:0:
221,137,8729,1,8,0:0:0:0:
162,290,8899,1,8,1:2:0:0:
351,227,9070,1,8,0:0:0:0:
236,61,9240,6,0,P|217:103|223:144,1,80.9999975280763,8|8,1:2|0:0,0:0:0:0:
361,50,9581,1,8,1:2:0:0:
329,246,9752,1,8,0:0:0:0:
451,27,9922,1,8,1:2:0:0:
501,226,10092,1,8,0:0:0:0:
346,29,10263,2,0,P|339:78|331:127,1,80.9999975280763,0|0,1:2|1:2,0:0:0:0:
482,102,10604,1,8,1:2:0:0:
482,102,10689,1,0,1:2:0:0:
482,102,10774,2,0,L|488:161,1,40.4999987640381,0|0,1:2|1:2,0:0:0:0:
424,235,10945,6,0,P|375:199|299:206,1,108,8|0,1:2|0:0,0:0:0:0:
297,212,11286,2,0,L|303:302,2,72,2|2|2,0:0|0:0|0:0,0:0:0:0:
246,122,11797,6,0,B|158:109|179:177|96:168,1,161.999995056153,6|2,0:0|1:2,0:0:0:0:
89,11,12308,1,10,0:0:0:0:
89,11,12479,2,0,P|110:48|110:93,1,80.9999975280763,2|0,0:0|1:2,0:0:0:0:
56,257,12820,1,2,1:2:0:0:
14,107,12990,1,10,0:0:0:0:
144,182,13161,6,0,B|163:228|163:228|152:350,1,161.999995056153,2|2,1:2|1:2,0:0:0:0:
47,370,13672,2,0,L|39:274,1,80.9999975280763,10|0,0:0|0:0,0:0:0:0:
253,238,14013,1,2,1:2:0:0:
152,339,14183,1,2,1:2:0:0:
144,182,14354,1,10,0:0:0:0:
250,331,14524,6,0,P|297:376|392:350,1,161.999995056153,2|2,1:2|1:2,0:0:0:0:
336,215,15036,1,10,0:0:0:0:
336,215,15206,2,0,L|326:306,1,80.9999975280763,2|0,0:0|1:2,0:0:0:0:
510,288,15547,1,2,1:2:0:0:
404,165,15717,1,10,0:0:0:0:
462,348,15888,6,0,P|483:228|484:173,1,161.999995056153,2|2,1:2|1:2,0:0:0:0:
413,65,16399,2,0,P|375:85|327:85,1,80.9999975280763,10|0,0:0|0:0,0:0:0:0:
194,29,16740,1,2,1:2:0:0:
354,0,16921,1,2,1:2:0:0:
222,115,17081,1,10,0:0:0:0:
383,125,17251,6,0,P|417:156|367:263,1,161.999995056153,2|2,1:2|1:2,0:0:0:0:
284,221,17762,1,10,0:0:0:0:
284,221,17933,2,0,P|241:202|185:209,1,80.9999975280763,2|0,0:0|1:2,0:0:0:0:
89,367,18274,1,2,1:2:0:0:
228,288,18444,1,10,0:0:0:0:
0,229,18615,6,0,B|91:228|57:296|146:290,1,161.999995056153,2|2,1:2|1:2,0:0:0:0:
168,134,19126,2,0,P|142:166|135:207,1,80.9999975280763,10|0,0:0|0:0,0:0:0:0:
310,240,19467,1,2,1:2:0:0:
299,74,19637,1,2,1:2:0:0:
219,206,19808,1,10,0:0:0:0:
376,108,19978,6,0,P|421:92|508:155,1,161.999995056153,2|2,1:2|1:2,0:0:0:0:
454,311,20490,2,0,P|431:271|429:220,1,80.9999975280763,10|2,0:0|0:0,0:0:0:0:
275,127,20841,1,0,1:2:0:0:
248,291,21022,1,2,1:2:0:0:
362,108,21181,1,10,0:0:0:0:
392,279,21341,5,2,1:2:0:0:
378,290,21682,5,2,2:2:0:0:
364,301,22023,5,2,1:2:0:0:
252,250,22194,2,0,L|246:306,3,40.4999987640381,8|0|0|0,0:0|1:0|1:0|1:0,0:0:0:0:
243,323,22557,1,0,1:0:0:0:
125,372,22737,6,0,P|105:329|106:294,1,72,6|0,0:0|0:0,0:0:0:0:
181,171,23063,2,0,P|179:207|164:240,1,72,2|8,1:2|0:0,0:0:0:0:
80,179,23403,2,0,L|70:103,1,72,2|0,0:0|1:2,0:0:0:0:
161,15,23728,2,0,L|151:99,1,72,2|8,1:2|0:0,0:0:0:0:
0,38,24068,1,2,1:2:0:0:
0,38,24238,6,0,P|39:25|88:37,1,72,2|2,0:0|1:2,0:0:0:0:
150,111,24578,1,8,0:0:0:0:
150,111,24749,2,0,P|196:145|293:114,1,144,2|0,1:2|1:2,0:0:0:0:
234,0,25260,2,0,L|220:88,1,72,10|0,0:0|1:2,0:0:0:0:
294,157,25601,5,2,0:0:0:0:
294,157,25794,2,0,P|331:180|370:178,1,72,2|8,1:2|0:0,0:0:0:0:
464,145,26112,1,2,0:0:0:0:
377,29,26282,1,2,1:2:0:0:
377,29,26453,2,0,L|386:113,1,72,2|8,1:2|0:0,0:0:0:0:
475,167,26794,6,0,L|461:313,1,144,2|0,1:2|1:2,0:0:0:0:
360,375,27305,2,0,L|273:383,1,72,8|2,0:0|0:0,0:0:0:0:
232,262,27646,1,2,1:2:0:0:
197,348,27817,1,2,1:2:0:0:
312,280,27987,2,0,P|310:235|288:201,1,72,10|2,0:0|1:2,0:0:0:0:
217,161,28328,5,2,0:0:0:0:
150,275,28499,2,0,L|141:200,1,72,2|8,1:2|0:0,0:0:0:0:
17,126,28840,2,0,L|95:135,1,72,2|0,0:0|1:2,0:0:0:0:
56,230,29180,2,0,L|-28:239,1,72,2|8,1:2|0:0,0:0:0:0:
7,325,29521,6,0,P|32:359|143:337,1,144,2|0,1:2|1:2,0:0:0:0:
182,256,30033,1,8,0:0:0:0:
182,256,30203,2,0,P|170:211|176:184,1,72,2|0,0:0|1:2,0:0:0:0:
323,206,30544,2,0,P|272:213|235:217,1,72,2|8,1:2|0:0,0:0:0:0:
219,118,30885,1,2,1:2:0:0:
219,118,31055,6,0,P|256:88|354:97,1,144,2|8,0:0|0:0,0:0:0:0:
401,172,31567,2,0,L|409:249,1,72,2|0,0:0|1:2,0:0:0:0:
502,298,31908,2,0,L|510:218,1,72,2|8,1:2|0:0,0:0:0:0:
462,106,32249,6,0,B|416:84|416:84|301:97,1,144,2|2,1:2|1:2,0:0:0:0:
233,30,32760,1,8,0:0:0:0:
233,30,32930,2,0,L|154:21,1,72,2|0,0:0|1:2,0:0:0:0:
71,37,33184,1,0,1:2:0:0:
71,37,33264,2,0,L|65:82,2,36,8|8|10,0:0|0:0|0:0,0:0:0:0:
10,141,33583,6,0,B|75:179|133:129|133:129|174:134,1,161.999995056153,6|2,0:0|1:2,0:0:0:0:
245,156,34112,1,8,0:0:0:0:
245,156,34288,2,0,P|271:198|270:239,1,72,2|0,0:0|1:2,0:0:0:0:
180,293,34650,2,0,L|191:204,1,72,2|8,1:2|0:0,0:0:0:0:
308,299,34983,1,2,1:2:0:0:
241,371,35155,5,2,0:0:0:0:
241,371,35325,2,0,L|160:382,1,72,2|8,1:2|0:0,0:0:0:0:
80,349,35666,2,0,P|91:276|98:205,1,144,2|0,0:0|1:2,0:0:0:0:
51,96,36177,1,10,0:0:0:0:
17,178,36348,1,2,1:2:0:0:
136,82,36518,5,2,0:0:0:0:
185,160,36689,2,0,P|218:180|262:174,1,72,2|8,1:2|0:0,0:0:0:0:
330,127,37030,2,0,L|340:210,1,72,2|0,0:0|1:2,0:0:0:0:
427,259,37370,2,0,L|435:188,1,72,2|8,1:2|0:0,0:0:0:0:
315,116,37711,6,0,L|333:268,1,144,2|0,1:2|1:2,0:0:0:0:
380,346,38223,2,0,P|345:360|300:355,1,72,8|2,0:0|0:0,0:0:0:0:
206,292,38564,1,2,1:2:0:0:
149,356,38734,1,2,1:2:0:0:
241,365,38905,1,10,0:0:0:0:
270,233,39075,6,0,B|225:207|225:207|112:221,1,144,6|0,1:2|1:2,0:0:0:0:
0,308,39586,1,10,0:0:0:0:
0,308,39757,2,0,P|40:308|77:284,1,72,2|0,0:0|1:2,0:0:0:0:
169,191,40098,1,2,1:2:0:0:
60,166,40268,1,10,0:0:0:0:
60,166,40439,6,0,B|51:122|28:73|28:73|53:91|94:86,1,144,2|0,1:2|1:2,0:0:0:0:
191,114,40950,2,0,L|278:126,1,72,8|2,0:0|0:0,0:0:0:0:
371,23,41291,1,2,1:2:0:0:
282,43,41461,1,2,1:2:0:0:
343,109,41632,1,10,0:0:0:0:
452,28,41802,6,0,P|471:66|470:107,1,72,2|0,1:2|0:0,0:0:0:0:
461,192,42143,2,0,P|426:176|377:180,1,72,2|8,1:2|0:0,0:0:0:0:
307,267,42484,2,0,P|348:268|385:250,1,72,2|0,0:0|1:2,0:0:0:0:
467,360,42825,2,0,P|428:341|387:342,1,72,2|8,1:2|0:0,0:0:0:0:
308,375,43166,6,0,L|219:387,1,72,2|0,1:2|0:0,0:0:0:0:
144,319,43507,1,2,1:2:0:0:
15,339,43677,2,0,P|84:355|144:319,1,144,12|4,0:0|1:2,0:0:0:0:
73,269,44103,1,0,1:2:0:0:
73,269,44189,2,0,L|78:205,1,36,0|8,1:2|1:2,0:0:0:0:
148,183,44359,2,0,L|143:119,3,36,10|8|8|8,1:2|1:2|1:2|1:2,0:0:0:0:
218,254,44700,5,6,0:0:0:0:
218,254,44870,2,0,L|309:266,1,90,2|8,0:0|0:0,0:0:0:0:
407,212,45211,1,2,0:0:0:0:
341,130,45382,1,2,1:2:0:0:
341,130,45569,2,0,L|432:119,1,90,2|8,1:2|0:0,0:0:0:0:
512,196,45888,1,2,1:2:0:0:
476,288,46064,5,2,0:0:0:0:
450,292,46404,1,2,0:0:0:0:
424,296,46745,1,2,0:0:0:0:
398,300,47086,1,2,0:0:0:0:
372,304,47427,5,6,0:0:0:0:
290,380,47598,2,0,P|236:376|193:338,1,90,2|8,0:0|0:0,0:0:0:0:
153,266,47939,1,2,0:0:0:0:
225,196,48109,1,2,1:2:0:0:
225,196,48279,2,0,P|183:168|141:166,1,90,2|8,1:2|0:0,0:0:0:0:
53,225,48606,1,2,1:2:0:0:
68,330,48791,5,2,0:0:0:0:
74,305,49131,1,2,0:0:0:0:
80,280,49472,1,2,0:0:0:0:
158,269,49643,1,2,0:0:0:0:
236,258,49813,1,2,0:0:0:0:
230,233,50154,5,6,0:0:0:0:
171,155,50325,2,0,P|168:102|186:62,1,90,2|8,0:0|0:0,0:0:0:0:
285,26,50666,1,2,0:0:0:0:
356,107,50836,1,2,1:2:0:0:
356,107,51000,2,0,L|265:116,1,90,2|8,1:2|0:0,0:0:0:0:
181,43,51341,1,2,1:2:0:0:
85,112,51517,5,2,0:0:0:0:
88,136,51858,1,2,0:0:0:0:
91,160,52199,1,2,0:0:0:0:
94,184,52540,1,2,0:0:0:0:
97,208,52881,6,0,L|202:221,1,90,6|0,0:0|0:0,0:0:0:0:
355,103,53222,2,0,L|241:118,1,90,10|0,0:0|1:2,0:0:0:0:
147,298,53563,6,0,L|252:311,1,90,10|0,0:0|1:2,0:0:0:0:
405,193,53904,2,0,L|291:208,1,90,10|0,0:0|0:0,0:0:0:0:
320,362,54245,5,10,0:2:0:0:
320,362,54321,1,0,1:2:0:0:
320,362,54398,1,0,1:2:0:0:
468,294,54586,2,0,L|520:284,2,45,8|8|0,0:2|0:2|1:2,0:0:0:0:
315,204,54927,5,2,1:2:0:0:
477,117,55112,1,8,0:0:0:0:
251,83,55274,1,8,0:0:0:0:
436,191,55436,1,8,0:0:0:0:
235,255,55608,6,0,P|183:278|126:265,1,99.0000030212403,2|0,1:2|0:0,0:0:0:0:
5,117,55948,2,0,P|62:112|111:144,1,99.0000030212403,10|0,1:2|0:0,0:0:0:0:
42,315,56289,2,0,L|30:209,1,99.0000030212403,2|0,1:2|0:0,0:0:0:0:
182,177,56630,1,10,1:2:0:0:
271,332,56801,6,0,L|165:320,1,99.0000030212403,2|0,0:0|1:2,0:0:0:0:
290,175,57142,2,0,L|396:163,1,99.0000030212403,2|8,0:0|1:2,0:0:0:0:
221,237,57483,2,0,P|198:188|209:129,1,99.0000030212403,2|0,0:0|1:2,0:0:0:0:
302,30,57823,1,2,0:0:0:0:
418,195,57994,2,0,L|319:206,1,99.0000030212403,10|0,1:2|0:0,0:0:0:0:
205,114,58335,6,0,P|153:90|92:103,1,99.0000030212403,2|0,1:2|0:0,0:0:0:0:
27,244,58676,2,0,P|79:243|135:201,1,99.0000030212403,10|0,1:2|0:0,0:0:0:0:
12,55,59017,2,0,L|20:157,1,99.0000030212403,2|0,1:2|0:0,0:0:0:0:
155,284,59358,2,0,L|167:175,1,99.0000030212403,10|0,1:2|0:0,0:0:0:0:
264,45,59698,5,2,1:2:0:0:
305,223,59869,1,0,0:0:0:0:
167,162,60039,2,0,P|215:139|277:149,1,99.0000030212403,10|0,1:2|0:0,0:0:0:0:
370,282,60380,1,0,1:2:0:0:
396,159,60551,1,8,0:2:0:0:
396,159,60636,1,8,0:0:0:0:
396,159,60721,1,0,1:2:0:0:
487,253,60892,2,0,L|493:213,1,33.0000010070801,8|8,0:0|0:0,0:0:0:0:
505,127,61062,6,0,P|465:70|362:46,2,148.50000453186,2|2|2,1:2|0:0|0:0,0:0:0:0:
396,159,61744,2,0,L|287:170,1,99.0000030212403,2|0,1:2|0:0,0:0:0:0:
293,79,62000,1,2,0:0:0:0:
293,79,62085,2,0,L|194:69,1,99.0000030212403,8|2,1:2|0:0,0:0:0:0:
97,138,62426,6,0,B|64:94|64:94|81:-7,2,148.50000453186,2|2|2,1:2|0:0|0:0,0:0:0:0:
179,180,63108,2,0,P|192:230|178:277,1,99.0000030212403,2|0,1:2|0:0,0:0:0:0:
114,326,63363,1,2,0:0:0:0:
114,326,63448,2,0,L|215:317,1,99.0000030212403,8|2,1:2|0:0,0:0:0:0:
322,267,63789,6,0,P|342:213|332:157,1,99.0000030212403,2|0,1:2|0:0,0:0:0:0:
309,78,64130,1,8,1:2:0:0:
421,19,64301,1,2,0:0:0:0:
421,19,64471,2,0,L|409:127,1,99.0000030212403,2|0,1:2|0:0,0:0:0:0:
428,242,64812,1,8,1:2:0:0:
512,178,64983,1,2,0:0:0:0:
512,178,65153,6,0,L|526:288,1,99.0000030212403,2|2,1:2|0:0,0:0:0:0:
392,368,65494,2,0,L|404:258,1,99.0000030212403,10|2,1:2|0:0,0:0:0:0:
316,191,65835,6,0,P|291:174|266:169,1,49.5000015106202,2|0,1:2|1:2,0:0:0:0:
259,246,66005,2,0,P|231:250|205:268,1,49.5000015106202,8|8,1:2|1:2,0:0:0:0:
263,321,66176,2,0,P|245:344|236:370,3,49.5000015106202,8|0|0|0,1:2|1:2|1:2|1:2,0:0:0:0:
138,331,66517,6,0,P|134:271|116:218,1,99.0000030212403,6|0,1:2|0:0,0:0:0:0:
32,91,66858,2,0,P|4:148|1:191,1,99.0000030212403,10|0,1:2|0:0,0:0:0:0:
167,242,67198,2,0,L|176:138,1,99.0000030212403,2|0,1:2|0:0,0:0:0:0:
261,11,67539,1,10,1:2:0:0:
338,159,67710,6,0,P|297:198|253:195,1,99.0000030212403,2|0,0:0|1:2,0:0:0:0:
375,78,68051,2,0,P|430:103|446:166,1,99.0000030212403,2|8,0:0|1:2,0:0:0:0:
288,86,68392,2,0,P|279:28|316:-10,1,99.0000030212403,2|0,0:0|1:2,0:0:0:0:
470,14,68733,1,2,0:0:0:0:
434,177,68903,2,0,P|386:160|330:169,1,99.0000030212403,10|0,1:2|0:0,0:0:0:0:
402,345,69244,6,0,L|511:333,1,99.0000030212403,2|0,1:2|0:0,0:0:0:0:
362,198,69585,2,0,L|263:208,1,99.0000030212403,10|0,1:2|0:0,0:0:0:0:
269,373,69926,2,0,P|312:333|328:286,1,99.0000030212403,2|0,1:2|0:0,0:0:0:0:
129,162,70267,1,10,1:2:0:0:
166,339,70437,1,2,0:0:0:0:
272,122,70608,5,2,1:2:0:0:
245,289,70778,1,2,0:0:0:0:
136,125,70948,2,0,P|79:98|23:110,1,99.0000030212403,10|0,1:2|0:0,0:0:0:0:
1,205,71289,1,2,1:2:0:0:
125,270,71460,2,0,L|69:278,1,49.5000015106202,8|8,0:0|0:0,0:0:0:0:
24,368,71630,1,8,0:0:0:0:
203,326,71801,1,8,0:0:0:0:
203,326,71886,1,8,0:0:0:0:
203,326,71971,6,0,P|222:251|228:169,2,148.50000453186,2|2|2,1:2|0:0|0:0,0:0:0:0:
323,341,72653,2,0,P|371:358|429:338,1,99.0000030212403,2|0,1:2|0:0,0:0:0:0:
467,283,72909,1,2,0:0:0:0:
467,283,72994,2,0,L|474:176,1,99.0000030212403,8|2,1:2|0:0,0:0:0:0:
331,109,73335,6,0,P|307:160|379:213,2,148.50000453186,2|2|2,1:2|0:0|0:0,0:0:0:0:
397,43,74017,2,0,P|350:19|289:25,1,99.0000030212403,2|0,1:2|0:0,0:0:0:0:
241,78,74272,1,2,0:0:0:0:
241,78,74358,2,0,P|189:104|135:100,1,99.0000030212403,8|2,1:2|0:0,0:0:0:0:
29,46,74698,6,0,L|38:158,1,99.0000030212403,2|0,1:2|0:0,0:0:0:0:
114,264,75039,1,8,1:2:0:0:
150,104,75210,1,2,0:0:0:0:
24,255,75380,2,0,L|35:363,1,99.0000030212403,2|0,1:2|0:0,0:0:0:0:
218,200,75721,2,0,L|205:323,1,99.0000030212403,8|2,1:2|0:0,0:0:0:0:
344,372,76062,5,12,1:2:0:0:
344,372,76147,1,8,1:2:0:0:
344,372,76233,2,0,L|336:312,1,49.5000015106202,8|8,1:2|1:2,0:0:0:0:
460,288,76403,1,8,1:2:0:0:
460,288,76488,1,8,1:2:0:0:
460,288,76573,2,0,L|468:228,1,49.5000015106202,8|8,1:2|1:2,0:0:0:0:
496,139,76744,6,0,L|428:131,3,49.5000015106202,8|0|0|0,1:2|1:2|1:2|1:2,0:0:0:0:
439,39,77085,2,0,L|371:47,3,49.5000015106202,0|0|0|0,1:2|1:2|1:2|1:2,0:0:0:0:
320,116,77426,5,4,1:2:0:0:
256,192,77511,12,0,78789,0:0:0:0:
165,106,79471,6,0,P|140:67|145:28,2,76.5000014591217,2|2|2,0:0|0:0|0:0,0:0:0:0:
242,199,79983,6,0,B|225:220|196:231|196:231|135:207|60:218,1,180,6|2,0:0|1:2,0:0:0:0:
7,352,80494,1,10,0:0:0:0:
7,352,80664,2,0,P|58:357|103:333,1,90,2|0,0:0|1:2,0:0:0:0:
229,304,81005,1,2,1:2:0:0:
74,216,81198,1,10,0:0:0:0:
227,175,81351,6,0,P|309:170|366:244,1,180,2|2,1:2|1:2,0:0:0:0:
284,353,81857,2,0,L|271:258,1,90,10|0,0:0|0:0,0:0:0:0:
443,212,82198,1,2,1:2:0:0:
369,335,82369,1,2,1:2:0:0:
358,164,82539,1,10,0:0:0:0:
484,337,82710,6,0,P|507:285|518:153,1,180,2|2,1:2|1:2,0:0:0:0:
441,31,83221,1,10,0:0:0:0:
441,31,83392,2,0,P|484:54|538:49,1,90,2|0,0:0|1:2,0:0:0:0:
414,147,83732,1,2,1:2:0:0:
334,12,83903,1,10,0:0:0:0:
306,151,84073,6,0,P|265:181|153:143,1,180,2|2,1:2|1:2,0:0:0:0:
246,9,84585,2,0,L|233:110,1,90,10|0,0:0|0:0,0:0:0:0:
181,219,84926,1,2,1:2:0:0:
152,57,85096,1,2,1:2:0:0:
70,199,85267,1,10,0:0:0:0:
27,47,85437,6,0,B|48:96|48:96|31:240,1,180,6|2,1:2|1:2,0:0:0:0:
11,336,85948,1,14,0:0:0:0:
11,336,86119,2,0,P|50:309|108:310,1,90,2|0,0:0|1:2,0:0:0:0:
274,333,86460,1,2,1:2:0:0:
142,384,86630,1,10,0:0:0:0:
167,234,86801,6,0,B|266:229|235:302|327:299,1,180,2|2,1:2|1:2,0:0:0:0:
338,132,87312,2,0,P|313:181|332:235,1,90,10|0,0:0|0:0,0:0:0:0:
496,304,87645,1,2,1:2:0:0:
419,134,87815,1,2,1:2:0:0:
408,333,87985,1,10,0:0:0:0:
496,93,88156,6,0,B|472:44|414:42|414:42|380:61|337:61,1,180,6|2,1:2|0:0,0:0:0:0:
208,26,88666,2,0,L|220:124,1,90,2|2,1:2|1:2,0:0:0:0:
173,273,89007,1,10,1:2:0:0:
96,70,89178,1,2,0:0:0:0:
46,298,89348,1,0,1:2:0:0:
204,131,89529,5,10,0:0:0:0:
229,122,89870,5,10,0:0:0:0:
254,113,90207,5,10,0:0:0:0:
360,212,90360,2,0,P|341:290|324:212,1,216,10|0,0:0|0:0,0:0:0:0:
