osu file format v14

[General]
AudioFilename: audio.mp3
AudioLeadIn: 0
PreviewTime: 55522
Countdown: 0
SampleSet: Soft
StackLeniency: 0.7
Mode: 0
LetterboxInBreaks: 0
WidescreenStoryboard: 1

[Editor]
Bookmarks: 6514,10605
DistanceSpacing: 1.2
BeatDivisor: 4
GridSize: 32
TimelineZoom: 2.4

[Metadata]
Title:Routine
TitleUnicode:Routine
Artist:Silent Siren
ArtistUnicode:Silent Siren
Creator:Kuki1537
Version:Hard
Source:
Tags:サイレントサイレン major 3rd third album j-pop japanese female vocal サイサイ pop jpop cut version
BeatmapID:2272133
BeatmapSetID:1083437

[Difficulty]
HPDrainRate:4
CircleSize:3.7
OverallDifficulty:6
ApproachRate:8
SliderMultiplier:1.5
SliderTickRate:1

[Events]
//Background and Video events
0,0,"bg.jpg",0,0
//Break Periods
//Storyboard Layer 0 (Background)
//Storyboard Layer 1 (Fail)
//Storyboard Layer 2 (Pass)
//Storyboard Layer 3 (Foreground)
//Storyboard Layer 4 (Overlay)
//Storyboard Sound Samples

[TimingPoints]
-304,340.909090909091,4,2,45,61,1,0
1059,-100,4,2,45,61,0,0
6514,365.853658536585,4,2,45,61,1,0
6879,337.078651685393,4,2,45,46,1,0
6879,-100,4,2,45,46,0,0
7721,315.789473684211,4,2,45,46,1,0
7877,340.909090909091,4,2,45,58,1,0
7877,-100,4,2,45,58,0,0
9241,-100,4,2,45,75,0,0
11286,-100,4,2,45,53,0,0
11798,-100,4,2,45,75,0,0
16741,361.44578313253,4,2,45,75,1,0
16921,322.58064516129,4,2,45,75,1,0
17081,340.909090909091,4,2,45,75,1,0
17422,340.909090909091,4,2,45,75,1,0
20661,361.44578313253,4,2,45,75,1,0
21022,319.148936170213,4,2,45,75,1,0
21342,340.909090909091,4,2,45,75,1,0
22194,363.636363636364,4,2,45,75,1,0
22737,326.086956521739,4,2,45,75,1,0
22737,-125,4,2,45,75,0,0
23063,340.909090909091,4,2,45,75,1,0
23063,-125,4,2,45,75,0,0
23728,340.909090909091,4,2,45,75,1,0
23728,-125,4,2,45,75,0,0
24238,340.909090909091,4,2,45,75,1,0
24238,-125,4,2,45,75,0,0
25601,387.096774193548,4,2,45,75,1,0
25794,298.507462686567,4,2,45,75,1,0
25794,-125,4,2,45,75,0,0
25942,340.909090909091,4,2,45,75,1,0
25943,-125,4,2,45,75,0,0
26965,340.909090909091,4,2,45,75,1,0
26965,-125,4,2,45,75,0,0
32930,-128.865979381443,4,2,45,75,0,0
33105,319.148936170213,4,2,45,75,1,0
33105,-125,4,2,45,75,0,0
33583,352.941176470588,4,2,45,75,1,0
33583,-125,4,2,45,75,0,0
34465,372.670807453416,4,2,45,75,1,0
34650,333.333333333333,4,2,45,75,1,0
34650,-125,4,2,45,75,0,0
34983,346.820809248555,4,2,45,75,1,0
35155,340.909090909091,4,2,45,75,1,0
35155,-125,4,2,45,75,0,0
44700,-100,4,2,45,75,0,0
45382,375,4,2,45,75,1,0
45569,307.692307692308,4,2,45,75,1,0
45722,333.333333333333,4,2,45,75,1,0
45888,352.941176470588,4,2,45,75,1,0
46064,340.909090909091,4,2,45,56,1,0
46064,-166.666666666667,4,2,45,56,0,0
47427,-100,4,2,45,75,0,0
48279,319.148936170213,4,2,45,75,1,0
48438,337.078651685393,4,2,45,75,1,0
48606,370.37037037037,4,2,45,75,1,0
48791,340.909090909091,4,2,45,56,1,0
48791,-166.666666666667,4,2,45,56,0,0
50154,-100,4,2,45,75,0,0
50836,329.67032967033,4,2,45,75,1,0
51165,352.941176470588,4,2,45,75,1,0
51518,340.909090909091,4,2,45,56,1,0
51518,-166.666666666667,4,2,45,56,0,0
52881,-100,4,2,45,75,0,0
52882,-100,4,2,45,75,0,0
54245,307.692307692308,4,2,45,75,1,0
54398,375,4,2,45,75,1,0
54586,300,4,2,45,75,1,0
54736,382.165605095541,4,2,45,75,1,0
54927,372.670807453416,4,2,45,75,1,0
55112,324.324324324324,4,2,45,75,1,0
55436,344.827586206897,4,2,45,75,1,0
55608,340.909090909091,4,2,45,83,1,0
55608,-90.9090909090909,4,2,45,83,0,1
76405,-90.9090909090909,4,2,45,75,0,1
76746,-90.9090909090909,4,2,45,69,0,1
77087,-90.9090909090909,4,2,45,63,0,1
77426,-100,4,2,45,63,0,0
79471,-100,4,2,45,53,0,0
79985,-100,4,2,45,75,0,0
81005,387.096774193548,4,2,45,75,1,0
81198,307.692307692308,4,2,45,75,1,0
81351,333.333333333333,4,2,45,75,1,0
81351,-101.010101010101,4,2,45,75,0,0
81517,340.909090909091,4,2,45,75,1,0
87312,333.333333333333,4,2,45,75,1,0
87645,340.909090909091,4,2,45,75,1,0
88326,340.909090909091,4,2,45,75,1,0
89348,363.636363636364,4,2,45,75,1,0
89530,340.909090909091,4,2,45,75,1,0
89870,337.078651685393,4,2,45,75,1,0
90207,306.122448979592,4,2,45,75,1,0
90360,340.909090909091,4,2,45,75,1,0
90360,-125,4,2,45,75,0,0
90445,-125,4,2,45,5,0,0
90871,-125,4,2,45,40,0,0

[Colours]
Combo1 : 57,150,52
Combo2 : 240,120,0
Combo3 : 107,112,143
Combo4 : 30,65,232

[HitObjects]
37,57,1059,6,0,P|30:110|110:167,1,150,6|2,1:2|0:0,0:0:0:0:
171,114,1571,1,0,0:0:0:0:
171,114,1741,2,0,P|210:96|251:89,1,75,2|0,0:0|0:0,0:0:0:0:
306,152,2082,2,0,P|359:177|391:177,1,75,2|0,0:0|0:0,0:0:0:0:
443,120,2423,6,0,B|458:180|458:180|446:284,1,150,2|2,0:0|0:0,0:0:0:0:
412,350,2934,1,0,0:0:0:0:
412,350,3105,2,0,L|338:364,1,75,2|0,1:2|0:0,0:0:0:0:
283,292,3446,2,0,L|357:279,1,75,2|0,0:0|0:0,0:0:0:0:
338,363,3786,6,0,P|247:371|194:306,1,150,2|2,1:2|0:0,0:0:0:0:
206,244,4298,1,0,0:0:0:0:
206,244,4468,2,0,P|207:197|192:160,1,75,2|0,0:0|0:0,0:0:0:0:
120,217,4809,2,0,P|81:179|41:169,1,75,2|0,0:0|0:0,0:0:0:0:
39,259,5150,6,0,P|24:328|96:362,1,150,2|2,0:0|0:0,0:0:0:0:
165,325,5661,1,0,0:0:0:0:
165,325,5832,2,0,P|206:314|251:318,1,75,2|0,0:0|0:0,0:0:0:0:
311,261,6173,2,0,P|256:272|211:268,1,75,2|0,1:2|0:0,0:0:0:0:
153,238,6514,5,8,1:2:0:0:
153,238,6879,6,0,L|139:155,1,75,8|8,1:2|0:0,0:0:0:0:
121,75,7216,2,0,L|206:93,1,75,8|8,1:2|0:0,0:0:0:0:
264,147,7553,1,8,1:2:0:0:
349,116,7721,1,8,0:0:0:0:
432,83,7878,6,0,P|448:128|453:171,1,75,8|8,1:2|0:0,0:0:0:0:
372,198,8217,2,0,P|362:241|362:283,1,75,8|8,1:2|0:0,0:0:0:0:
420,339,8558,1,8,1:2:0:0:
332,360,8729,1,8,0:0:0:0:
267,297,8899,1,8,1:2:0:0:
179,318,9070,1,8,0:0:0:0:
100,360,9240,6,0,P|89:310|96:282,1,75,8|8,1:2|0:0,0:0:0:0:
167,235,9581,2,0,P|185:186|178:146,1,75,8|8,1:2|0:0,0:0:0:0:
182,73,9922,1,8,1:2:0:0:
115,12,10092,1,8,0:0:0:0:
33,50,10263,6,0,L|19:138,1,75,0|0,1:2|1:2,0:0:0:0:
71,198,10604,2,0,L|77:237,3,37.5,8|0|0|0,1:2|1:2|1:2|1:2,0:0:0:0:
108,267,10945,1,8,1:2:0:0:
282,310,11286,2,0,L|271:389,2,75,2|2|2,0:0|0:0|0:0,0:0:0:0:
355,256,11797,6,0,P|363:199|291:152,1,150,6|2,0:0|1:2,0:0:0:0:
208,170,12308,1,10,0:0:0:0:
208,170,12479,2,0,L|220:89,1,75,2|0,0:0|1:2,0:0:0:0:
176,16,12820,1,2,1:2:0:0:
86,14,12990,1,10,0:0:0:0:
21,77,13161,6,0,B|3:160|56:154|33:251,1,150,2|2,1:2|1:2,0:0:0:0:
16,311,13672,2,0,L|96:325,1,75,10|0,0:0|0:0,0:0:0:0:
165,274,14013,1,2,1:2:0:0:
233,331,14183,1,2,1:2:0:0:
323,330,14354,1,10,0:0:0:0:
387,267,14524,6,0,P|400:188|401:113,1,150,2|2,1:2|1:2,0:0:0:0:
345,47,15036,1,10,0:0:0:0:
345,47,15206,2,0,P|294:62|260:61,1,75,2|0,0:0|1:2,0:0:0:0:
186,33,15547,1,2,1:2:0:0:
120,94,15717,1,10,0:0:0:0:
140,181,15888,6,0,B|177:212|177:212|286:206,1,150,2|2,1:2|1:2,0:0:0:0:
356,161,16399,2,0,P|416:158|456:179,1,75,10|0,0:0|0:0,0:0:0:0:
493,225,16740,1,2,1:2:0:0:
420,278,16921,1,2,1:2:0:0:
430,367,17082,1,10,0:0:0:0:
346,334,17251,6,0,P|291:311|195:316,1,150,2|2,1:2|1:2,0:0:0:0:
125,362,17762,1,10,0:0:0:0:
125,362,17933,2,0,P|111:310|116:282,1,75,2|0,0:0|1:2,0:0:0:0:
138,202,18274,1,2,1:2:0:0:
50,225,18444,1,10,0:0:0:0:
77,139,18615,6,0,B|90:27|90:27|132:47,1,150,2|2,1:2|1:2,0:0:0:0:
209,70,19126,2,0,P|263:79|287:71,1,75,10|0,0:0|0:0,0:0:0:0:
334,1,19467,1,2,1:2:0:0:
402,60,19637,1,2,1:2:0:0:
490,43,19808,1,10,0:0:0:0:
498,132,19978,6,0,P|484:199|495:296,1,150,2|2,1:2|1:2,0:0:0:0:
460,364,20490,1,10,0:0:0:0:
375,351,20660,1,2,0:0:0:0:
376,261,20841,2,0,P|336:240|295:239,1,75,0|2,1:2|1:2,0:0:0:0:
230,278,21181,1,10,0:0:0:0:
230,278,21342,6,0,B|146:284|193:346|98:352,2,150,2|2|2,1:2|2:2|1:2,0:0:0:0:
308,232,22194,1,8,0:0:0:0:
241,188,22375,1,0,1:0:0:0:
241,188,22466,1,0,1:0:0:0:
241,188,22557,1,0,1:0:0:0:
152,206,22737,6,0,L|84:192,1,60,6|0,0:0|0:0,0:0:0:0:
45,124,23063,2,0,L|126:108,1,60,2|8,1:2|0:0,0:0:0:0:
143,38,23403,2,0,L|213:52,1,60,2|0,0:0|1:2,0:0:0:0:
267,102,23728,2,0,L|347:83,1,60,2|8,1:2|0:0,0:0:0:0:
390,34,24068,1,2,1:2:0:0:
453,96,24238,5,2,0:0:0:0:
453,96,24408,2,0,L|440:172,1,60,2|8,1:2|0:0,0:0:0:0:
472,234,24749,2,0,P|437:319|400:327,1,120,2|0,1:2|1:2,0:0:0:0:
339,292,25260,2,0,L|325:218,1,60,10|0,0:0|1:2,0:0:0:0:
310,155,25601,5,2,0:0:0:0:
310,155,25794,2,0,L|237:138,1,60,2|8,1:2|0:0,0:0:0:0:
216,64,26112,1,2,0:0:0:0:
142,35,26282,1,2,1:2:0:0:
142,35,26453,2,0,L|69:50,1,60,2|8,1:2|0:0,0:0:0:0:
27,110,26794,6,0,L|49:237,1,120,2|0,1:2|1:2,0:0:0:0:
71,309,27305,2,0,L|154:324,1,60,8|2,0:0|0:0,0:0:0:0:
207,282,27646,1,2,1:2:0:0:
207,282,27817,1,2,1:2:0:0:
285,311,27987,2,0,L|297:245,1,60,10|2,0:0|1:2,0:0:0:0:
315,169,28328,5,2,0:0:0:0:
315,169,28499,2,0,P|279:168|242:189,1,60,2|8,1:2|0:0,0:0:0:0:
176,199,28840,2,0,L|113:187,1,60,2|0,0:0|1:2,0:0:0:0:
75,114,29180,2,0,L|144:103,1,60,2|8,1:2|0:0,0:0:0:0:
191,42,29521,6,0,P|241:16|305:32,1,120,2|0,1:2|1:2,0:0:0:0:
360,96,30033,1,8,0:0:0:0:
360,96,30203,2,0,P|384:119|433:126,1,60,2|0,0:0|1:2,0:0:0:0:
477,77,30544,2,0,P|453:54|404:46,1,60,2|8,1:2|0:0,0:0:0:0:
352,8,30885,1,2,1:2:0:0:
283,54,31055,5,2,0:0:0:0:
283,54,31226,2,0,L|269:131,1,60,2|8,1:2|0:0,0:0:0:0:
250,211,31567,2,0,P|241:257|255:293,1,60,2|0,0:0|1:2,0:0:0:0:
305,325,31908,2,0,P|349:334|382:319,1,60,2|8,1:2|0:0,0:0:0:0:
425,274,32249,6,0,P|427:224|411:192,1,60,2|0,1:2|0:0,0:0:0:0:
368,152,32590,2,0,P|323:146|291:159,1,60,2|8,1:2|0:0,0:0:0:0:
250,211,32930,2,0,P|214:221|179:213,1,60,2|0,0:0|1:2,0:0:0:0:
108,207,33264,2,0,L|115:163,2,30,8|8|10,0:0|0:0|0:0,0:0:0:0:
31,248,33583,6,0,P|65:286|147:285,1,120,6|2,0:0|1:2,0:0:0:0:
209,256,34112,1,8,0:0:0:0:
209,256,34288,2,0,L|220:325,1,60,2|0,0:0|1:2,0:0:0:0:
301,359,34651,2,0,L|312:294,1,60,2|8,1:2|0:0,0:0:0:0:
366,236,34983,1,2,1:2:0:0:
433,293,35156,5,2,0:0:0:0:
433,293,35325,2,0,P|453:253|449:213,1,60,2|8,1:2|0:0,0:0:0:0:
415,163,35666,2,0,B|403:81|403:81|400:102|383:118,1,120,2|0,0:0|1:2,0:0:0:0:
307,135,36177,1,10,0:0:0:0:
307,135,36348,1,2,1:2:0:0:
256,74,36518,5,2,0:0:0:0:
256,74,36689,2,0,L|187:61,1,60,2|8,1:2|0:0,0:0:0:0:
114,45,37030,2,0,L|101:120,1,60,2|0,0:0|1:2,0:0:0:0:
158,167,37370,2,0,L|172:240,1,60,2|8,1:2|0:0,0:0:0:0:
111,286,37711,6,0,P|171:310|238:274,1,120,2|0,1:2|1:2,0:0:0:0:
260,217,38223,2,0,L|342:201,1,60,8|2,0:0|0:0,0:0:0:0:
403,232,38564,1,2,1:2:0:0:
403,232,38734,1,2,1:2:0:0:
395,318,38905,1,10,0:0:0:0:
395,318,39075,6,0,P|470:286|488:229,1,120,6|0,1:2|1:2,0:0:0:0:
465,177,39586,1,10,0:0:0:0:
465,177,39757,2,0,L|478:105,1,60,2|0,0:0|1:2,0:0:0:0:
437,48,40098,1,2,1:2:0:0:
437,48,40268,1,10,0:0:0:0:
356,69,40439,6,0,P|291:108|242:93,1,120,2|0,1:2|1:2,0:0:0:0:
185,45,40950,2,0,L|108:32,1,60,8|2,0:0|0:0,0:0:0:0:
78,105,41291,1,2,1:2:0:0:
78,105,41461,1,2,1:2:0:0:
135,172,41632,1,10,0:0:0:0:
135,172,41802,6,0,L|121:254,1,60,2|0,1:2|0:0,0:0:0:0:
178,296,42143,2,0,L|260:310,1,60,2|8,1:2|0:0,0:0:0:0:
302,253,42484,2,0,L|316:171,1,60,2|0,0:0|1:2,0:0:0:0:
259,129,42825,2,0,L|177:115,1,60,2|8,1:2|0:0,0:0:0:0:
144,55,43166,6,0,P|175:35|224:37,1,60,2|0,1:2|0:0,0:0:0:0:
282,34,43507,2,0,P|322:50|360:44,1,60,2|12,1:2|0:0,0:0:0:0:
415,15,43848,1,2,0:0:0:0:
490,71,44018,1,4,1:2:0:0:
490,71,44103,1,0,1:2:0:0:
490,71,44189,2,0,L|499:123,4,30,0|8|10|8|8,1:2|1:2|1:2|1:2|1:2,0:0:0:0:
418,126,44700,6,0,L|328:136,2,75,6|2|8,0:0|0:0|0:0,0:0:0:0:
487,184,45211,1,2,0:0:0:0:
466,266,45382,1,2,1:2:0:0:
466,266,45569,2,0,P|480:303|480:351,1,75,2|8,1:2|0:0,0:0:0:0:
401,355,45888,1,2,1:2:0:0:
401,355,46064,6,0,P|360:367|296:359,3,89.9999972534181,2|2|2|2,0:0|0:0|0:0|0:0,0:0:0:0:
255,242,47427,6,0,P|271:201|275:159,2,75,6|2|8,0:0|0:0|0:0,0:0:0:0:
214,323,47939,1,2,0:0:0:0:
128,329,48109,1,2,1:2:0:0:
128,329,48279,2,0,L|50:318,1,75,2|8,1:2|0:0,0:0:0:0:
32,243,48606,1,2,1:2:0:0:
32,243,48791,6,0,P|38:181|61:151,1,89.9999972534181,2|2,0:0|0:0,0:0:0:0:
149,109,49472,2,0,L|199:101,1,44.999998626709,2|2,0:0|0:0,0:0:0:0:
193,101,49813,1,2,0:0:0:0:
308,170,50154,6,0,L|319:251,2,75,6|2|8,0:0|0:0|0:0,0:0:0:0:
352,90,50666,1,2,0:0:0:0:
447,80,50836,1,2,1:2:0:0:
447,80,51000,2,0,L|460:163,1,75,2|8,1:2|0:0,0:0:0:0:
488,244,51341,1,2,1:2:0:0:
488,244,51518,6,0,P|466:294|422:321,3,89.9999972534181,2|2|2|2,0:0|0:0|0:0|0:0,0:0:0:0:
313,369,52881,6,0,P|265:344|214:338,1,75,6|0,0:0|0:0,0:0:0:0:
139,343,53222,2,0,L|151:258,1,75,10|0,0:0|1:2,0:0:0:0:
243,220,53563,2,0,L|232:126,1,75,10|0,0:0|1:2,0:0:0:0:
155,76,53904,2,0,P|189:50|235:42,1,75,10|0,0:0|0:0,0:0:0:0:
320,73,54245,6,0,L|323:114,2,37.5,10|0|0,0:2|1:2|1:2,0:0:0:0:
404,41,54586,2,0,L|406:3,2,37.5,8|8|0,0:2|0:2|1:2,0:0:0:0:
469,103,54927,1,2,1:2:0:0:
399,181,55112,1,8,0:0:0:0:
471,257,55274,1,8,0:0:0:0:
404,337,55436,1,8,0:0:0:0:
311,300,55608,6,0,P|264:283|210:289,1,82.5000025177003,2|0,1:2|0:0,0:0:0:0:
160,352,55948,2,0,P|118:369|74:366,1,82.5000025177003,10|0,1:2|0:0,0:0:0:0:
20,290,56289,2,0,L|31:199,1,82.5000025177003,2|0,1:2|0:0,0:0:0:0:
77,120,56630,1,10,1:2:0:0:
77,120,56801,6,0,P|125:140|157:138,1,82.5000025177003,2|0,0:0|1:2,0:0:0:0:
243,94,57142,2,0,L|252:3,1,82.5000025177003,2|8,0:0|1:2,0:0:0:0:
339,56,57483,2,0,L|349:142,1,82.5000025177003,2|0,0:0|1:2,0:0:0:0:
426,199,57823,1,2,0:0:0:0:
507,255,57994,2,0,L|497:342,1,82.5000025177003,10|0,1:2|0:0,0:0:0:0:
401,361,58335,6,0,P|347:359|309:334,1,82.5000025177003,2|0,1:2|0:0,0:0:0:0:
297,250,58676,2,0,P|351:252|389:277,1,82.5000025177003,10|0,1:2|0:0,0:0:0:0:
322,346,59017,2,0,P|268:369|215:365,1,82.5000025177003,2|0,1:2|0:0,0:0:0:0:
150,339,59358,2,0,L|158:254,1,82.5000025177003,10|0,1:2|0:0,0:0:0:0:
135,160,59698,6,0,P|40:181|-5:123,1,165.000005035401,2|10,1:2|1:2,0:0:0:0:
4,38,60210,1,0,0:0:0:0:
97,6,60380,1,0,1:2:0:0:
169,74,60551,2,0,L|160:125,2,41.2500012588501,8|8|0,0:2|0:0|1:2,0:0:0:0:
241,6,60892,2,0,L|276:12,1,27.5000008392334,8|8,0:0|0:0,0:0:0:0:
313,74,61062,6,0,P|355:104|429:101,2,123.75000377655,2|2|2,1:2|0:0|0:0,0:0:0:0:
223,115,61744,2,0,P|181:145|107:142,2,123.75000377655,2|2|2,1:2|0:0|0:0,0:0:0:0:
298,179,62426,6,0,L|311:314,2,123.75000377655,2|2|2,1:2|0:0|0:0,0:0:0:0:
203,148,63108,2,0,L|191:24,2,123.75000377655,2|2|2,1:2|0:0|0:0,0:0:0:0:
103,162,63789,6,0,L|91:257,1,82.5000025177003,2|0,1:2|0:0,0:0:0:0:
141,330,64130,1,8,1:2:0:0:
199,249,64301,1,2,0:0:0:0:
240,338,64471,2,0,P|277:363|321:368,1,82.5000025177003,2|0,1:2|0:0,0:0:0:0:
357,279,64812,1,8,1:2:0:0:
412,361,64983,1,2,0:0:0:0:
456,272,65153,6,0,L|467:183,1,82.5000025177003,2|2,1:2|0:0,0:0:0:0:
393,122,65494,2,0,L|380:26,1,82.5000025177003,10|2,1:2|0:0,0:0:0:0:
283,50,65835,1,2,1:2:0:0:
283,50,65920,1,0,1:2:0:0:
283,50,66005,2,0,L|276:105,4,41.2500012588501,8|8|8|0|0,1:2|1:2|1:2|1:2|1:2,0:0:0:0:
166,57,66517,6,0,P|129:111|126:158,1,82.5000025177003,6|0,1:2|0:0,0:0:0:0:
168,216,66858,2,0,L|250:207,1,82.5000025177003,10|0,1:2|0:0,0:0:0:0:
348,197,67198,2,0,P|378:237|378:283,1,82.5000025177003,2|0,1:2|0:0,0:0:0:0:
329,352,67539,1,10,1:2:0:0:
243,301,67710,6,0,L|146:332,1,82.5000025177003,2|0,0:0|1:2,0:0:0:0:
89,261,68051,2,0,L|167:235,1,82.5000025177003,2|8,0:0|1:2,0:0:0:0:
195,140,68392,2,0,L|98:171,1,82.5000025177003,2|0,0:0|1:2,0:0:0:0:
31,114,68733,1,2,0:0:0:0:
77,26,68903,2,0,P|134:10|177:19,1,82.5000025177003,10|0,1:2|0:0,0:0:0:0:
237,69,69244,6,0,L|326:48,1,82.5000025177003,2|0,1:2|0:0,0:0:0:0:
414,31,69585,2,0,L|398:125,1,82.5000025177003,10|0,1:2|0:0,0:0:0:0:
375,208,69926,2,0,L|303:137,1,82.5000025177003,2|0,1:2|0:0,0:0:0:0:
218,165,70267,1,10,1:2:0:0:
257,255,70437,1,2,0:0:0:0:
199,336,70608,5,2,1:2:0:0:
100,329,70778,1,2,0:0:0:0:
59,238,70948,2,0,L|46:134,1,82.5000025177003,10|0,1:2|0:0,0:0:0:0:
53,57,71289,1,2,1:2:0:0:
150,39,71460,2,0,L|159:0,2,41.2500012588501,8|8|8,0:0|0:0|0:0,0:0:0:0:
217,128,71801,1,8,0:0:0:0:
217,128,71886,1,8,0:0:0:0:
217,128,71971,6,0,P|244:189|222:272,2,123.75000377655,2|2|2,1:2|0:0|0:0,0:0:0:0:
316,121,72653,2,0,P|292:62|318:-1,2,123.75000377655,2|2|2,1:2|0:0|0:0,0:0:0:0:
388,188,73335,6,0,L|403:315,2,123.75000377655,2|2|2,1:2|0:0|0:0,0:0:0:0:
462,122,74017,2,0,L|476:0,2,123.75000377655,2|2|2,1:2|0:0|0:0,0:0:0:0:
479,219,74698,6,0,P|458:259|423:280,1,82.5000025177003,2|0,1:2|0:0,0:0:0:0:
333,248,75039,1,8,1:2:0:0:
354,344,75210,1,2,0:0:0:0:
260,311,75380,2,0,P|201:289|163:294,1,82.5000025177003,2|0,1:2|0:0,0:0:0:0:
104,351,75721,1,8,1:2:0:0:
87,253,75892,1,2,0:0:0:0:
163,190,76062,6,0,L|168:142,3,41.2500012588501,12|8|8|8,1:2|1:2|1:2|1:2,0:0:0:0:
199,110,76403,2,0,L|203:68,3,41.2500012588501,8|8|8|8,1:2|1:2|1:2|1:2,0:0:0:0:
230,27,76744,2,0,L|271:31,3,41.2500012588501,8|0|0|0,1:2|1:2|1:2|1:2,0:0:0:0:
309,63,77085,2,0,L|350:67,3,41.2500012588501,0|0|0|0,1:2|1:2|1:2|1:2,0:0:0:0:
385,95,77426,5,4,1:2:0:0:
256,192,77511,12,0,78789,0:0:0:0:
128,75,79471,6,0,L|137:-1,2,75,2|2|2,0:0|0:0|0:0,0:0:0:0:
64,139,79983,6,0,P|68:193|155:250,1,150,6|2,0:0|1:2,0:0:0:0:
226,226,80494,1,10,0:0:0:0:
265,145,80664,2,0,P|294:115|329:103,1,75,2|0,0:0|1:2,0:0:0:0:
413,118,81005,1,2,1:2:0:0:
386,204,81198,1,10,0:0:0:0:
465,245,81351,6,0,B|471:350|471:350|422:339,1,150,2|2,1:2|1:2,0:0:0:0:
339,312,81857,2,0,P|293:297|257:303,1,75,10|0,0:0|0:0,0:0:0:0:
187,343,82198,1,2,1:2:0:0:
114,289,82369,1,2,1:2:0:0:
24,300,82539,1,10,0:0:0:0:
56,215,82710,6,0,P|78:161|74:64,1,150,2|2,1:2|1:2,0:0:0:0:
143,10,83221,1,10,0:0:0:0:
143,10,83392,2,0,P|185:30|221:31,1,75,2|0,0:0|1:2,0:0:0:0:
303,37,83732,1,2,1:2:0:0:
256,113,83903,1,10,0:0:0:0:
346,112,84073,6,0,P|389:112|458:200,1,150,2|2,1:2|1:2,0:0:0:0:
447,275,84585,2,0,L|363:285,1,75,10|0,0:0|0:0,0:0:0:0:
299,230,84926,1,2,1:2:0:0:
249,305,85096,1,2,1:2:0:0:
161,284,85267,1,10,0:0:0:0:
147,195,85437,6,0,B|166:138|166:138|148:41,1,150,6|2,1:2|1:2,0:0:0:0:
61,27,85948,1,14,0:0:0:0:
61,27,86119,2,0,L|77:104,1,75,2|0,0:0|1:2,0:0:0:0:
46,185,86460,1,2,1:2:0:0:
90,262,86630,1,10,0:0:0:0:
177,240,86801,6,0,B|260:233|240:296|323:284,1,150,2|2,1:2|1:2,0:0:0:0:
393,241,87312,2,0,P|408:202|411:153,1,75,10|0,0:0|0:0,0:0:0:0:
381,84,87645,1,2,1:2:0:0:
290,88,87815,1,2,1:2:0:0:
221,30,87985,1,10,0:0:0:0:
205,118,88156,6,0,P|213:203|209:278,1,150,6|2,1:2|0:0,0:0:0:0:
147,332,88666,2,0,P|105:324|72:303,1,75,2|2,1:2|1:2,0:0:0:0:
31,230,89007,1,10,1:2:0:0:
94,166,89178,1,2,0:0:0:0:
48,87,89348,1,0,1:2:0:0:
111,23,89529,5,10,0:0:0:0:
131,31,89870,5,10,0:0:0:0:
151,39,90207,5,10,0:0:0:0:
204,105,90360,2,0,B|212:148|264:173|264:173|301:132|301:93,1,180,10|0,0:0|0:0,0:0:0:0:
