osu file format v14

[General]
AudioFilename: audio.mp3
AudioLeadIn: 0
PreviewTime: 55522
Countdown: 0
SampleSet: Soft
StackLeniency: 0.7
Mode: 0
LetterboxInBreaks: 0
WidescreenStoryboard: 1

[Editor]
Bookmarks: 6514,10605
DistanceSpacing: 0.4
BeatDivisor: 4
GridSize: 32
TimelineZoom: 2.4

[Metadata]
Title:Routine
TitleUnicode:Routine
Artist:Silent Siren
ArtistUnicode:Silent Siren
Creator:Kuki1537
Version:Expert
Source:
Tags:サイレントサイレン major 3rd third album j-pop japanese female vocal サイサイ pop jpop cut version
BeatmapID:2270804
BeatmapSetID:1083437

[Difficulty]
HPDrainRate:5
CircleSize:4
OverallDifficulty:8.8
ApproachRate:9
SliderMultiplier:1.9
SliderTickRate:1

[Events]
//Background and Video events
0,0,"bg.jpg",0,0
//Break Periods
//Storyboard Layer 0 (Background)
//Storyboard Layer 1 (Fail)
//Storyboard Layer 2 (Pass)
//Storyboard Layer 3 (Foreground)
//Storyboard Layer 4 (Overlay)
//Storyboard Sound Samples

[TimingPoints]
-304,340.909090909091,4,2,45,61,1,0
1059,-153.846153846153,4,2,45,61,0,0
6514,365.853658536585,4,2,45,61,1,0
6879,337.078651685393,4,2,45,46,1,0
6879,-153.846153846153,4,2,45,46,0,0
7721,315.789473684211,4,2,45,46,1,0
7877,340.909090909091,4,2,45,58,1,0
7877,-111.111111111111,4,2,45,58,0,0
9241,-111.111111111111,4,2,45,75,0,0
10945,-125,4,2,45,75,0,0
11286,-125,4,2,45,53,0,0
11797,-111.111111111111,4,2,45,75,0,0
16741,361.44578313253,4,2,45,75,1,0
16741,-111.111111111111,4,2,45,75,0,0
16921,322.58064516129,4,2,45,75,1,0
17081,340.909090909091,4,2,45,75,1,0
17081,-111.111111111111,4,2,45,75,0,0
17422,340.909090909091,4,2,45,75,1,0
17422,-111.111111111111,4,2,45,75,0,0
20661,361.44578313253,4,2,45,75,1,0
20661,-111.111111111111,4,2,45,75,0,0
21022,319.148936170213,4,2,45,75,1,0
21022,-111.111111111111,4,2,45,75,0,0
21342,340.909090909091,4,2,45,75,1,0
21342,-111.111111111111,4,2,45,75,0,0
22194,363.636363636364,4,2,45,75,1,0
22194,-111.111111111111,4,2,45,75,0,0
22737,326.086956521739,4,2,45,75,1,0
22737,-125,4,2,45,75,0,0
23063,340.909090909091,4,2,45,75,1,0
23063,-125,4,2,45,75,0,0
23728,340.909090909091,4,2,45,75,1,0
23728,-125,4,2,45,75,0,0
24238,340.909090909091,4,2,45,75,1,0
24238,-125,4,2,45,75,0,0
25601,387.096774193548,4,2,45,75,1,0
25794,298.507462686567,4,2,45,75,1,0
25794,-125,4,2,45,75,0,0
25942,340.909090909091,4,2,45,75,1,0
25942,-125,4,2,45,75,0,0
26965,340.909090909091,4,2,45,75,1,0
26965,-125,4,2,45,75,0,0
33105,319.148936170213,4,2,45,75,1,0
33105,-125,4,2,45,75,0,0
33583,352.941176470588,4,2,45,75,1,0
33583,-111.111111111111,4,2,45,75,0,0
33935,-125,4,2,45,75,0,0
34465,372.670807453416,4,2,45,75,1,0
34650,333.333333333333,4,2,45,75,1,0
34650,-125,4,2,45,75,0,0
34983,346.820809248555,4,2,45,75,1,0
35155,340.909090909091,4,2,45,75,1,0
35155,-125,4,2,45,75,0,0
44700,-99.9999999999999,4,2,45,75,0,0
45382,375,4,2,45,75,1,0
45569,307.692307692308,4,2,45,75,1,0
45722,333.333333333333,4,2,45,75,1,0
45888,352.941176470588,4,2,45,75,1,0
46064,340.909090909091,4,2,45,56,1,0
46064,-99.9999999999999,4,2,45,56,0,0
47427,-99.9999999999999,4,2,45,75,0,0
48279,319.148936170213,4,2,45,75,1,0
48438,337.078651685393,4,2,45,75,1,0
48606,370.37037037037,4,2,45,75,1,0
48791,340.909090909091,4,2,45,56,1,0
48791,-99.9999999999999,4,2,45,56,0,0
50155,-99.9999999999999,4,2,45,75,0,0
50836,329.67032967033,4,2,45,75,1,0
51165,352.941176470588,4,2,45,75,1,0
51518,340.909090909091,4,2,45,56,1,0
51518,-99.9999999999999,4,2,45,56,0,0
52883,-99.9999999999999,4,2,45,75,0,0
54245,307.692307692308,4,2,45,75,1,0
54398,375,4,2,45,75,1,0
54586,300,4,2,45,75,1,0
54736,382.165605095541,4,2,45,75,1,0
54927,372.670807453416,4,2,45,75,1,0
55112,324.324324324324,4,2,45,75,1,0
55436,344.827586206897,4,2,45,75,1,0
55608,340.909090909091,4,2,45,83,1,0
55608,-90.9090909090909,4,2,45,83,0,1
76405,-90.9090909090909,4,2,45,75,0,1
76745,-90.9090909090909,4,2,45,69,0,1
77086,-90.9090909090909,4,2,45,63,0,1
77426,-90.9090909090909,4,2,45,63,0,0
79471,-117.647058823529,4,2,45,53,0,0
79983,-100,4,2,45,75,0,0
81005,387.096774193548,4,2,45,75,1,0
81198,307.692307692308,4,2,45,75,1,0
81351,333.333333333333,4,2,45,75,1,0
81517,340.909090909091,4,2,45,75,1,0
87312,333.333333333333,4,2,45,75,1,0
87645,340.909090909091,4,2,45,75,1,0
88326,340.909090909091,4,2,45,75,1,0
89348,363.636363636364,4,2,45,75,1,0
89530,340.909090909091,4,2,45,75,1,0
89870,337.078651685393,4,2,45,75,1,0
90207,306.122448979592,4,2,45,75,1,0
90360,340.909090909091,4,2,45,75,1,0
90360,-125,4,2,45,75,0,0
90445,-125,4,2,45,5,0,0
90871,-125,4,2,45,40,0,0

[Colours]
Combo1 : 57,150,52
Combo2 : 240,120,0
Combo3 : 107,112,143
Combo4 : 30,65,232

[HitObjects]
85,87,1059,6,0,L|96:223,1,123.499994346619,6|2,1:2|0:0,0:0:0:0:
129,287,1571,1,0,0:0:0:0:
129,287,1741,2,0,P|171:306|199:306,1,61.7499971733095,2|0,0:0|0:0,0:0:0:0:
180,229,2082,2,0,P|220:221|247:203,1,61.7499971733095,2|0,0:0|0:0,0:0:0:0:
284,131,2423,6,0,P|269:176|326:250,1,123.499994346619,2|2,0:0|0:0,0:0:0:0:
409,169,2934,1,0,0:0:0:0:
409,169,3105,2,0,L|340:177,1,61.7499971733095,2|0,1:2|0:0,0:0:0:0:
382,253,3446,2,0,L|451:261,1,61.7499971733095,2|0,0:0|0:0,0:0:0:0:
508,313,3786,6,0,B|471:340|471:340|371:328,1,123.499994346619,2|2,1:2|0:0,0:0:0:0:
307,314,4298,1,0,0:0:0:0:
307,314,4468,2,0,P|282:346|243:361,1,61.7499971733095,2|0,0:0|0:0,0:0:0:0:
235,275,4809,2,0,P|196:286|155:276,1,61.7499971733095,2|0,0:0|0:0,0:0:0:0:
184,205,5150,6,0,B|125:197|124:247|62:240,1,123.499994346619,2|2,0:0|0:0,0:0:0:0:
10,168,5661,1,0,0:0:0:0:
10,168,5832,2,0,L|21:91,1,61.7499971733095,2|0,0:0|0:0,0:0:0:0:
100,47,6173,2,0,L|111:118,1,61.7499971733095,2|0,1:2|0:0,0:0:0:0:
201,123,6514,5,8,1:2:0:0:
218,135,6879,5,8,1:2:0:0:
274,288,7047,1,8,0:0:0:0:
299,96,7216,1,8,1:2:0:0:
183,261,7384,1,8,0:0:0:0:
227,50,7553,1,8,1:2:0:0:
351,241,7721,1,8,0:0:0:0:
373,7,7878,6,0,L|388:110,1,85.4999973907472,8|8,1:2|0:0,0:0:0:0:
267,265,8217,1,8,1:2:0:0:
454,142,8388,1,8,0:0:0:0:
218,135,8558,1,8,1:2:0:0:
421,311,8729,1,8,0:0:0:0:
303,75,8899,1,8,1:2:0:0:
222,328,9070,1,8,0:0:0:0:
385,91,9240,6,0,P|429:59|477:62,1,85.4999973907472,8|8,1:2|0:0,0:0:0:0:
406,323,9581,1,8,1:2:0:0:
227,50,9752,1,8,0:0:0:0:
512,203,9922,1,8,1:2:0:0:
205,310,10092,1,8,0:0:0:0:
366,4,10263,2,0,L|377:107,1,85.4999973907472,0|0,1:2|1:2,0:0:0:0:
277,175,10604,5,8,1:2:0:0:
277,175,10689,1,0,1:2:0:0:
277,175,10774,2,0,P|251:192|205:197,1,42.7499986953736,0|0,1:2|1:2,0:0:0:0:
144,108,10945,2,0,L|155:238,1,114,8|0,1:2|0:0,0:0:0:0:
156,254,11286,2,0,P|196:279|247:277,2,76,2|2|2,0:0|0:0|0:0,0:0:0:0:
54,97,11797,6,0,P|79:52|198:33,1,170.999994781494,6|2,0:0|1:2,0:0:0:0:
365,186,12308,1,10,0:0:0:0:
284,9,12479,2,0,L|265:117,1,85.4999973907472,2|0,0:0|1:2,0:0:0:0:
76,207,12820,1,2,1:2:0:0:
176,53,12990,1,10,0:0:0:0:
183,242,13161,6,0,L|171:343,1,85.4999973907472,2|0,1:2|0:0,0:0:0:0:
313,242,13502,1,2,1:2:0:0:
313,242,13672,2,0,L|302:157,1,85.4999973907472,10|0,0:0|0:0,0:0:0:0:
264,332,14013,1,2,1:2:0:0:
417,237,14183,1,2,1:2:0:0:
244,311,14354,1,10,0:0:0:0:
430,342,14524,6,0,P|491:359|527:352,1,85.4999973907472,2|0,1:2|0:0,0:0:0:0:
414,149,14865,1,2,1:2:0:0:
354,314,15036,1,10,0:0:0:0:
498,195,15206,2,0,P|506:146|494:102,1,85.4999973907472,2|0,0:0|1:2,0:0:0:0:
326,104,15547,1,2,1:2:0:0:
419,237,15717,1,10,0:0:0:0:
409,48,15888,6,0,P|356:26|298:29,1,85.4999973907472,2|0,1:2|0:0,0:0:0:0:
267,169,16229,1,2,1:2:0:0:
267,169,16399,2,0,P|213:190|173:190,1,85.4999973907472,10|0,0:0|0:0,0:0:0:0:
23,121,16740,1,2,1:2:0:0:
193,19,16921,1,2,1:2:0:0:
7,101,17082,1,10,0:0:0:0:
172,107,17251,6,0,P|184:149|184:199,1,85.4999973907472,2|0,1:2|0:0,0:0:0:0:
107,330,17592,1,2,1:2:0:0:
0,212,17762,1,10,0:0:0:0:
178,223,17933,2,0,P|225:241|253:283,1,85.4999973907472,2|0,0:0|1:2,0:0:0:0:
86,341,18274,1,2,1:2:0:0:
101,161,18444,1,10,0:0:0:0:
303,337,18615,6,0,P|252:358|197:344,1,85.4999973907472,2|0,1:2|0:0,0:0:0:0:
317,216,18956,1,2,1:2:0:0:
317,216,19126,2,0,P|369:223|404:252,1,85.4999973907472,10|0,0:0|0:0,0:0:0:0:
444,363,19467,1,2,1:2:0:0:
246,267,19637,1,2,1:2:0:0:
427,384,19808,1,10,0:0:0:0:
352,141,19978,6,0,B|340:14|340:14|369:50,1,170.999994781494,2|2,1:2|1:2,0:0:0:0:
412,207,20490,2,0,P|372:225|318:223,1,85.4999973907472,10|2,0:0|0:0,0:0:0:0:
132,129,20841,1,0,1:2:0:0:
310,73,21022,1,2,1:2:0:0:
210,249,21181,1,10,0:0:0:0:
209,45,21341,5,2,1:2:0:0:
231,34,21682,5,2,2:2:0:0:
253,23,22023,5,2,1:2:0:0:
366,135,22194,2,0,P|338:142|317:144,1,42.7499986953736,8|0,0:0|1:0,0:0:0:0:
227,130,22375,1,0,1:0:0:0:
227,130,22466,1,0,1:0:0:0:
227,130,22557,1,0,1:0:0:0:
420,73,22737,6,0,P|446:116|442:168,1,76,6|0,0:0|0:0,0:0:0:0:
371,226,23063,1,2,1:2:0:0:
324,143,23233,1,8,0:0:0:0:
276,226,23403,2,0,L|287:310,1,76,2|0,0:0|1:2,0:0:0:0:
437,341,23728,2,0,P|398:315|358:310,1,76,2|8,1:2|0:0,0:0:0:0:
202,327,24068,1,2,1:2:0:0:
294,384,24239,5,2,0:0:0:0:
252,243,24408,2,0,L|166:231,1,76,2|8,1:2|0:0,0:0:0:0:
42,212,24749,2,0,B|87:215|108:189|112:183|115:178|139:146|183:155,1,152,2|0,1:2|1:2,0:0:0:0:
247,114,25260,2,0,P|212:83|171:75,1,76,10|0,0:0|1:2,0:0:0:0:
48,124,25601,5,2,0:0:0:0:
112,38,25794,2,0,P|147:7|188:-1,1,76,2|8,1:2|0:0,0:0:0:0:
263,140,26112,1,2,0:0:0:0:
184,75,26282,1,2,1:2:0:0:
335,75,26453,2,0,L|345:-4,1,76,2|8,1:2|0:0,0:0:0:0:
263,140,26794,6,0,L|242:324,1,152,2|0,1:2|1:2,0:0:0:0:
274,369,27305,2,0,P|308:382|366:377,1,76,8|2,0:0|0:0,0:0:0:0:
336,217,27646,1,2,1:2:0:0:
325,305,27817,1,2,1:2:0:0:
418,183,27987,1,10,0:0:0:0:
347,129,28158,1,2,1:2:0:0:
406,271,28328,5,2,0:0:0:0:
488,236,28499,2,0,P|506:192|499:148,1,76,2|8,1:2|0:0,0:0:0:0:
476,66,28840,2,0,L|398:53,1,76,2|0,0:0|1:2,0:0:0:0:
272,141,29180,2,0,L|350:128,1,76,2|8,1:2|0:0,0:0:0:0:
214,73,29521,6,0,P|182:132|220:214,1,152,2|0,1:2|1:2,0:0:0:0:
313,242,30033,1,8,0:0:0:0:
313,242,30203,2,0,L|305:328,1,76,2|0,0:0|1:2,0:0:0:0:
214,380,30544,2,0,L|206:304,1,76,2|8,1:2|0:0,0:0:0:0:
118,215,30885,1,2,1:2:0:0:
25,318,31055,5,2,0:0:0:0:
104,367,31226,2,0,P|118:323|107:277,1,76,2|8,1:2|0:0,0:0:0:0:
20,162,31567,2,0,P|17:199|31:235,1,76,2|0,0:0|1:2,0:0:0:0:
106,185,31908,2,0,P|120:141|109:95,1,76,2|8,1:2|0:0,0:0:0:0:
9,31,32249,6,0,L|95:21,1,76,2|0,1:2|0:0,0:0:0:0:
191,120,32590,2,0,L|105:110,1,76,2|8,1:2|0:0,0:0:0:0:
229,36,32930,1,2,0:0:0:0:
264,193,33101,1,0,1:2:0:0:
264,193,33184,1,0,1:2:0:0:
264,193,33264,2,0,L|270:156,2,38,8|8|10,0:0|0:0|0:0,0:0:0:0:
345,67,33583,6,0,B|359:113|359:113|339:259,1,170.999994781494,6|2,0:0|1:2,0:0:0:0:
249,314,34112,1,8,0:0:0:0:
188,247,34288,2,0,P|232:225|270:225,1,76,2|0,0:0|1:2,0:0:0:0:
161,330,34651,2,0,P|118:307|96:264,1,76,2|8,1:2|0:0,0:0:0:0:
97,123,34983,1,2,1:2:0:0:
118,207,35156,5,2,0:0:0:0:
0,185,35325,2,0,L|11:91,1,76,2|8,1:2|0:0,0:0:0:0:
80,11,35666,2,0,B|97:123|97:123|142:132,1,152,2|0,0:0|1:2,0:0:0:0:
268,5,36177,1,10,0:0:0:0:
165,54,36348,1,2,1:2:0:0:
281,92,36518,5,2,0:0:0:0:
178,141,36689,2,0,P|162:186|170:233,1,76,2|8,1:2|0:0,0:0:0:0:
277,340,37030,2,0,P|246:303|200:288,1,76,2|0,0:0|1:2,0:0:0:0:
55,326,37370,2,0,P|101:317|138:282,1,76,2|8,1:2|0:0,0:0:0:0:
178,141,37711,6,0,P|221:199|271:159,1,152,2|0,1:2|1:2,0:0:0:0:
246,4,38223,2,0,L|236:80,1,76,8|2,0:0|0:0,0:0:0:0:
361,168,38564,1,2,1:2:0:0:
325,64,38734,1,2,1:2:0:0:
270,159,38905,1,10,0:0:0:0:
418,73,39075,6,0,B|444:122|444:122|432:245,1,152,6|0,1:2|1:2,0:0:0:0:
348,313,39586,1,10,0:0:0:0:
280,254,39757,2,0,P|311:230|362:223,1,76,2|0,0:0|1:2,0:0:0:0:
259,347,40098,1,2,1:2:0:0:
190,286,40268,1,10,0:0:0:0:
270,134,40439,6,0,B|280:254|280:254|240:221,1,152,2|0,1:2|1:2,0:0:0:0:
177,155,40950,2,0,P|141:134|96:134,1,76,8|2,0:0|0:0,0:0:0:0:
10,263,41291,1,2,1:2:0:0:
116,218,41461,1,2,1:2:0:0:
0,171,41632,1,10,0:0:0:0:
90,302,41802,6,0,P|123:318|172:313,1,76,2|0,1:2|0:0,0:0:0:0:
273,219,42143,2,0,P|235:220|201:236,1,76,2|8,1:2|0:0,0:0:0:0:
268,382,42484,2,0,L|257:300,1,76,2|0,0:0|1:2,0:0:0:0:
363,186,42825,2,0,L|349:267,1,76,2|8,1:2|0:0,0:0:0:0:
453,362,43166,6,0,L|441:279,1,76,2|0,1:2|0:0,0:0:0:0:
418,111,43507,1,2,1:2:0:0:
273,219,43677,2,0,L|197:208,1,76,12|2,0:0|0:0,0:0:0:0:
116,96,44018,6,0,L|122:133,3,38,4|0|0|8,1:2|1:2|1:2|1:2,0:0:0:0:
67,218,44359,5,10,1:2:0:0:
63,236,44444,1,8,1:2:0:0:
60,254,44530,1,8,1:2:0:0:
56,272,44615,1,8,1:2:0:0:
53,290,44700,5,6,0:0:0:0:
146,358,44870,2,0,P|196:381|239:378,1,95,2|8,0:0|0:0,0:0:0:0:
345,186,45211,1,2,0:0:0:0:
208,293,45382,1,2,1:2:0:0:
366,384,45569,2,0,L|381:281,1,95,2|8,1:2|0:0,0:0:0:0:
236,202,45888,1,2,1:2:0:0:
280,370,46064,5,2,0:0:0:0:
285,343,46404,1,2,0:0:0:0:
290,316,46745,1,2,0:0:0:0:
295,289,47086,1,2,0:0:0:0:
300,262,47427,5,6,0:0:0:0:
171,145,47598,2,0,L|75:157,1,95,2|8,0:0|0:0,0:0:0:0:
0,310,47939,1,2,0:0:0:0:
169,230,48109,1,2,1:2:0:0:
0,122,48279,2,0,P|-4:179|37:230,1,95,2|8,1:2|0:0,0:0:0:0:
112,324,48606,1,2,1:2:0:0:
195,140,48791,5,2,0:0:0:0:
168,147,49131,1,2,0:0:0:0:
141,154,49472,1,2,0:0:0:0:
124,80,49643,1,2,0:0:0:0:
107,6,49813,1,2,0:0:0:0:
80,13,50154,5,6,0:0:0:0:
201,106,50325,2,0,P|245:128|306:119,1,95,2|8,0:0|0:0,0:0:0:0:
419,0,50666,1,2,0:0:0:0:
259,34,50836,1,2,1:2:0:0:
444,180,51000,2,0,L|455:76,1,95,2|8,1:2|0:0,0:0:0:0:
289,125,51341,1,2,1:2:0:0:
386,278,51517,5,2,0:0:0:0:
414,283,51858,1,2,0:0:0:0:
442,288,52199,1,2,0:0:0:0:
470,293,52540,1,2,0:0:0:0:
498,298,52881,6,0,L|399:312,1,95,6|0,0:0|0:0,0:0:0:0:
145,295,53222,5,10,0:0:0:0:
346,68,53393,1,0,1:2:0:0:
266,357,53563,5,10,0:0:0:0:
136,96,53733,1,0,1:2:0:0:
401,220,53904,6,0,P|414:272|403:312,1,95,10|0,0:0|0:0,0:0:0:0:
226,132,54245,5,10,0:2:0:0:
226,132,54321,1,0,1:2:0:0:
226,132,54398,2,0,L|231:82,1,47.5,0|0,1:2|1:2,0:0:0:0:
340,20,54586,2,0,L|347:76,2,47.5,8|8|0,0:2|0:2|1:2,0:0:0:0:
304,190,54927,5,2,1:2:0:0:
163,17,55113,1,8,0:0:0:0:
232,322,55274,1,8,0:0:0:0:
190,29,55436,1,8,0:0:0:0:
123,312,55608,6,0,P|73:341|11:343,1,104.500003189087,2|0,1:2|0:0,0:0:0:0:
182,141,55948,2,0,P|238:145|286:175,1,104.500003189087,10|0,1:2|0:0,0:0:0:0:
42,241,56289,1,2,1:2:0:0:
114,66,56460,1,0,0:0:0:0:
196,236,56630,1,10,1:2:0:0:
25,103,56801,6,0,L|37:-4,1,104.500003189087,2|0,0:0|1:2,0:0:0:0:
184,132,57142,2,0,L|195:235,1,104.500003189087,2|8,0:0|1:2,0:0:0:0:
114,66,57483,2,0,P|173:39|235:50,1,104.500003189087,2|0,0:0|1:2,0:0:0:0:
350,218,57823,1,2,0:0:0:0:
184,132,57994,1,10,1:2:0:0:
375,62,58164,1,0,0:0:0:0:
266,282,58335,6,0,L|150:299,1,104.500003189087,2|0,1:2|0:0,0:0:0:0:
1,175,58676,2,0,L|104:190,1,104.500003189087,10|0,1:2|0:0,0:0:0:0:
257,75,59017,1,2,1:2:0:0:
105,21,59187,1,0,0:0:0:0:
266,166,59358,2,0,P|326:132|348:93,1,104.500003189087,10|0,1:2|0:0,0:0:0:0:
178,128,59698,6,0,L|191:251,1,104.500003189087,2|0,1:2|0:0,0:0:0:0:
350,324,60039,2,0,L|360:220,1,104.500003189087,10|0,1:2|0:0,0:0:0:0:
136,302,60380,1,0,1:2:0:0:
273,241,60551,1,8,0:2:0:0:
273,241,60636,1,8,0:0:0:0:
273,241,60721,1,0,1:2:0:0:
231,376,60892,2,0,L|174:369,1,34.8333343963623,8|8,0:0|0:0,0:0:0:0:
48,315,61062,6,0,L|36:151,2,156.750004783631,2|2|2,1:2|0:0|0:0,0:0:0:0:
181,236,61744,2,0,P|210:187|214:133,1,104.500003189087,2|0,1:2|0:0,0:0:0:0:
143,46,62000,1,2,0:0:0:0:
143,46,62085,2,0,L|255:59,1,104.500003189087,8|2,1:2|0:0,0:0:0:0:
415,138,62426,6,0,P|459:92|449:1,2,156.750004783631,2|2|2,1:2|0:0|0:0,0:0:0:0:
299,159,63108,2,0,L|309:266,1,104.500003189087,2|0,1:2|0:0,0:0:0:0:
350,351,63363,1,2,0:0:0:0:
350,351,63448,2,0,P|421:371|459:358,1,104.500003189087,8|2,1:2|0:0,0:0:0:0:
308,263,63789,6,0,P|251:244|193:260,1,104.500003189087,2|0,1:2|0:0,0:0:0:0:
97,377,64130,1,8,1:2:0:0:
250,330,64301,1,2,0:0:0:0:
79,189,64471,2,0,L|64:296,1,104.500003189087,2|0,1:2|0:0,0:0:0:0:
204,153,64812,1,8,1:2:0:0:
0,107,64983,1,2,0:0:0:0:
186,272,65153,5,2,1:2:0:0:
150,49,65323,1,2,0:0:0:0:
64,292,65494,5,10,1:2:0:0:
302,159,65664,1,2,0:0:0:0:
30,32,65835,5,2,1:2:0:0:
30,32,65920,1,0,1:2:0:0:
30,32,66005,2,0,L|25:92,1,52.2500015945435,8|8,1:2|1:2,0:0:0:0:
121,209,66176,2,0,L|115:146,3,52.2500015945435,8|0|0|0,1:2|1:2|1:2|1:2,0:0:0:0:
166,26,66517,6,0,P|221:1|284:21,1,104.500003189087,6|0,1:2|0:0,0:0:0:0:
240,189,66858,2,0,L|225:69,1,104.500003189087,10|0,1:2|0:0,0:0:0:0:
320,253,67198,1,2,1:2:0:0:
164,270,67369,1,0,0:0:0:0:
346,153,67539,1,10,1:2:0:0:
344,347,67710,6,0,P|293:372|246:368,1,104.500003189087,2|0,0:0|1:2,0:0:0:0:
405,215,68051,2,0,P|462:215|508:246,1,104.500003189087,2|8,0:0|1:2,0:0:0:0:
281,275,68392,2,0,L|266:155,1,104.500003189087,2|0,0:0|1:2,0:0:0:0:
317,17,68733,1,2,0:0:0:0:
177,168,68903,1,10,1:2:0:0:
389,195,69073,1,0,0:0:0:0:
221,34,69244,6,0,P|176:14|111:23,1,104.500003189087,2|0,1:2|0:0,0:0:0:0:
0,216,69585,2,0,P|56:214|103:175,1,104.500003189087,10|0,1:2|0:0,0:0:0:0:
19,14,69926,2,0,L|27:131,1,104.500003189087,2|0,1:2|0:0,0:0:0:0:
168,276,70267,1,10,1:2:0:0:
214,77,70437,1,2,0:0:0:0:
71,316,70608,5,2,1:2:0:0:
26,118,70778,1,2,0:0:0:0:
248,258,70948,2,0,P|239:317|191:359,1,104.500003189087,10|0,1:2|0:0,0:0:0:0:
51,218,71289,1,2,1:2:0:0:
213,105,71460,2,0,L|202:165,1,52.2500015945435,8|8,0:0|0:0,0:0:0:0:
150,290,71630,1,8,0:0:0:0:
144,42,71801,1,8,0:0:0:0:
144,42,71886,1,8,0:0:0:0:
144,42,71971,6,0,B|185:12|185:12|311:31,2,156.750004783631,2|2|2,1:2|0:0|0:0,0:0:0:0:
154,190,72653,2,0,P|205:206|256:198,1,104.500003189087,2|0,1:2|0:0,0:0:0:0:
341,155,72909,1,2,0:0:0:0:
341,155,72994,2,0,L|349:283,1,104.500003189087,8|2,1:2|0:0,0:0:0:0:
409,365,73335,6,0,B|436:320|436:320|428:178,2,156.750004783631,2|2|2,1:2|0:0|0:0,0:0:0:0:
276,322,74017,2,0,P|219:292|162:301,1,104.500003189087,2|0,1:2|0:0,0:0:0:0:
83,334,74272,1,2,0:0:0:0:
83,334,74358,2,0,L|72:218,1,104.500003189087,8|2,1:2|0:0,0:0:0:0:
13,68,74698,6,0,P|63:39|140:56,1,104.500003189087,2|0,1:2|0:0,0:0:0:0:
260,184,75039,1,8,1:2:0:0:
84,128,75210,1,2,0:0:0:0:
242,0,75380,2,0,L|252:109,1,104.500003189087,2|0,1:2|0:0,0:0:0:0:
268,271,75721,1,8,1:2:0:0:
166,115,75892,1,2,0:0:0:0:
364,212,76062,5,12,1:2:0:0:
364,212,76147,1,8,1:2:0:0:
364,212,76233,2,0,L|356:288,1,52.2500015945435,8|8,1:2|1:2,0:0:0:0:
488,360,76403,1,8,1:2:0:0:
488,360,76488,1,8,1:2:0:0:
488,360,76573,2,0,L|480:284,1,52.2500015945435,8|8,1:2|1:2,0:0:0:0:
380,368,76744,6,0,L|328:362,3,52.2500015945435,8|0|0|0,1:2|1:2|1:2|1:2,0:0:0:0:
216,276,77085,2,0,L|267:270,3,52.2500015945435,0|0|0|0,1:2|1:2|1:2|1:2,0:0:0:0:
380,192,77426,5,4,1:2:0:0:
256,192,77511,12,0,78789,0:0:0:0:
85,226,79471,6,0,L|72:320,2,80.750001540184,2|2|2,0:0|0:0|0:0,0:0:0:0:
72,107,79983,6,0,B|124:86|157:135|159:140|161:145|189:190|246:181,1,190,6|2,0:0|1:2,0:0:0:0:
388,89,80494,1,10,0:0:0:0:
253,0,80664,2,0,L|238:113,1,95,2|0,0:0|1:2,0:0:0:0:
359,253,81005,1,2,1:2:0:0:
473,118,81198,1,10,0:0:0:0:
297,182,81351,6,0,P|269:230|268:276,1,95,2|0,1:2|0:0,0:0:0:0:
464,345,81687,1,2,1:2:0:0:
464,345,81857,2,0,P|462:296|440:253,1,95,10|0,0:0|0:0,0:0:0:0:
233,231,82198,1,2,1:2:0:0:
365,360,82369,1,2,1:2:0:0:
414,179,82539,1,10,0:0:0:0:
251,346,82710,6,0,L|135:335,1,95,2|0,1:2|0:0,0:0:0:0:
10,274,83051,1,2,1:2:0:0:
206,202,83221,1,10,0:0:0:0:
68,338,83392,2,0,P|93:285|90:236,1,95,2|0,0:0|1:2,0:0:0:0:
111,61,83732,1,2,1:2:0:0:
0,190,83903,1,10,0:0:0:0:
189,112,84073,6,0,P|206:63|194:9,1,95,2|0,1:2|0:0,0:0:0:0:
88,158,84414,1,2,1:2:0:0:
88,158,84585,2,0,P|79:215|113:273,1,95,10|0,0:0|0:0,0:0:0:0:
318,286,84926,1,2,1:2:0:0:
166,192,85096,1,2,1:2:0:0:
333,265,85267,1,10,0:0:0:0:
102,340,85437,6,0,P|87:296|93:246,1,95,6|0,1:2|0:0,0:0:0:0:
274,126,85778,1,2,1:2:0:0:
181,283,85948,1,14,0:0:0:0:
147,90,86119,2,0,P|190:55|249:52,1,95,2|0,0:0|1:2,0:0:0:0:
368,226,86460,1,2,1:2:0:0:
171,183,86630,1,10,0:0:0:0:
385,135,86801,6,0,P|433:159|459:218,1,95,2|0,1:2|0:0,0:0:0:0:
376,314,87142,1,2,1:2:0:0:
376,314,87312,2,0,L|271:327,1,95,10|0,0:0|0:0,0:0:0:0:
251,93,87645,1,2,1:2:0:0:
181,292,87815,1,2,1:2:0:0:
112,47,87985,1,10,0:0:0:0:
28,250,88156,6,0,P|63:300|199:267,1,190,6|2,1:2|0:0,0:0:0:0:
338,73,88666,1,2,1:2:0:0:
117,225,88837,1,2,1:2:0:0:
385,226,89007,1,10,1:2:0:0:
149,67,89178,1,2,0:0:0:0:
259,319,89348,1,0,1:2:0:0:
360,53,89529,5,10,0:0:0:0:
355,74,89870,5,10,0:0:0:0:
350,95,90207,5,10,0:0:0:0:
201,211,90360,2,0,B|138:211|108:152|108:152|90:217|19:229,1,228,10|0,0:0|0:0,0:0:0:0:
