osu file format v14

[General]
AudioFilename: audio.mp3
AudioLeadIn: 0
PreviewTime: -1
Countdown: 1
SampleSet: Normal
StackLeniency: 0.7
Mode: 0
LetterboxInBreaks: 0
WidescreenStoryboard: 1

[Editor]
Bookmarks: 25389,56336,70784,96758,98494,127073
DistanceSpacing: 2.2
BeatDivisor: 4
GridSize: 8
TimelineZoom: 1.950002

[Metadata]
Title:Mr.Yoshida
TitleUnicode:Mr.Yoshida
Artist:Silent Siren
ArtistUnicode:Silent Siren
Creator:Supreme
Version:EXTRA gpwjgwegweg
Source:
Tags:
BeatmapID:1137791
BeatmapSetID:512590

[Difficulty]
HPDrainRate:6
CircleSize:4
OverallDifficulty:7
ApproachRate:9.3
SliderMultiplier:1.7
SliderTickRate:1

[Events]
//Background and Video events
0,0,"images.jpg",0,0
//Break Periods
//Storyboard Layer 0 (Background)
//Storyboard Layer 1 (Fail)
//Storyboard Layer 2 (Pass)
//Storyboard Layer 3 (Foreground)
//Storyboard Sound Samples

[TimingPoints]
758,315.789473684211,4,1,0,100,1,0
5968,-100,4,1,0,100,0,0
6126,-100,4,1,0,100,0,0
15915,-133.333333333333,4,1,0,100,0,0
20968,-100,4,1,0,100,0,0
22231,-100,4,1,0,100,0,0
22389,-133.333333333333,4,1,0,100,0,0
25705,-66.6666666666667,4,1,0,100,0,0
25863,-133.333333333333,4,1,0,100,0,0
26021,-100,4,1,0,100,0,0
28231,-66.6666666666667,4,1,0,100,0,0
30126,-100,4,1,0,100,0,0
31073,-66.6666666666667,4,1,0,100,0,0
31231,-100,4,1,0,100,0,0
32021,-66.6666666666667,4,1,0,100,0,0
32179,-100,4,1,0,100,0,0
32652,-100,4,1,0,100,0,0
32810,-100,4,1,0,100,0,0
32968,-100,4,1,0,100,0,0
33126,-100,4,1,0,100,0,0
35177,-66.6666666666667,4,1,0,100,0,0
35338,-100,4,1,0,100,0,0
35494,-133.333333333333,4,1,0,100,0,0
36126,-100,4,1,0,100,0,0
36442,-133.333333333333,4,1,0,100,0,0
43705,-100,4,1,0,100,0,0
46231,-133.333333333333,4,1,0,100,0,0
56336,-100,4,1,0,100,0,1
62179,-80,4,1,0,100,0,0
62336,-100,4,1,0,100,0,0
86652,-133.333333333333,4,1,0,100,0,0
91073,-100,4,1,0,100,0,0
93284,-133.333333333333,4,1,0,100,0,0
96758,-100,4,1,0,100,0,0
98968,-66.6666666666667,4,1,0,100,0,0
99284,-100,4,1,0,100,0,0
101652,-66.6666666666667,4,1,0,100,0,0
101810,-100,4,1,0,100,0,0
106863,-66.6666666666667,4,1,0,100,0,0
107021,-133.333333333333,4,1,0,100,0,0
108126,-133.333333333333,4,1,0,100,0,0
114442,-100,4,1,0,100,0,0
116968,-66.6666666666667,4,1,0,100,0,0
117126,-100,4,1,0,100,0,0
118231,-66.6666666666667,4,1,0,100,0,0
118389,-100,4,1,0,100,0,0
119494,-66.6666666666667,4,1,0,100,0,0
119652,-100,4,1,0,100,0,0
122021,-66.6666666666667,4,1,0,100,0,0
122179,-100,4,1,0,100,0,0
123284,-66.6666666666667,4,1,0,100,0,0
123915,-100,4,1,0,100,0,0

[HitObjects]
118,81,5810,6,0,P|107:128|128:171,1,85
224,224,6126,1,8,0:3:0:0:
336,160,6284,2,0,P|351:105|336:64,1,85,0|0,0:3|0:3,0:3:0:0:
222,74,6600,1,0,0:3:0:0:
224,224,6758,1,8,0:3:0:0:
359,318,6915,5,0,0:3:0:0:
359,318,6994,1,0,0:3:0:0:
359,318,7073,2,0,P|305:355|250:355,1,85,0|0,0:3|0:3,0:3:0:0:
85,275,7389,2,0,P|66:212|83:159,1,85,0|0,0:3|0:3,0:3:0:0:
74,179,7626,1,8,0:3:0:0:
74,179,7705,1,0,0:3:0:0:
224,224,7863,1,8,0:1:0:0:
174,364,8021,1,8,0:3:0:0:
218,242,8179,1,0,0:3:0:0:
359,318,8336,6,0,B|416:293|441:243|441:243|426:180,1,170,0|8,0:3|0:3,0:3:0:0:
359,45,8810,1,0,0:3:0:0:
187,91,8968,1,0,0:3:0:0:
299,165,9126,1,0,0:3:0:0:
260,12,9284,5,8,0:3:0:0:
197,188,9442,1,0,0:3:0:0:
389,133,9600,1,0,0:3:0:0:
278,87,9758,5,0,0:3:0:0:
325,261,9916,1,8,0:3:0:0:
89,314,10074,5,8,0:3:0:0:
89,314,10152,1,8,0:3:0:0:
89,314,10231,2,0,L|72:217,1,85,0|8,0:3|0:1,0:3:0:0:
197,188,10547,1,8,0:3:0:0:
325,261,10705,6,0,L|401:269,1,42.5,0|0,0:3|0:3,0:3:0:0:
324,147,10863,2,4,P|281:80|160:55,1,170,4|8,0:3|0:3,0:3:0:0:
156,55,11336,1,0,0:3:0:0:
197,188,11494,1,8,0:3:0:0:
56,159,11652,1,0,0:3:0:0:
197,188,11810,6,0,L|204:298,1,85,8|0,0:3|0:3,0:3:0:0:
252,334,12047,1,0,0:3:0:0:
252,334,12126,2,0,L|343:325,1,85,0|0,0:3|0:3,0:3:0:0:
396,201,12442,1,8,0:3:0:0:
258,129,12600,5,0,0:3:0:0:
258,129,12679,1,8,0:3:0:0:
258,129,12758,2,0,L|190:193,1,85,0|0,0:3|0:3,0:3:0:0:
39,95,13073,2,0,P|71:47|183:31,1,170,12|0,0:3|0:3,0:3:0:0:
116,255,13547,5,8,0:3:0:0:
258,129,13705,1,0,0:3:0:0:
138,118,13863,1,0,0:3:0:0:
243,297,14021,1,0,0:3:0:0:
258,129,14179,1,0,0:3:0:0:
367,309,14336,5,8,0:3:0:0:
382,139,14494,1,0,0:3:0:0:
247,212,14652,1,0,0:3:0:0:
382,139,14810,1,0,0:3:0:0:
271,49,14968,1,8,0:3:0:0:
250,303,15126,5,12,0:3:0:0:
250,303,15205,1,12,0:3:0:0:
250,303,15284,1,14,0:3:0:0:
101,196,15442,1,8,0:1:0:0:
258,129,15600,1,0,0:3:0:0:
400,192,15758,5,0,0:3:0:0:
400,192,15915,2,0,B|415:228|400:256|400:256,2,63.7500024318696,0|0|0,0:3|0:3|0:3,0:3:0:0:
258,129,16389,1,0,0:3:0:0:
177,233,16547,2,0,P|175:273|199:319,1,63.7500024318696,0|0,0:3|0:3,0:3:0:0:
303,331,16863,1,8,0:3:0:0:
258,129,17021,1,0,0:3:0:0:
117,135,17179,6,0,L|68:207,1,63.7500024318696,0|0,0:3|0:3,0:3:0:0:
124,331,17494,2,0,L|191:351,1,63.7500024318696,8|0,0:3|0:3,0:3:0:0:
283,230,17810,2,0,L|283:154,1,63.7500024318696,0|0,0:3|0:3,0:3:0:0:
168,56,18126,1,8,0:3:0:0:
91,248,18284,5,0,0:3:0:0:
91,248,18442,2,0,P|78:202|91:165,2,63.7500024318696,0|0|8,0:3|0:3|0:3,0:3:0:0:
192,160,18915,1,0,0:3:0:0:
147,37,19073,2,0,P|112:68|101:112,1,63.7500024318696,0|0,0:3|0:3,0:3:0:0:
217,177,19389,1,8,0:3:0:0:
345,120,19547,1,0,0:3:0:0:
320,320,19705,6,8,B|304:304|304:304|293:263,1,63.7500024318696,8|8,0:1|0:1,0:1:0:0:
345,120,20021,2,8,B|379:144|379:144|400:189,1,63.7500024318696,8|8,0:1|0:1,0:1:0:0:
232,208,20336,2,8,B|197:183|197:183|176:138,1,63.7500024318696,8|8,0:1|0:1,0:1:0:0:
256,32,20652,1,8,0:3:0:0:
90,280,20968,6,0,P|89:303|31:353,2,85,0|0|8,0:3|0:3|0:3,0:3:0:0:
216,334,21442,1,0,0:3:0:0:
304,224,21600,2,0,P|327:184|312:127,1,85,0|0,0:3|0:3,0:3:0:0:
96,72,21915,1,8,0:3:0:0:
96,72,22073,2,0,P|128:120|192:136,1,85
300,118,22389,1,0,0:0:0:0:
304,224,22547,2,0,L|260:279,1,63.7500024318696,0|0,0:3|0:3,0:3:0:0:
184,120,22863,2,0,L|222:69,1,63.7500024318696,0|0,0:3|0:3,0:3:0:0:
304,224,23179,1,8,0:3:0:0:
75,288,23494,6,0,L|67:217,2,63.7500024318696,0|0|8,0:3|0:3|0:3,0:3:0:0:
198,185,23968,2,0,L|126:146,1,63.7500024318696,0|0,0:3|0:3,0:3:0:0:
184,298,24284,1,0,0:3:0:0:
202,323,24442,1,8,0:3:0:0:
53,58,24758,6,0,L|12:127,1,63.7500024318696,0|0,0:3|0:3,0:3:0:0:
198,185,25073,5,8,0:3:0:0:
68,369,25231,1,8,0:1:0:0:
313,217,25389,5,8,0:3:0:0:
166,46,25547,1,8,0:1:0:0:
313,217,25705,6,0,P|286:315|241:361,1,127.500004863739,8|0,0:3|0:3,0:3:0:0:
271,334,25942,1,0,0:3:0:0:
271,334,26021,1,0,0:3:0:0:
198,185,26179,6,0,P|207:138|253:90,1,85,0|8,0:3|0:3,0:3:0:0:
338,59,26494,1,0,0:3:0:0:
408,157,26652,2,0,P|429:207|418:270,1,85,0|0,0:3|0:3,0:3:0:0:
261,283,26967,5,8,0:3:0:0:
111,185,27126,1,0,0:3:0:0:
277,105,27284,1,0,0:3:0:0:
232,294,27442,1,0,0:3:0:0:
197,65,27600,1,8,0:3:0:0:
232,321,27758,1,0,0:3:0:0:
191,39,27915,2,0,P|256:35|288:54,1,85
195,263,28231,6,0,P|201:185|264:129,1,127.500004863739,8|0,0:3|0:3,0:3:0:0:
237,155,28468,1,0,0:3:0:0:
237,155,28547,1,0,0:3:0:0:
71,20,28705,1,0,0:3:0:0:
85,194,28863,1,8,0:3:0:0:
219,59,29021,1,0,0:3:0:0:
85,194,29179,1,0,0:3:0:0:
262,252,29336,1,0,0:3:0:0:
150,125,29494,1,8,0:3:0:0:
278,343,29652,6,0,P|333:303|348:231,1,127.500004863739,0|0,0:3|0:3,0:3:0:0:
357,83,29968,1,0,0:3:0:0:
244,132,30126,2,0,P|273:175|323:198,1,85,8|0,0:3|0:3,0:3:0:0:
357,83,30442,2,0,P|309:27|277:11,1,85,0|0,0:3|0:3,0:3:0:0:
272,18,30679,1,0,0:3:0:0:
272,18,30758,1,8,0:3:0:0:
269,157,30915,1,0,0:0:0:0:
148,237,31073,2,0,P|204:285|276:277,1,127.500004863739
128,96,31389,2,0,P|84:108|56:141,1,85,0|0,0:3|0:3,0:3:0:0:
155,248,31705,1,0,0:3:0:0:
270,130,31863,6,0,P|278:77|234:29,1,85,0|8,0:1|3:3,3:3:0:0:
143,75,32179,1,0,0:3:0:0:
27,197,32336,1,8,0:1:0:0:
162,179,32494,1,0,0:3:0:0:
31,113,32652,2,0,P|22:156|31:212,1,85,8|0,0:3|0:3,0:3:0:0:
284,162,32968,2,0,P|336:166|377:196,1,85,8|0,0:1|0:3,0:3:0:0:
368,336,33284,5,8,0:3:0:0:
215,241,33442,1,0,0:3:0:0:
215,241,33521,1,0,0:3:0:0:
215,241,33600,2,0,P|170:200|159:162,1,85,4|0,0:3|0:3,0:3:0:0:
258,43,33915,5,8,0:3:0:0:
407,180,34073,1,0,0:3:0:0:
414,25,34231,1,0,0:3:0:0:
270,194,34389,1,0,0:3:0:0:
369,76,34547,1,8,0:3:0:0:
188,56,34705,1,0,0:3:0:0:
118,210,34863,2,0,P|126:270|158:308,1,85,0|0,0:3|0:3,0:3:0:0:
377,297,35179,6,0,B|410:245|410:245|405:149,1,127.500004863739,8|0,0:3|0:3,0:3:0:0:
195,57,35494,6,0,L|171:91,1,31.8750012159348,12|4,0:3|0:3,0:3:0:0:
110,222,35652,2,4,L|146:174,1,31.8750012159348,4|4,0:3|0:3,0:3:0:0:
301,178,35810,2,4,L|258:136,1,31.8750012159348,4|4,0:3|0:3,0:3:0:0:
212,275,35968,2,4,L|251:316,1,31.8750012159348,4|4,0:3|0:3,0:3:0:0:
363,254,36126,2,0,P|393:223|394:153,1,85
40,142,36442,6,0,L|82:94,1,63.7500024318696,8|0,0:3|0:3,0:3:0:0:
81,94,36679,1,0,0:3:0:0:
81,94,36758,1,0,0:3:0:0:
161,202,36915,1,0,0:3:0:0:
242,98,37073,2,0,P|274:124|286:164,1,63.7500024318696,0|0,0:3|0:3,0:3:0:0:
244,311,37389,6,0,L|164:312,1,63.7500024318696,0|0,0:3|0:3,0:3:0:0:
161,202,37705,2,0,L|161:122,1,63.7500024318696,8|0,0:3|0:3,0:3:0:0:
163,112,37942,1,0,0:3:0:0:
163,112,38021,1,0,0:3:0:0:
384,120,38179,5,0,0:3:0:0:
384,264,38336,1,0,0:3:0:0:
272,120,38494,1,0,0:3:0:0:
496,120,38652,2,0,L|499:213,1,63.7500024318696,0|0,0:3|0:3,0:3:0:0:
384,216,38968,1,8,0:3:0:0:
275,56,39126,5,0,0:3:0:0:
275,56,39205,1,0,0:3:0:0:
275,56,39284,2,0,L|277:138,1,63.7500024318696,0|0,0:3|0:3,0:3:0:0:
168,216,39600,1,0,0:3:0:0:
281,313,39758,1,0,0:3:0:0:
384,216,39915,1,0,0:3:0:0:
167,201,40073,5,0,0:3:0:0:
276,324,40231,1,8,0:3:0:0:
299,146,40388,1,0,0:3:0:0:
299,146,40468,1,0,0:0:0:0:
299,146,40547,1,0,0:0:0:0:
383,251,40705,5,8,0:3:0:0:
425,79,40863,1,0,0:0:0:0:
245,44,41021,1,0,0:3:0:0:
212,53,41101,1,0,0:0:0:0:
184,78,41180,1,0,0:0:0:0:
168,202,41336,1,0,0:0:0:0:
25,151,41494,6,0,P|4:122|6:83,1,63.7500024318696,8|0,0:3|0:0,0:0:0:0:
2,94,41731,1,0,0:0:0:0:
2,94,41810,1,0,0:0:0:0:
100,23,41968,1,0,0:0:0:0:
148,142,42126,2,0,P|158:174|167:207,1,63.7500024318696
302,67,42442,6,0,L|366:21,2,63.7500024318696,0|0|8,0:3|0:0|0:3,0:0:0:0:
229,179,42915,1,0,0:3:0:0:
238,212,42995,1,0,0:3:0:0:
252,247,43074,1,0,0:3:0:0:
380,178,43231,1,0,0:0:0:0:
325,313,43389,2,8,P|299:337|251:344,1,63.7500024318696,0|8,0:0|0:0,0:0:0:0:
114,213,43705,6,8,L|160:108,1,85,8|8,0:1|0:1,0:1:0:0:
128,295,44021,2,8,L|40:306,1,85,8|8,0:3|0:0,0:0:0:0:
44,306,44258,1,0,0:0:0:0:
44,306,44336,1,0,0:0:0:0:
55,172,44494,1,0,0:0:0:0:
55,172,44652,1,0,0:0:0:0:
186,243,44810,1,0,0:0:0:0:
426,72,44968,5,0,0:0:0:0:
407,249,45126,1,0,0:0:0:0:
204,114,45284,5,8,0:3:0:0:
419,162,45442,1,0,0:3:0:0:
181,258,45600,5,8,0:3:0:0:
396,306,45758,1,0,0:3:0:0:
289,97,45915,5,8,0:3:0:0:
280,68,45993,1,0,0:0:0:0:
262,45,46072,1,0,0:0:0:0:
237,29,46151,1,0,0:0:0:0:
207,28,46231,2,0,P|161:38|131:67,1,63.7500024318696
181,258,46547,6,0,L|265:251,1,63.7500024318696
289,97,46863,2,0,L|309:165,1,63.7500024318696
369,357,47179,1,8,0:0:0:0:
332,246,47336,1,0,0:0:0:0:
475,194,47494,6,0,P|463:123|440:97,1,95.6250036478044
417,89,47810,1,0,0:0:0:0:
332,246,47968,1,0,0:0:0:0:
272,98,48126,2,0,L|331:34,1,63.7500024318696
207,211,48442,2,0,L|205:288,1,63.7500024318696
183,113,48758,6,0,P|177:59|135:26,1,95.6250036478044
138,36,49073,2,0,P|106:70|101:112,1,63.7500024318696
154,199,49389,1,0,0:0:0:0:
281,103,49547,1,0,0:0:0:0:
318,258,49705,1,0,0:0:0:0:
183,113,49863,5,0,0:0:0:0:
176,274,50021,2,0,L|263:264,1,63.7500024318696
83,171,50336,6,0,L|81:78,1,63.7500024318696,8|0,0:3|0:0,0:0:0:0:
97,250,50652,2,0,L|34:313,1,63.7500024318696
237,143,50968,1,8,0:3:0:0:
337,313,51126,1,0,0:0:0:0:
337,313,51205,1,0,0:0:0:0:
337,313,51284,2,4,L|412:263,1,63.7500024318696
457,212,51600,5,0,0:0:0:0:
345,98,51758,1,0,0:0:0:0:
219,232,51915,6,0,L|311:226,1,63.7500024318696
401,215,52231,1,0,0:0:0:0:
289,73,52389,1,0,0:0:0:0:
168,275,52547,6,0,L|257:268,1,63.7500024318696
377,256,52863,1,0,0:0:0:0:
248,92,53021,1,0,0:0:0:0:
159,297,53179,6,0,L|233:295,1,63.7500024318696
352,128,53494,1,0,0:0:0:0:
114,148,53652,1,0,0:0:0:0:
314,287,53810,6,0,L|391:242,1,63.7500024318696
459,194,54126,1,0,0:0:0:0:
336,48,54284,1,0,0:0:0:0:
172,278,54442,2,0,L|252:230,1,63.7500024318696
319,191,54758,1,0,0:0:0:0:
111,97,54915,5,0,0:0:0:0:
452,91,55231,1,0,0:0:0:0:
256,344,55547,1,0,0:0:0:0:
396,203,55705,5,0,0:0:0:0:
392,167,55783,1,0,0:0:0:0:
375,134,55862,1,0,0:0:0:0:
346,110,55941,1,0,0:0:0:0:
308,103,56021,1,0,0:0:0:0:
267,113,56099,1,0,0:0:0:0:
238,140,56178,1,0,0:0:0:0:
226,174,56257,1,0,0:0:0:0:
221,214,56336,6,0,P|234:247|354:260,1,170
346,110,56810,1,0,0:0:0:0:
203,49,56968,2,0,L|139:113,1,85
299,241,57284,2,0,L|235:305,1,85
238,301,57521,1,0,0:0:0:0:
238,301,57600,1,0,0:0:0:0:
155,225,57758,5,0,0:0:0:0:
315,97,57915,1,0,0:0:0:0:
299,241,58073,1,0,0:0:0:0:
195,110,58231,2,0,P|195:62|227:14,1,85
429,87,58547,6,0,P|429:135|413:167,1,85
390,192,58784,1,0,0:0:0:0:
380,203,58863,1,0,0:0:0:0:
218,200,59021,1,0,0:0:0:0:
412,350,59179,1,0,0:0:0:0:
380,203,59336,1,0,0:0:0:0:
249,355,59494,2,0,L|232:258,1,85
392,184,59810,1,0,0:0:0:0:
221,375,59968,5,0,0:0:0:0:
187,375,60047,1,0,0:0:0:0:
153,366,60126,2,0,P|116:335|100:296,1,85
197,179,60442,1,0,0:0:0:0:
307,290,60600,2,0,P|347:263|355:214,1,85
107,169,60915,1,0,0:0:0:0:
230,49,61073,2,0,P|267:67|284:105,1,85
289,138,61310,5,0,0:0:0:0:
289,175,61389,1,0,0:0:0:0:
468,270,61547,1,0,0:0:0:0:
450,72,61705,2,0,L|410:169,1,85
366,271,62021,1,0,0:0:0:0:
315,57,62179,2,0,L|273:159,1,106.25
230,276,62495,1,0,0:0:0:0:
118,203,62652,6,0,P|112:121|193:96,1,170
288,137,63126,1,0,0:0:0:0:
233,271,63284,1,0,0:0:0:0:
452,137,63442,1,0,0:0:0:0:
507,271,63600,1,0,0:0:0:0:
371,85,63758,5,0,0:0:0:0:
371,85,63836,1,0,0:0:0:0:
371,85,63915,2,0,L|356:202,1,85
227,279,64231,2,0,B|214:325|214:325|161:338,1,85
70,160,64547,2,0,B|107:104|160:116|182:130|182:130|217:87,1,170
260,23,65021,5,0,0:0:0:0:
261,227,65179,1,0,0:0:0:0:
397,188,65336,1,0,0:0:0:0:
139,194,65494,2,0,P|117:242|121:287,1,85
369,308,65810,5,0,0:0:0:0:
408,295,65888,1,0,0:0:0:0:
431,260,65967,1,0,0:0:0:0:
427,219,66046,1,0,0:0:0:0:
397,188,66126,5,0,0:0:0:0:
361,166,66204,1,0,0:0:0:0:
344,128,66283,1,0,0:0:0:0:
352,87,66362,1,0,0:0:0:0:
383,57,66442,6,0,P|433:54|468:95,1,85
427,219,66758,1,0,0:0:0:0:
281,244,66915,1,0,0:0:0:0:
175,56,67073,2,0,L|123:123,1,85
115,248,67389,2,0,L|167:323,1,85
184,345,67626,1,0,0:0:0:0:
184,345,67705,1,0,0:0:0:0:
281,244,67863,1,0,0:0:0:0:
196,126,68021,1,0,0:0:0:0:
115,248,68179,1,0,0:0:0:0:
281,244,68336,6,0,B|336:287|336:287|401:279,1,127.5
414,275,68652,1,0,0:0:0:0:
441,103,68810,5,0,0:0:0:0:
441,103,68889,1,0,0:0:0:0:
441,103,68968,2,0,L|352:116,1,85
196,126,69284,2,0,L|284:158,1,85
446,212,69600,1,0,0:0:0:0:
342,292,69758,1,0,0:0:0:0:
441,103,69915,1,0,0:0:0:0:
464,315,70073,1,0,0:0:0:0:
313,159,70231,6,0,P|336:112|323:72,1,85
166,184,70547,1,0,0:0:0:0:
275,328,70705,2,0,P|321:325|347:297,1,85
233,125,71021,1,0,0:0:0:0:
164,302,71179,1,0,0:0:0:0:
98,203,71336,5,0,0:0:0:0:
98,203,71415,1,0,0:0:0:0:
98,203,71494,2,0,L|72:288,1,85
207,222,71810,1,0,0:0:0:0:
315,102,71968,2,0,L|226:126,1,85
292,212,72284,1,0,0:0:0:0:
390,230,72442,6,0,L|346:311,2,85
448,111,72915,1,0,0:0:0:0:
298,195,73073,1,0,0:0:0:0:
345,110,73231,1,0,0:0:0:0:
253,279,73389,1,0,0:0:0:0:
404,200,73547,2,0,B|439:238|439:238|438:291,1,85
203,328,73863,5,0,0:0:0:0:
203,328,73942,1,0,0:0:0:0:
203,328,74021,1,0,0:0:0:0:
158,144,74179,1,0,0:0:0:0:
363,264,74336,1,0,0:0:0:0:
315,102,74494,1,0,0:0:0:0:
240,252,74652,2,0,B|194:236|194:236|143:261,1,85
75,65,74968,2,0,B|59:113|59:113|83:137,1,85
259,33,75284,5,0,0:0:0:0:
83,137,75442,1,0,0:0:0:0:
267,225,75600,1,0,0:0:0:0:
203,129,75758,1,0,0:0:0:0:
83,297,75915,5,0,0:0:0:0:
106,331,75993,1,0,0:0:0:0:
142,355,76072,1,0,0:0:0:0:
183,364,76151,1,0,0:0:0:0:
225,357,76230,5,0,0:0:0:0:
251,337,76310,1,0,0:0:0:0:
257,303,76388,1,0,0:0:0:0:
250,267,76467,1,0,0:0:0:0:
230,237,76547,6,0,P|188:226|172:181,1,85
237,111,76863,1,8,0:3:0:0:
319,163,77021,2,0,P|334:108|319:67,1,85,0|0,0:3|0:3,0:3:0:0:
232,26,77337,1,0,0:3:0:0:
147,140,77495,1,8,0:3:0:0:
301,275,77652,5,0,0:3:0:0:
301,275,77731,1,0,0:3:0:0:
301,275,77810,2,0,P|247:312|192:312,1,85,0|0,0:3|0:3,0:3:0:0:
80,276,78126,2,0,P|61:213|78:160,1,85,0|0,0:3|0:3,0:3:0:0:
69,180,78363,1,8,0:3:0:0:
69,180,78442,1,0,0:3:0:0:
190,95,78600,1,8,0:1:0:0:
184,268,78758,1,8,0:3:0:0:
286,196,78916,1,0,0:3:0:0:
355,318,79073,6,0,B|412:293|437:243|437:243|406:189,1,170,0|8,0:3|0:3,0:3:0:0:
344,112,79547,1,0,0:0:0:0:
225,222,79705,1,0,0:0:0:0:
352,317,79863,1,0,0:0:0:0:
349,215,80021,1,0,0:0:0:0:
226,333,80179,1,0,0:0:0:0:
283,137,80336,1,0,0:0:0:0:
155,273,80494,1,0,0:0:0:0:
347,313,80652,1,0,0:0:0:0:
84,315,80811,5,8,0:3:0:0:
84,315,80889,1,8,0:3:0:0:
84,315,80968,2,0,L|67:218,1,85,0|8,0:3|0:1,0:3:0:0:
192,189,81284,1,8,0:3:0:0:
320,262,81442,6,0,L|396:270,1,42.5,0|0,0:3|0:3,0:3:0:0:
314,150,81600,2,4,P|277:81|155:56,1,170,4|8,0:3|0:3,0:3:0:0:
152,50,82073,1,0,0:3:0:0:
192,189,82231,1,8,0:3:0:0:
51,160,82389,1,0,0:3:0:0:
192,189,82547,6,0,L|192:301,1,85,8|0,0:3|0:3,0:3:0:0:
247,335,82784,1,0,0:3:0:0:
247,335,82863,2,0,L|338:326,1,85,0|0,0:3|0:3,0:3:0:0:
391,202,83179,1,8,0:3:0:0:
253,130,83337,5,0,0:3:0:0:
253,130,83416,1,8,0:3:0:0:
253,130,83495,2,0,L|185:194,1,85,0|0,0:3|0:3,0:3:0:0:
34,96,83810,2,0,P|66:48|178:32,1,170,12|0,0:3|0:3,0:3:0:0:
111,256,84284,5,8,0:3:0:0:
253,130,84442,1,0,0:3:0:0:
133,119,84600,1,0,0:3:0:0:
238,298,84758,1,0,0:3:0:0:
253,130,84916,1,0,0:3:0:0:
392,331,85073,5,8,0:3:0:0:
395,117,85231,1,0,0:3:0:0:
215,220,85389,1,0,0:3:0:0:
410,223,85547,1,0,0:3:0:0:
225,104,85705,1,8,0:3:0:0:
245,304,85863,5,12,0:3:0:0:
245,304,85942,1,12,0:3:0:0:
245,304,86021,1,14,0:3:0:0:
91,201,86179,1,8,0:1:0:0:
225,104,86336,6,0,B|283:129|283:129|291:193,1,127.5
393,216,86652,2,0,B|408:252|393:280|393:280,2,63.7500024318696,0|0|8,0:3|0:3|0:3,0:3:0:0:
283,167,87126,1,0,0:3:0:0:
189,234,87284,2,0,P|187:274|211:320,1,63.7500024318696,0|0,0:3|0:3,0:3:0:0:
303,331,87600,1,8,0:3:0:0:
283,167,87758,1,0,0:3:0:0:
117,135,87916,6,0,L|68:207,1,63.7500024318696,0|0,0:3|0:3,0:3:0:0:
124,331,88231,2,0,L|184:280,1,63.7500024318696,8|0,0:3|0:3,0:3:0:0:
283,230,88547,2,0,L|283:154,1,63.7500024318696,0|0,0:3|0:3,0:3:0:0:
219,68,88863,1,8,0:3:0:0:
91,248,89021,5,0,0:3:0:0:
91,248,89179,2,0,P|78:202|91:165,2,63.7500024318696,0|0|8,0:3|0:3|0:3,0:3:0:0:
219,178,89652,1,0,0:3:0:0:
147,37,89810,2,0,P|112:68|101:112,1,63.7500024318696,0|0,0:3|0:3,0:3:0:0:
219,178,90126,1,8,0:3:0:0:
345,120,90284,1,0,0:3:0:0:
318,306,90442,6,8,B|302:290|302:290|291:249,1,63.7500024318696,8|8,0:1|0:1,0:1:0:0:
368,240,90758,2,8,B|357:199|357:199|322:164,1,63.7500024318696,8|8,0:1|0:1,0:1:0:0:
254,11,91073,2,8,B|295:21|295:21|338:64,1,85,8|8,0:1|0:1,0:1:0:0:
216,168,91389,1,8,0:3:0:0:
80,272,91705,6,0,P|57:297|56:360,2,85,0|0|8,0:3|0:3|0:3,0:3:0:0:
168,328,92179,1,0,0:3:0:0:
312,272,92337,2,0,P|350:247|362:189,1,85,0|0,0:3|0:3,0:3:0:0:
216,104,92652,1,8,0:3:0:0:
224,249,92810,1,0,0:3:0:0:
376,344,92968,6,0,L|472:306,1,85,0|0,0:3|0:3,0:3:0:0:
432,184,93284,2,0,L|388:239,1,63.7500024318696,0|0,0:3|0:3,0:3:0:0:
142,155,93600,2,0,L|180:104,1,63.7500024318696,0|0,0:3|0:3,0:3:0:0:
208,72,93836,1,0,0:0:0:0:
212,76,93916,1,8,0:3:0:0:
232,252,94073,1,0,0:0:0:0:
75,288,94231,6,0,L|67:217,2,63.7500024318696,0|0|8,0:3|0:3|0:3,0:3:0:0:
198,185,94705,2,0,L|126:146,1,63.7500024318696,0|0,0:3|0:3,0:3:0:0:
141,154,95021,1,0,0:3:0:0:
199,318,95179,2,0,P|210:348|244:368,1,63.7500024318696
335,217,95494,5,0,0:0:0:0:
141,154,95652,1,0,0:0:0:0:
199,319,95810,5,0,0:0:0:0:
277,103,95968,1,0,0:0:0:0:
331,346,96126,5,0,0:0:0:0:
141,154,96284,1,0,0:0:0:0:
356,233,96442,5,0,0:0:0:0:
387,226,96520,1,0,0:0:0:0:
415,212,96599,1,0,0:0:0:0:
437,189,96678,1,0,0:0:0:0:
458,164,96758,6,0,P|455:105|440:85,1,85
296,33,97073,1,0,0:0:0:0:
191,144,97231,2,0,P|194:203|209:223,1,85
342,135,97547,5,0,0:0:0:0:
210,55,97705,1,0,0:0:0:0:
209,221,97863,1,0,0:0:0:0:
342,135,98021,5,0,0:0:0:0:
146,138,98179,1,0,0:0:0:0:
320,223,98336,1,0,0:0:0:0:
210,55,98494,5,0,0:0:0:0:
152,241,98652,1,0,0:0:0:0:
248,143,98810,1,0,0:0:0:0:
269,275,98968,6,0,P|336:325|396:303,1,127.500004863739
398,306,99205,1,0,0:0:0:0:
398,306,99284,1,0,0:0:0:0:
398,161,99442,1,0,0:0:0:0:
263,72,99600,1,0,0:0:0:0:
268,275,99758,1,0,0:0:0:0:
364,135,99915,5,0,0:0:0:0:
215,225,100073,1,0,0:0:0:0:
364,135,100231,1,0,0:0:0:0:
402,291,100389,2,0,P|469:266|484:233,1,85
479,120,100705,1,0,0:0:0:0:
297,183,100863,2,0,P|359:218|394:208,1,85,0|0,2:0|2:0,2:0:0:0:
448,104,101179,1,0,2:0:0:0:
289,101,101336,2,0,P|237:122|218:147,1,85
261,248,101652,2,0,P|260:177|210:141,1,127.500004863739
123,109,101968,5,0,0:0:0:0:
72,306,102126,1,0,0:0:0:0:
261,248,102284,1,0,0:0:0:0:
72,306,102442,1,0,0:0:0:0:
257,330,102600,1,0,0:0:0:0:
160,248,102758,6,0,L|156:156,1,85
246,162,103073,2,0,L|234:71,1,85
120,80,103389,1,0,0:0:0:0:
256,248,103547,1,0,0:0:0:0:
232,72,103705,2,0,L|328:88,1,85
464,136,104021,2,0,B|432:160|432:160|368:168,1,85
272,168,104336,5,0,0:0:0:0:
312,272,104494,1,0,0:0:0:0:
152,176,104652,1,0,0:0:0:0:
312,272,104810,1,0,0:0:0:0:
128,280,104968,1,0,0:0:0:0:
312,272,105126,1,0,0:0:0:0:
152,368,105284,2,0,L|224:304,1,85
136,144,105600,2,0,L|216:200,1,85
379,304,105915,5,0,0:0:0:0:
340,90,106073,1,0,0:0:0:0:
136,142,106231,5,0,0:0:0:0:
111,158,106309,1,0,0:0:0:0:
93,181,106388,1,0,0:0:0:0:
83,209,106467,1,0,0:0:0:0:
82,239,106546,1,0,0:0:0:0:
91,267,106625,1,0,0:0:0:0:
108,291,106704,1,0,0:0:0:0:
133,308,106783,1,0,0:0:0:0:
166,316,106863,6,0,P|230:284|238:220,1,127.500004863739
66,77,107179,6,0,L|120:45,1,63.7500024318696,8|0,0:3|0:3,0:3:0:0:
119,44,107416,1,0,0:3:0:0:
119,44,107495,1,0,0:3:0:0:
162,172,107652,1,0,0:3:0:0:
271,98,107810,2,0,P|294:132|293:174,1,63.7500024318696,0|0,0:3|0:3,0:3:0:0:
207,301,108126,6,0,L|131:277,1,63.7500024318696,0|0,0:3|0:3,0:3:0:0:
162,172,108442,2,0,L|187:96,1,63.7500024318696,8|0,0:3|0:3,0:3:0:0:
192,87,108679,1,0,0:3:0:0:
192,87,108758,1,0,0:3:0:0:
399,163,108916,5,0,0:3:0:0:
288,248,109073,1,0,0:3:0:0:
408,328,109231,1,0,0:3:0:0:
506,197,109389,2,0,L|480:287,1,63.7500024318696,0|0,0:3|0:3,0:3:0:0:
370,254,109705,1,8,0:3:0:0:
316,68,109863,5,0,0:3:0:0:
316,68,109942,1,0,0:3:0:0:
316,68,110021,2,0,L|292:147,1,63.7500024318696,0|0,0:3|0:3,0:3:0:0:
164,187,110337,1,0,0:3:0:0:
242,314,110495,1,0,0:3:0:0:
370,254,110652,1,0,0:3:0:0:
264,224,110810,5,0,0:3:0:0:
448,336,110968,1,8,0:3:0:0:
349,158,111125,1,0,0:3:0:0:
349,158,111205,1,0,0:0:0:0:
349,158,111284,1,0,0:0:0:0:
371,261,111442,5,8,0:3:0:0:
455,107,111600,1,0,0:0:0:0:
311,51,111758,1,0,0:3:0:0:
277,52,111838,1,0,0:0:0:0:
244,66,111917,1,0,0:0:0:0:
168,173,112073,1,0,0:0:0:0:
48,81,112231,6,0,P|37:47|51:11,1,63.7500024318696,8|0,0:3|0:0,0:0:0:0:
44,20,112468,1,0,0:0:0:0:
44,20,112547,1,0,0:0:0:0:
152,16,112705,1,0,0:0:0:0:
185,112,112863,2,0,P|177:152|161:184,1,63.7500024318696
338,87,113179,6,0,L|413:63,2,63.7500024318696,0|0|8,0:3|0:0|0:3,0:0:0:0:
445,220,113652,1,0,0:3:0:0:
414,235,113732,1,0,0:3:0:0:
384,258,113811,1,0,0:3:0:0:
273,190,113968,1,0,0:0:0:0:
284,328,114126,2,8,P|252:343|204:335,1,63.7500024318696,0|8,0:0|0:0,0:0:0:0:
120,168,114442,6,8,L|240:200,1,85,8|8,0:1|0:1,0:1:0:0:
102,250,114758,2,8,L|15:233,1,85,8|8,0:3|0:0,0:0:0:0:
19,234,114995,1,0,0:0:0:0:
19,234,115073,1,0,0:0:0:0:
71,110,115231,1,0,0:0:0:0:
71,110,115389,1,0,0:0:0:0:
173,218,115547,1,0,0:0:0:0:
384,80,115705,5,0,0:0:0:0:
381,292,115863,1,0,0:0:0:0:
230,101,116021,5,8,0:3:0:0:
232,304,116179,1,0,0:3:0:0:
184,192,116337,5,8,0:3:0:0:
381,292,116495,1,0,0:3:0:0:
230,101,116652,5,8,0:3:0:0:
204,83,116730,1,0,0:0:0:0:
176,75,116809,1,0,0:0:0:0:
147,78,116888,1,0,0:0:0:0:
122,95,116968,2,0,P|91:130|80:216,1,127.500004863739
168,304,117284,6,0,P|200:256|200:224,1,85
328,312,117600,2,0,P|312:280|312:224,1,85
312,112,117915,1,0,0:0:0:0:
432,96,118073,1,0,0:0:0:0:
376,200,118231,6,0,P|304:216|240:216,1,127.500004863739
172,191,118547,2,0,P|212:149|252:141,1,85
193,271,118863,2,0,P|137:271|113:247,1,85
56,128,119179,1,0,0:0:0:0:
144,80,119336,1,0,0:0:0:0:
270,194,119494,6,0,P|264:248|223:309,1,127.500004863739
122,338,119810,1,0,0:0:0:0:
88,224,119968,1,0,0:0:0:0:
185,153,120126,2,0,P|193:209|175:248,1,85
80,288,120442,1,0,0:0:0:0:
16,184,120600,1,0,0:0:0:0:
176,72,120758,6,0,L|280:64,1,85
376,168,121073,2,0,L|288:176,1,85
176,192,121389,1,0,0:0:0:0:
288,320,121547,1,0,0:0:0:0:
176,192,121705,1,0,0:0:0:0:
176,312,121863,1,0,0:0:0:0:
304,184,122021,6,0,L|413:112,1,127.500004863739
312,32,122336,1,0,0:0:0:0:
304,184,122494,1,0,0:0:0:0:
408,296,122652,6,0,P|352:336|328:336,1,85
304,184,122968,1,0,0:0:0:0:
408,296,123126,1,0,0:0:0:0:
256,256,123284,6,0,P|207:196|217:146,1,127.500004863739
296,72,123600,1,0,0:0:0:0:
256,256,123758,1,0,0:0:0:0:
376,160,123915,6,0,P|416:208|432:248,1,85
432,320,124231,1,0,0:0:0:0:
320,320,124389,1,0,0:0:0:0:
304,112,124547,5,0,0:0:0:0:
192,160,124705,1,0,0:0:0:0:
384,240,124863,5,0,0:0:0:0:
384,80,125021,1,0,0:0:0:0:
212,331,125179,5,0,0:0:0:0:
294,72,125336,1,0,0:0:0:0:
389,331,125494,1,0,0:0:0:0:
481,149,125652,5,0,0:0:0:0:
135,43,125968,5,0,0:0:0:0:
212,331,126284,5,0,0:0:0:0:
335,210,126442,5,0,0:0:0:0:
348,183,126520,1,0,0:0:0:0:
347,154,126599,1,0,0:0:0:0:
337,126,126678,1,0,0:0:0:0:
324,99,126757,5,0,0:0:0:0:
319,70,126836,1,0,0:0:0:0:
332,44,126915,1,0,0:0:0:0:
359,33,126994,1,0,0:0:0:0:
394,38,127073,6,0,P|449:87|423:180,1,170
309,265,127547,1,0,0:0:0:0:
222,167,127705,2,0,P|264:140|307:133,1,85
309,265,128021,2,0,P|248:303|205:297,1,85
204,300,128258,1,0,0:0:0:0:
204,300,128336,1,0,0:0:0:0:
117,178,128494,1,0,0:0:0:0:
327,68,128652,1,0,0:0:0:0:
246,176,128810,1,0,0:0:0:0:
147,57,128968,2,0,P|189:18|242:10,1,85
373,223,129284,6,0,P|429:275|429:296,1,85
430,303,129521,1,0,0:0:0:0:
423,332,129600,1,0,0:0:0:0:
297,348,129758,1,0,0:0:0:0:
191,148,129915,1,0,0:0:0:0:
376,220,130073,1,0,0:0:0:0:
223,281,130231,6,0,P|171:272|129:226,1,85
71,72,130547,1,0,0:0:0:0:
156,205,130705,1,0,0:0:0:0:
156,205,130784,1,0,0:0:0:0:
156,205,130863,2,0,L|107:285,1,85
258,242,131179,1,0,0:0:0:0:
363,155,131336,2,0,L|453:178,1,85
332,37,131652,1,0,0:0:0:0:
274,144,131810,6,0,P|260:218|269:253,1,85
261,226,132047,1,0,0:0:0:0:
261,226,132126,1,0,0:0:0:0:
375,277,132284,1,0,0:0:0:0:
274,144,132442,1,0,0:0:0:0:
375,277,132600,1,0,0:0:0:0:
414,144,132758,5,0,0:0:0:0:
268,245,132915,1,0,0:0:0:0:
470,218,133073,1,0,0:0:0:0:
355,49,133231,1,0,0:0:0:0:
185,177,133389,6,0,P|165:247|176:290,1,85
310,310,133705,1,0,0:0:0:0:
271,74,133863,2,0,P|229:39|187:43,1,85
185,177,134179,1,0,0:0:0:0:
378,180,134336,6,0,P|407:218|422:263,1,85
419,252,134573,1,0,0:0:0:0:
419,252,134652,1,0,0:0:0:0:
318,330,134810,1,0,0:0:0:0:
253,154,134968,1,0,0:0:0:0:
201,325,135126,1,0,0:0:0:0:
377,178,135284,6,0,P|379:127|353:85,1,85
191,171,135600,1,0,0:0:0:0:
277,258,135758,1,0,0:0:0:0:
252,73,135915,1,0,0:0:0:0:
191,171,136073,1,0,0:0:0:0:
323,38,136231,1,0,0:0:0:0:
277,258,136389,1,0,0:0:0:0:
432,153,136547,5,0,0:0:0:0:
442,180,136625,1,0,0:0:0:0:
443,210,136704,1,0,0:0:0:0:
437,239,136783,1,0,0:0:0:0:
424,265,136862,5,0,0:0:0:0:
404,288,136941,1,0,0:0:0:0:
380,306,137020,1,0,0:0:0:0:
353,318,137099,1,0,0:0:0:0:
