osu file format v14

[General]
AudioFilename: audio.mp3
AudioLeadIn: 0
PreviewTime: 51694
Countdown: 0
SampleSet: Normal
StackLeniency: 0.3
Mode: 0
LetterboxInBreaks: 0
WidescreenStoryboard: 0

[Editor]
Bookmarks: 119234,122824,241947
DistanceSpacing: 0.5
BeatDivisor: 4
GridSize: 32
TimelineZoom: 2.699999

[Metadata]
Title:Limited
TitleUnicode:Limited
Artist:Silent Siren
ArtistUnicode:Silent Siren
Creator:Ussoo
Version::^)
Source:
Tags:
BeatmapID:1023038
BeatmapSetID:479088

[Difficulty]
HPDrainRate:5.5
CircleSize:4.5
OverallDifficulty:8.5
ApproachRate:9.5
SliderMultiplier:1.9
SliderTickRate:1

[Events]
//Background and Video events
0,0,"WQTGDf6.jpg",0,0
//Break Periods
//Storyboard Layer 0 (Background)
//Storyboard Layer 1 (Fail)
//Storyboard Layer 2 (Pass)
//Storyboard Layer 3 (Foreground)
//Storyboard Sound Samples

[TimingPoints]
5777,319.148936170213,4,1,0,40,1,0
5777,-133.333333333333,4,2,0,40,0,0
10883,-111.111111111111,4,1,0,40,0,0
21096,-133.333333333333,4,1,0,40,0,0
31308,-111.111111111111,4,1,0,40,0,0
49340,-200,4,1,0,40,0,0
51734,-83.3333333333333,4,1,0,40,0,1
51834,-86.9565217391304,4,1,0,40,0,1
55404,-83.3333333333333,4,1,0,40,0,1
56840,-86.9565217391304,4,1,0,40,0,1
58117,-83.3333333333333,4,1,0,40,0,1
61947,-86.9565217391304,4,1,0,40,0,1
63223,-83.3333333333333,4,1,0,40,0,1
64500,-86.9565217391304,4,1,0,40,0,1
65777,-83.3333333333333,4,1,0,40,0,1
67053,-86.9565217391304,4,1,0,40,0,1
72159,-111.111111111111,4,1,0,40,0,0
82372,-90.9090909090909,4,1,0,40,0,0
92585,-133.333333333333,4,1,0,40,0,0
102798,-111.111111111111,4,1,0,40,0,0
120830,-200,4,1,0,40,0,0
123223,-83.3333333333333,4,1,0,40,0,1
143649,-90.9090909090909,4,1,0,40,0,0
151308,-200,4,1,0,40,0,0
153862,-111.111111111111,4,1,0,40,0,0
159447,-100,4,1,0,40,0,0
159925,-90.9090909090909,4,1,0,40,0,0
160404,-83.3333333333333,4,1,0,40,0,0
160883,-133.333333333333,4,1,0,40,0,0
161202,-90.9090909090909,4,1,0,40,0,0
161521,-133.333333333333,4,1,0,40,0,0
162159,-111.111111111111,4,1,0,40,0,0
162798,-100,4,1,0,40,0,0
174287,-90.9090909090909,4,1,0,40,0,0
182106,-133.333333333333,4,1,0,40,0,0
183064,-200,4,1,0,40,0,0
185777,-83.3333333333333,4,1,0,40,0,1
206202,-90.9090909090909,4,1,0,40,0,0
213862,-133.333333333333,4,1,0,40,0,0
216415,-100,4,1,0,40,0,0

[HitObjects]
221,319,5776,5,0,0:0:0:0:
274,93,5936,1,0,0:0:0:0:
297,290,6255,5,0,0:0:0:0:
259,139,6415,1,0,0:0:0:0:
231,244,6574,1,0,0:0:0:0:
446,254,6734,5,0,0:0:0:0:
295,211,6894,1,0,0:0:0:0:
380,300,7213,5,0,0:0:0:0:
418,149,7373,1,0,0:0:0:0:
446,254,7532,1,0,0:0:0:0:
493,145,7691,5,0,0:0:0:0:
361,210,7851,1,0,0:0:0:0:
464,159,8011,1,0,0:0:0:0:
277,131,8170,1,0,0:0:0:0:
346,326,8330,5,0,0:0:0:0:
366,74,8489,1,0,0:0:0:0:
280,274,8808,1,0,0:0:0:0:
249,94,8968,2,0,P|254:139|273:171,1,71.2500027179719
276,308,9287,1,0,0:0:0:0:
339,107,9447,1,0,0:0:0:0:
216,342,9606,5,0,0:0:0:0:
342,243,9766,1,0,0:0:0:0:
249,94,9925,2,0,P|238:126|231:164,1,71.2500027179719
216,342,10245,1,0,0:0:0:0:
377,240,10404,1,0,0:0:0:0:
409,254,10484,1,0,0:0:0:0:
442,240,10564,1,0,0:0:0:0:
445,204,10644,1,0,0:0:0:0:
415,185,10723,1,0,0:0:0:0:
382,200,10803,1,0,0:0:0:0:
377,240,10883,6,0,B|353:256|353:256|270:240,1,85.4999973907472
421,301,11202,2,0,L|504:318,1,85.4999973907472
419,233,11521,1,0,0:0:0:0:
503,148,11681,1,0,0:0:0:0:
448,361,11840,2,0,B|423:373|423:373|359:361,1,85.4999973907472
274,236,12159,6,0,B|258:212|258:212|274:129,1,85.4999973907472
213,280,12478,2,0,L|196:363,1,85.4999973907472
281,278,12797,1,0,0:0:0:0:
366,362,12957,1,0,0:0:0:0:
153,307,13116,2,0,B|141:282|141:282|153:218,1,85.4999973907472
277,133,13436,6,0,B|301:117|301:117|384:133,1,85.4999973907472
233,72,13755,2,0,L|150:55,1,85.4999973907472
235,140,14074,1,0,0:0:0:0:
151,225,14234,1,0,0:0:0:0:
206,12,14393,2,0,B|231:0|231:0|295:12,1,85.4999973907472
379,136,14713,6,0,B|395:160|395:160|379:243,1,85.4999973907472
440,92,15032,2,0,L|457:9,1,85.4999973907472
372,94,15351,1,0,0:0:0:0:
287,10,15511,1,0,0:0:0:0:
500,65,15670,2,0,B|512:90|512:90|500:154,1,85.4999973907472
280,226,15989,5,0,0:0:0:0:
342,75,16149,1,0,0:0:0:0:
299,255,16308,2,0,L|221:295,1,85.4999973907472
352,298,16628,1,0,0:0:0:0:
290,147,16788,1,0,0:0:0:0:
333,327,16947,2,0,L|411:367,1,85.4999973907472
319,177,17266,5,0,0:0:0:0:
168,239,17426,1,0,0:0:0:0:
348,196,17585,2,0,L|388:118,1,85.4999973907472
391,249,17905,1,0,0:0:0:0:
240,187,18065,1,0,0:0:0:0:
420,230,18224,2,0,L|460:308,1,85.4999973907472
224,168,18542,6,0,L|113:183,1,85.4999973907472
279,289,18862,2,0,L|363:277,1,85.4999973907472
282,108,19181,1,0,0:0:0:0:
402,219,19340,1,0,0:0:0:0:
201,246,19500,2,0,L|116:258,1,85.4999973907472
348,310,19819,6,0,L|284:244,1,85.4999973907472
446,211,20138,2,0,L|350:216,1,85.4999973907472
467,94,20457,1,0,0:0:0:0:
438,67,20537,1,0,0:0:0:0:
399,64,20617,1,0,0:0:0:0:
364,81,20697,1,0,0:0:0:0:
348,116,20777,1,0,0:0:0:0:
420,283,20936,1,0,0:0:0:0:
420,283,21016,1,0,0:0:0:0:
420,283,21096,6,0,P|437:254|437:216,1,71.2500027179719
445,122,21415,1,0,0:0:0:0:
489,342,21734,1,0,0:0:0:0:
285,250,22053,1,0,0:0:0:0:
456,326,22372,1,0,0:0:0:0:
350,169,22691,1,0,0:0:0:0:
437,296,23011,1,0,0:0:0:0:
263,164,23330,1,0,0:0:0:0:
132,264,23649,6,0,L|225:280,1,71.2500027179719
342,247,23968,2,0,L|356:176,1,71.2500027179719
209,205,24287,2,0,L|302:221,1,71.2500027179719
421,207,24606,2,0,L|435:136,1,71.2500027179719
256,144,24925,6,0,L|101:103,1,142.500005435944
269,228,25564,2,0,L|114:187,1,142.500005435944
315,375,26202,6,0,L|331:282,1,71.2500027179719
298,165,26521,2,0,L|227:151,1,71.2500027179719
256,298,26840,2,0,L|272:205,1,71.2500027179719
258,86,27159,2,0,L|187:72,1,71.2500027179719
176,229,27479,6,0,L|320:246,1,142.500005435944
203,160,28117,2,0,L|61:143,1,142.500005435944
385,253,28755,6,0,B|400:224|400:224|382:170|400:116,1,142.500005435944
470,241,29394,2,0,L|404:372,1,142.500005435944
207,342,30032,6,0,L|223:249,1,71.2500027179719
190,132,30351,2,0,L|119:118,1,71.2500027179719
132,189,30590,1,0,0:0:0:0:
139,216,30670,1,0,0:0:0:0:
252,164,30830,1,0,0:0:0:0:
278,174,30909,1,0,0:0:0:0:
299,192,30989,1,0,0:0:0:0:
449,192,31149,1,0,0:0:0:0:
462,166,31229,1,0,0:0:0:0:
469,132,31308,5,0,0:0:0:0:
466,277,31468,1,0,0:0:0:0:
357,150,31628,2,0,B|330:134|330:134|272:132,1,85.4999973907472
301,312,31947,2,0,L|317:211,1,85.4999973907472
428,94,32266,2,0,L|341:42,1,85.4999973907472
186,95,32585,5,0,0:0:0:0:
160,291,32745,1,0,0:0:0:0:
130,156,32904,1,0,0:0:0:0:
261,58,33064,1,0,0:0:0:0:
194,213,33223,2,0,L|159:290,1,85.4999973907472
319,47,33542,1,0,0:0:0:0:
161,150,33702,1,0,0:0:0:0:
400,132,33862,6,0,P|422:182|383:298,1,170.999994781494
482,118,34340,1,0,0:0:0:0:
307,206,34500,2,0,P|237:161|161:192,1,170.999994781494
324,107,34979,1,0,0:0:0:0:
230,252,35138,6,0,P|174:281|74:224,1,170.999994781494
261,327,35617,1,0,0:0:0:0:
161,192,35777,2,0,P|158:144|165:104,1,85.4999973907472
299,224,36096,2,0,L|389:224,1,85.4999973907472
233,154,36415,5,0,0:0:0:0:
190,42,36574,1,0,0:0:0:0:
242,183,36734,1,0,0:0:0:0:
84,102,36894,1,0,0:0:0:0:
298,113,37053,2,0,L|384:117,1,85.4999973907472
241,59,37372,2,0,P|223:115|230:147,1,85.4999973907472
399,322,37691,5,0,0:0:0:0:
228,218,37851,1,0,0:0:0:0:
367,302,38011,1,0,0:0:0:0:
298,113,38170,1,0,0:0:0:0:
329,286,38330,2,0,L|227:287,1,85.4999973907472
408,230,38649,2,0,L|506:228,1,85.4999973907472
286,93,38968,6,0,B|249:79|249:79|120:100,1,170.999994781494
361,39,39447,1,0,0:0:0:0:
238,152,39606,2,0,L|69:179,1,170.999994781494
286,93,40085,1,0,0:0:0:0:
20,237,40245,6,0,P|101:248|143:180,1,170.999994781494
12,163,40723,1,0,0:0:0:0:
8,201,40803,1,0,0:0:0:0:
20,237,40883,1,0,0:0:0:0:
178,275,41042,1,0,0:0:0:0:
201,244,41122,1,0,0:0:0:0:
208,206,41202,1,0,0:0:0:0:
139,106,41362,1,0,0:0:0:0:
150,142,41441,1,0,0:0:0:0:
143,180,41521,6,0,P|101:248|20:237,1,170.999994781494
214,256,42000,1,0,0:0:0:0:
68,178,42159,2,0,P|87:129|201:130,1,170.999994781494
19,90,42638,1,0,0:0:0:0:
260,42,42798,6,0,B|274:72|274:72|260:209,1,170.999994781494
330,20,43277,1,0,0:0:0:0:
197,86,43436,2,0,L|178:256,1,170.999994781494
260,42,43915,1,0,0:0:0:0:
103,263,44074,6,0,P|117:300|161:331,1,85.4999973907472
264,209,44394,2,0,P|223:219|191:247,1,85.4999973907472
326,354,44713,2,0,P|285:344|253:316,1,85.4999973907472
421,227,45032,2,0,P|380:237|348:265,1,85.4999973907472
258,89,45351,6,0,L|281:184,1,85.4999973907472
113,248,45670,2,0,L|208:228,1,85.4999973907472
362,142,45989,1,0,0:0:0:0:
173,116,46149,1,0,0:0:0:0:
264,199,46308,1,0,0:0:0:0:
346,66,46468,2,0,L|385:33,1,42.7499986953736
278,123,46628,6,0,P|327:157|340:195,1,85.4999973907472
193,267,46947,2,0,P|227:218|265:205,1,85.4999973907472
332,354,47266,2,0,P|283:320|270:282,1,85.4999973907472
415,211,47585,2,0,P|381:260|343:273,1,85.4999973907472
137,196,47904,6,0,L|156:98,1,85.4999973907472
272,252,48223,2,0,L|251:361,1,85.4999973907472
229,184,48463,1,0,0:0:0:0:
214,153,48542,1,0,0:0:0:0:
222,119,48622,1,0,0:0:0:0:
248,97,48702,1,0,0:0:0:0:
282,99,48782,1,0,0:0:0:0:
311,117,48862,2,0,B|295:203,1,85.4999973907472
152,281,49181,5,0,0:0:0:0:
413,158,49340,2,0,L|423:210,1,47.5
85,152,49659,5,0,0:0:0:0:
346,253,49819,2,0,L|356:201,1,47.5
16,274,50138,5,0,0:0:0:0:
273,162,50297,2,0,B|283:210|283:210|241:273|288:354|371:351|403:321|423:264,1,308.75
200,204,51734,5,0,0:0:0:0:
115,85,51894,1,0,0:0:0:0:
187,286,52053,1,0,0:0:0:0:
183,125,52213,1,0,0:0:0:0:
263,242,52372,5,0,0:0:0:0:
348,123,52532,1,0,0:0:0:0:
276,324,52691,1,0,0:0:0:0:
280,163,52851,1,0,0:0:0:0:
199,333,53011,6,0,B|172:343|172:343|82:322,1,109.250002083778
273,360,53330,1,0,0:0:0:0:
143,113,53489,1,0,0:0:0:0:
150,262,53649,2,0,L|93:249,1,54.6250010418892
148,184,53808,2,0,P|204:207|226:254,2,109.250002083778
384,155,54287,5,0,0:0:0:0:
284,293,54447,1,0,0:0:0:0:
292,75,54606,1,0,0:0:0:0:
286,255,54766,1,0,0:0:0:0:
162,103,54925,5,0,0:0:0:0:
262,241,55085,1,0,0:0:0:0:
254,23,55244,1,0,0:0:0:0:
260,203,55404,1,0,0:0:0:0:
449,68,55564,6,0,L|354:163,1,113.999996520996
375,22,55883,1,0,0:0:0:0:
380,268,56042,1,0,0:0:0:0:
473,137,56202,2,0,L|513:96,1,56.9999982604981
486,228,56362,2,0,L|465:344,2,113.999996520996
292,138,56840,5,0,0:0:0:0:
141,203,57000,1,0,0:0:0:0:
340,139,57159,1,0,0:0:0:0:
150,80,57319,1,0,0:0:0:0:
214,288,57479,5,0,0:0:0:0:
365,223,57639,1,0,0:0:0:0:
189,290,57798,1,0,0:0:0:0:
379,349,57958,1,0,0:0:0:0:
310,155,58117,6,0,L|264:108,2,56.9999982604981
428,88,58436,1,0,0:0:0:0:
208,186,58596,2,0,P|157:191|94:184,1,113.999996520996
278,270,58915,2,0,P|227:275|164:268,1,113.999996520996
69,108,59234,1,0,0:0:0:0:
295,346,59394,5,0,0:0:0:0:
447,268,59553,1,0,0:0:0:0:
216,214,59713,1,0,0:0:0:0:
377,310,59872,1,0,0:0:0:0:
177,312,60032,5,0,0:0:0:0:
329,234,60191,1,0,0:0:0:0:
98,180,60351,1,0,0:0:0:0:
259,276,60510,1,0,0:0:0:0:
50,284,60670,5,0,0:0:0:0:
202,206,60829,1,0,0:0:0:0:
0,91,60989,1,0,0:0:0:0:
132,248,61149,2,0,L|170:295,1,56.9999982604981
202,206,61308,1,0,0:0:0:0:
227,175,61388,1,0,0:0:0:0:
263,157,61468,1,0,0:0:0:0:
302,157,61548,1,0,0:0:0:0:
339,172,61628,2,0,P|360:188|377:216,1,56.9999982604981
440,178,61787,1,0,0:0:0:0:
421,142,61867,1,0,0:0:0:0:
390,118,61947,5,0,0:0:0:0:
191,135,62106,1,0,0:0:0:0:
305,238,62266,1,0,0:0:0:0:
276,42,62425,1,0,0:0:0:0:
490,139,62585,5,0,0:0:0:0:
291,156,62744,1,0,0:0:0:0:
405,259,62904,1,0,0:0:0:0:
376,63,63063,1,0,0:0:0:0:
259,310,63223,6,0,L|283:258,2,56.9999982604981
345,132,63542,1,0,0:0:0:0:
300,375,63702,2,0,P|229:380|192:347,1,113.999996520996
87,180,64021,2,0,P|158:175|195:208,1,113.999996520996
348,288,64340,1,0,0:0:0:0:
177,73,64500,5,0,0:0:0:0:
182,277,64659,1,0,0:0:0:0:
126,133,64819,1,0,0:0:0:0:
261,286,64979,1,0,0:0:0:0:
177,73,65138,5,0,0:0:0:0:
381,78,65297,1,0,0:0:0:0:
237,22,65457,1,0,0:0:0:0:
390,157,65617,1,0,0:0:0:0:
178,180,65777,6,0,L|103:157,2,56.9999982604981
212,257,66096,1,0,0:0:0:0:
35,73,66255,2,0,B|17:109|17:109|34:198,1,113.999996520996
207,365,66574,2,0,B|225:329|225:329|208:240,1,113.999996520996
125,100,66894,1,0,0:0:0:0:
313,341,67053,5,0,0:0:0:0:
125,344,67213,1,0,0:0:0:0:
341,372,67372,1,0,0:0:0:0:
183,240,67532,1,0,0:0:0:0:
372,344,67691,5,0,0:0:0:0:
369,156,67851,1,0,0:0:0:0:
341,372,68010,1,0,0:0:0:0:
473,214,68170,1,0,0:0:0:0:
263,271,68330,6,0,L|192:289,2,54.6250010418892
401,225,68649,1,0,0:0:0:0:
241,360,68808,2,0,L|122:344,1,109.250002083778
322,212,69128,2,0,L|203:196,1,109.250002083778
51,268,69447,1,0,0:0:0:0:
265,295,69606,5,0,0:0:0:0:
188,132,69766,1,0,0:0:0:0:
193,291,69925,1,0,0:0:0:0:
187,97,70085,1,0,0:0:0:0:
403,67,70245,5,0,0:0:0:0:
220,76,70404,1,0,0:0:0:0:
371,12,70564,1,0,0:0:0:0:
187,97,70724,1,0,0:0:0:0:
334,240,70883,5,0,0:0:0:0:
222,121,71042,1,0,0:0:0:0:
379,168,71202,1,0,0:0:0:0:
187,97,71362,2,0,L|121:71,1,54.6250010418892
104,163,71521,1,0,0:0:0:0:
92,198,71601,1,0,0:0:0:0:
89,236,71681,1,0,0:0:0:0:
101,272,71761,1,0,0:0:0:0:
130,296,71840,2,0,L|190:318,1,54.6250010418892
226,241,72000,1,0,0:0:0:0:
237,204,72080,1,0,0:0:0:0:
246,175,72159,6,0,B|254:123|254:123|244:91,1,85.4999973907472
146,215,72479,2,0,L|184:126,1,85.4999973907472
75,188,72798,2,0,L|113:99,1,85.4999973907472
217,253,73117,2,0,L|183:331,1,85.4999973907472
254,153,73436,6,0,P|323:140|382:153,1,128.249996086121
393,127,73755,1,0,0:0:0:0:
308,244,73915,1,0,0:0:0:0:
305,73,74074,2,0,P|260:80|206:102,1,85.4999973907472
292,2,74394,2,0,P|246:11|190:30,1,85.4999973907472
100,133,74713,6,0,P|91:193|101:267,1,128.249996086121
166,211,75032,1,0,0:0:0:0:
38,92,75191,1,0,0:0:0:0:
239,216,75351,2,0,L|312:261,1,85.4999973907472
266,120,75670,1,0,0:0:0:0:
206,298,75830,2,0,L|254:300,1,42.7499986953736
145,343,75989,6,0,P|177:368|234:369,1,85.4999973907472
439,332,76308,1,0,0:0:0:0:
206,298,76468,1,0,0:0:0:0:
481,335,76628,2,0,B|491:308|491:308|481:253,1,85.4999973907472
456,112,76947,2,0,L|359:146,1,85.4999973907472
240,76,77266,6,0,L|234:184,1,85.4999973907472
269,318,77585,2,0,L|198:271,1,85.4999973907472
373,224,77904,2,0,L|282:233,1,85.4999973907472
381,77,78223,2,0,L|332:154,1,85.4999973907472
398,323,78542,6,0,B|365:331|365:331|315:323,1,85.4999973907472
114,277,78862,1,0,0:0:0:0:
418,302,79021,1,0,0:0:0:0:
428,269,79101,1,0,0:0:0:0:
427,234,79181,2,0,L|426:183,1,42.7499986953736
445,108,79340,1,0,0:0:0:0:
411,98,79420,1,0,0:0:0:0:
377,106,79500,1,0,0:0:0:0:
343,113,79580,1,0,0:0:0:0:
309,109,79659,1,0,0:0:0:0:
275,99,79739,1,0,0:0:0:0:
241,106,79819,5,0,0:0:0:0:
209,119,80138,1,0,0:0:0:0:
184,143,80457,1,0,0:0:0:0:
178,176,80777,1,0,0:0:0:0:
199,202,81096,5,0,0:0:0:0:
205,235,81415,1,0,0:0:0:0:
198,268,81734,1,0,0:0:0:0:
361,328,82053,2,0,L|356:186,1,128.249996086121
218,279,82372,6,0,B|182:287|182:287|118:268,1,104.500003189087
290,250,82691,2,0,L|177:216,1,104.500003189087
282,317,83011,1,0,0:0:0:0:
201,146,83170,1,0,0:0:0:0:
161,354,83330,2,0,L|58:320,1,104.500003189087
76,114,83649,6,0,L|170:66,1,104.500003189087
202,202,83968,2,0,L|108:249,1,104.500003189087
182,134,84287,1,0,0:0:0:0:
10,38,84447,1,0,0:0:0:0:
89,182,84606,2,0,L|183:134,1,104.500003189087
341,273,84925,6,0,L|354:165,1,104.500003189087
388,327,85245,2,0,B|356:342|356:342|275:333,1,104.500003189087
418,267,85564,1,0,0:0:0:0:
462,143,85723,1,0,0:0:0:0:
271,223,85883,2,0,B|263:291|263:291|278:323,1,104.500003189087
309,112,86202,6,0,B|295:97|295:97|186:111,1,104.500003189087
382,151,86521,2,0,L|238:168,1,104.500003189087
399,225,86840,1,0,0:0:0:0:
441,74,87000,1,0,0:0:0:0:
318,207,87159,2,0,B|307:223|307:223|205:233,1,104.500003189087
115,73,87479,5,0,0:0:0:0:
68,217,87638,1,0,0:0:0:0:
209,86,87798,2,0,L|285:13,1,104.500003189087
273,227,88117,1,0,0:0:0:0:
320,83,88276,1,0,0:0:0:0:
179,214,88436,2,0,L|102:286,1,104.500003189087
228,118,88755,5,0,0:0:0:0:
350,216,88915,1,0,0:0:0:0:
156,143,89074,2,0,P|156:95|205:44,1,104.500003189087
383,85,89394,5,0,0:0:0:0:
261,183,89554,1,0,0:0:0:0:
455,110,89713,2,0,P|455:62|406:11,1,104.500003189087
348,215,90032,6,0,L|310:319,1,104.500003189087
261,183,90351,2,0,L|296:84,1,104.500003189087
348,215,90670,1,0,0:0:0:0:
176,144,90830,1,0,0:0:0:0:
395,154,90989,2,0,P|422:200|402:270,1,104.500003189087
211,257,91308,5,0,0:0:0:0:
65,224,91468,1,0,0:0:0:0:
239,182,91628,2,0,P|268:207|285:232,1,52.2500015945435
324,160,91787,1,0,0:0:0:0:
315,124,91867,1,0,0:0:0:0:
308,87,91947,2,0,L|294:25,1,52.2500015945435
214,37,92106,1,0,0:0:0:0:
202,71,92186,1,0,0:0:0:0:
190,106,92266,2,0,L|172:155,1,52.2500015945435
103,152,92425,1,0,0:0:0:0:
66,145,92505,1,0,0:0:0:0:
31,158,92585,6,0,B|26:192|26:192|31:246,1,71.2500027179719
133,334,92904,2,0,B|167:339|167:339|203:335,1,71.2500027179719
171,155,93223,2,0,B|166:189|166:189|171:243,1,71.2500027179719
273,331,93542,2,0,B|307:336|307:336|343:332,1,71.2500027179719
264,115,93862,5,0,0:0:0:0:
152,78,94021,1,0,0:0:0:0:
358,200,94181,5,0,0:0:0:0:
246,237,94340,1,0,0:0:0:0:
187,144,94500,6,0,L|132:210,1,71.2500027179719
318,269,94819,2,0,L|372:314,1,71.2500027179719
395,155,95138,6,0,P|386:93|320:118,1,142.500005435944
246,237,95617,1,0,0:0:0:0:
144,126,95777,2,0,P|82:135|107:201,1,142.500005435944
246,237,96255,1,0,0:0:0:0:
321,67,96415,6,0,L|244:36,1,71.2500027179719
384,124,96734,2,0,L|358:191,1,71.2500027179719
210,152,97053,2,0,L|133:121,1,71.2500027179719
273,209,97372,2,0,L|247:276,1,71.2500027179719
115,228,97691,5,0,0:0:0:0:
25,146,97851,1,0,0:0:0:0:
196,219,98011,5,0,0:0:0:0:
114,309,98171,1,0,0:0:0:0:
105,121,98330,6,0,L|147:55,1,71.2500027179719
196,219,98649,2,0,L|256:257,1,71.2500027179719
339,133,98968,5,0,0:0:0:0:
381,250,99128,1,0,0:0:0:0:
295,340,99287,2,0,B|266:344|266:344|208:340,1,71.2500027179719
109,133,99606,1,0,0:0:0:0:
67,250,99766,1,0,0:0:0:0:
153,340,99925,2,0,B|182:344|182:344|240:340,1,71.2500027179719
353,231,100245,6,0,B|301:243|301:243|217:216,1,142.500005435944
358,301,100723,1,0,0:0:0:0:
268,156,100883,2,0,L|132:112,1,142.500005435944
216,215,101362,1,0,0:0:0:0:
154,38,101521,6,0,P|70:66|57:132,1,142.500005435944
247,90,102000,2,0,L|273:53,1,35.625001358986
289,159,102159,2,0,L|326:227,1,71.2500027179719
376,171,102399,1,0,0:0:0:0:
387,145,102479,1,0,0:0:0:0:
412,269,102638,1,0,0:0:0:0:
433,293,102718,1,0,0:0:0:0:
467,309,102798,5,0,0:0:0:0:
441,197,102957,1,0,0:0:0:0:
421,363,103117,5,0,0:0:0:0:
483,139,103277,1,0,0:0:0:0:
368,295,103436,6,0,L|268:289,1,85.4999973907472
387,132,103755,2,0,L|362:220,1,85.4999973907472
219,75,104074,5,0,0:0:0:0:
387,132,104234,1,0,0:0:0:0:
187,144,104394,5,0,0:0:0:0:
409,57,104553,1,0,0:0:0:0:
245,206,104713,2,0,L|183:264,1,85.4999973907472
235,116,105032,1,0,0:0:0:0:
120,281,105191,1,0,0:0:0:0:
328,221,105351,6,0,L|293:338,1,85.4999973907472
350,155,105670,1,0,0:0:0:0:
195,166,105830,1,0,0:0:0:0:
393,249,105989,2,0,L|358:366,1,85.4999973907472
411,182,106308,1,0,0:0:0:0:
256,193,106468,1,0,0:0:0:0:
457,269,106627,6,0,L|422:386,1,85.4999973907472
482,203,106947,1,0,0:0:0:0:
346,285,107106,1,0,0:0:0:0:
430,114,107266,2,0,B|404:103|404:103|348:113,1,85.4999973907472
308,289,107585,1,0,0:0:0:0:
347,113,107745,1,0,0:0:0:0:
382,281,107904,5,0,0:0:0:0:
232,224,108064,1,0,0:0:0:0:
197,56,108223,5,0,0:0:0:0:
347,113,108383,1,0,0:0:0:0:
168,152,108542,1,0,0:0:0:0:
200,285,108702,1,0,0:0:0:0:
72,236,108862,1,0,0:0:0:0:
168,152,109021,1,0,0:0:0:0:
117,294,109181,6,0,L|143:391,1,85.4999973907472
251,283,109500,1,0,0:0:0:0:
372,362,109659,1,0,0:0:0:0:
184,289,109819,2,0,L|161:206,1,85.4999973907472
203,355,110138,1,0,0:0:0:0:
345,296,110298,1,0,0:0:0:0:
111,296,110457,6,0,L|83:189,1,85.4999973907472
134,361,110777,1,0,0:0:0:0:
276,302,110937,1,0,0:0:0:0:
54,155,111096,2,0,B|73:143|73:143|148:154,1,85.4999973907472
27,262,111415,1,0,0:0:0:0:
12,100,111574,1,0,0:0:0:0:
194,299,111734,6,0,B|213:311|213:311|275:301,1,85.4999973907472
128,253,112053,1,0,0:0:0:0:
280,227,112213,1,0,0:0:0:0:
137,153,112372,1,0,0:0:0:0:
107,135,112452,1,0,0:0:0:0:
77,117,112532,2,0,L|30:90,1,42.7499986953736
167,66,112691,1,0,0:0:0:0:
200,60,112771,1,0,0:0:0:0:
234,56,112851,2,0,P|259:56|285:60,1,42.7499986953736
209,141,113011,5,0,0:0:0:0:
397,215,113330,1,0,0:0:0:0:
182,160,113649,1,0,0:0:0:0:
424,196,113968,1,0,0:0:0:0:
209,243,114287,5,0,0:0:0:0:
397,169,114606,1,0,0:0:0:0:
182,224,114925,1,0,0:0:0:0:
424,188,115244,1,0,0:0:0:0:
193,193,115564,6,0,L|118:131,1,85.4999973907472
277,267,115883,2,0,L|181:267,1,85.4999973907472
352,228,116202,2,0,L|277:166,1,85.4999973907472
436,302,116521,2,0,L|340:302,1,85.4999973907472
177,362,116840,6,0,B|168:342|168:342|177:280,1,85.4999973907472
242,337,117159,2,0,L|336:337,1,85.4999973907472
145,215,117479,2,0,B|165:206|165:206|227:215,1,85.4999973907472
306,179,117798,2,0,L|306:264,1,85.4999973907472
123,142,118117,6,0,P|161:132|217:141,1,85.4999973907472
121,282,118436,2,0,L|177:199,1,85.4999973907472
306,264,118755,2,0,P|268:274|212:265,1,85.4999973907472
308,124,119074,2,0,L|252:207,1,85.4999973907472
164,62,119394,6,0,L|267:99,1,85.4999973907472
375,175,119713,2,0,L|375:70,1,85.4999973907472
305,39,119952,1,0,0:0:0:0:
278,24,120032,1,0,0:0:0:0:
442,50,120191,1,0,0:0:0:0:
447,79,120271,1,0,0:0:0:0:
448,108,120351,1,0,0:0:0:0:
342,326,120670,5,0,0:0:0:0:
204,91,120830,2,0,L|246:45,1,47.5
443,229,121149,5,0,0:0:0:0:
114,157,121308,2,0,L|127:92,1,47.5
455,69,121628,5,0,0:0:0:0:
63,234,121787,2,0,B|98:266|98:266|138:253|176:266|176:266|206:253|249:265|249:265|289:278|357:265,1,308.75
470,225,122904,1,0,0:0:0:0:
452,202,122984,1,0,0:0:0:0:
429,177,123064,1,0,0:0:0:0:
395,163,123144,1,0,0:0:0:0:
357,164,123223,5,0,0:0:0:0:
445,311,123383,1,0,0:0:0:0:
421,97,123542,1,0,0:0:0:0:
405,247,123702,1,0,0:0:0:0:
265,231,123862,5,0,0:0:0:0:
412,319,124022,1,0,0:0:0:0:
198,295,124181,1,0,0:0:0:0:
348,279,124341,1,0,0:0:0:0:
126,134,124500,6,0,L|248:93,1,113.999996520996
127,242,124819,1,0,0:0:0:0:
197,35,124979,2,0,B|239:23|239:23|331:68,1,113.999996520996
212,173,125298,1,0,0:0:0:0:
381,112,125457,2,0,L|361:-14,1,113.999996520996
449,295,125777,5,0,0:0:0:0:
241,231,125936,1,0,0:0:0:0:
486,159,126096,1,0,0:0:0:0:
311,257,126255,1,0,0:0:0:0:
350,41,126415,5,0,0:0:0:0:
241,231,126574,1,0,0:0:0:0:
442,75,126734,1,0,0:0:0:0:
280,159,126894,2,0,L|212:145,1,56.9999982604981
234,33,127053,5,0,0:0:0:0:
241,231,127213,1,0,0:0:0:0:
317,103,127372,1,0,0:0:0:0:
113,221,127532,2,0,L|14:279,1,113.999996520996
264,278,127851,2,0,B|278:243|278:243|264:155,1,113.999996520996
334,298,128170,1,0,0:0:0:0:
172,82,128330,6,0,L|287:97,1,113.999996520996
150,166,128649,1,0,0:0:0:0:
194,6,128808,1,0,0:0:0:0:
249,181,128968,2,0,P|310:184|361:145,1,113.999996520996
236,266,129287,1,0,0:0:0:0:
285,96,129447,1,0,0:0:0:0:
397,295,129606,5,0,0:0:0:0:
172,332,129766,1,0,0:0:0:0:
210,100,129925,1,0,0:0:0:0:
221,268,130085,2,0,B|259:281|259:281|338:268,1,113.999996520996
106,348,130404,2,0,L|91:226,1,113.999996520996
126,72,130723,1,0,0:0:0:0:
336,131,130883,6,0,P|345:190|339:251,1,113.999996520996
343,42,131202,1,0,0:0:0:0:
277,189,131362,1,0,0:0:0:0:
390,318,131521,2,0,P|407:285|417:209,1,113.999996520996
318,357,131840,1,0,0:0:0:0:
277,189,132000,1,0,0:0:0:0:
121,331,132159,6,0,L|106:212,1,113.999996520996
289,199,132479,1,0,0:0:0:0:
201,329,132638,1,0,0:0:0:0:
161,335,132718,1,0,0:0:0:0:
121,331,132798,2,0,L|63:333,1,56.9999982604981
177,253,132957,1,0,0:0:0:0:
173,213,133037,1,0,0:0:0:0:
164,173,133117,2,0,L|148:109,1,56.9999982604981
252,196,133277,1,0,0:0:0:0:
256,236,133357,1,0,0:0:0:0:
265,276,133436,5,0,0:0:0:0:
405,185,133596,1,0,0:0:0:0:
148,246,133755,1,0,0:0:0:0:
332,296,133915,1,0,0:0:0:0:
161,141,134074,5,0,0:0:0:0:
301,50,134234,1,0,0:0:0:0:
44,111,134393,1,0,0:0:0:0:
228,161,134553,1,0,0:0:0:0:
71,321,134713,6,0,L|156:230,1,113.999996520996
324,273,135032,1,0,0:0:0:0:
167,342,135191,1,0,0:0:0:0:
39,242,135351,1,0,0:0:0:0:
276,339,135511,1,0,0:0:0:0:
227,192,135670,2,0,L|192:84,1,113.999996520996
339,247,135989,5,0,0:0:0:0:
401,100,136149,1,0,0:0:0:0:
240,264,136308,1,0,0:0:0:0:
145,164,136468,1,0,0:0:0:0:
373,246,136628,5,0,0:0:0:0:
430,94,136788,1,0,0:0:0:0:
265,240,136947,1,0,0:0:0:0:
170,140,137107,1,0,0:0:0:0:
443,224,137266,6,0,B|460:192|460:192|441:102,1,113.999996520996
508,264,137585,1,0,0:0:0:0:
322,130,137745,1,0,0:0:0:0:
315,357,137904,1,0,0:0:0:0:
280,72,138064,1,0,0:0:0:0:
296,283,138223,2,0,B|373:300|373:300|405:283,1,113.999996520996
168,206,138542,6,0,L|85:102,1,113.999996520996
214,269,138862,2,0,P|243:220|230:160,1,113.999996520996
379,274,139181,2,0,L|462:378,1,113.999996520996
333,211,139501,2,0,P|304:260|317:320,1,113.999996520996
473,218,139819,5,0,0:0:0:0:
233,222,139979,1,0,0:0:0:0:
379,274,140138,1,0,0:0:0:0:
204,89,140298,2,0,L|132:0,1,113.999996520996
249,152,140618,2,0,P|277:104|268:49,1,113.999996520996
76,155,140936,1,0,0:0:0:0:
334,176,141096,5,0,0:0:0:0:
187,128,141255,1,0,0:0:0:0:
404,179,141415,1,0,0:0:0:0:
234,208,141574,1,0,0:0:0:0:
436,279,141734,5,0,0:0:0:0:
485,89,141893,1,0,0:0:0:0:
433,349,142053,1,0,0:0:0:0:
377,118,142212,1,0,0:0:0:0:
152,130,142372,5,0,0:0:0:0:
345,192,142532,1,0,0:0:0:0:
98,70,142691,1,0,0:0:0:0:
210,255,142851,1,0,0:0:0:0:
225,285,142931,1,0,0:0:0:0:
242,314,143011,2,0,L|270:364,1,56.9999982604981
283,188,143170,1,0,0:0:0:0:
290,154,143250,1,0,0:0:0:0:
305,123,143330,2,0,P|323:99|348:79,1,56.9999982604981
419,262,143489,1,0,0:0:0:0:
386,251,143569,1,0,0:0:0:0:
356,240,143649,6,0,B|331:233|331:233|245:248,1,104.500003189087
428,177,143968,2,0,L|438:63,1,104.500003189087
489,261,144287,2,0,L|499:147,1,104.500003189087
306,50,144606,2,0,B|266:37|266:37|145:56,1,156.750004783631
73,92,144925,6,0,B|55:144|73:191|73:191|89:240|73:297,1,209.000006378174
265,217,145564,2,0,L|184:303,1,104.500003189087
173,94,145883,2,0,L|162:214,1,104.500003189087
397,155,146202,6,0,B|405:186|405:186|396:264,1,104.500003189087
349,75,146521,2,0,L|222:58,1,104.500003189087
469,149,146840,2,0,B|477:180|477:180|468:258,1,104.500003189087
408,15,147159,2,0,L|281:-2,1,104.500003189087
203,282,147479,6,0,P|258:293|308:282,1,104.500003189087
368,120,147798,2,0,L|331:226,1,104.500003189087
148,216,148117,2,0,P|203:205|253:216,1,104.500003189087
425,209,148436,2,0,L|388:315,1,104.500003189087
192,160,148755,6,0,B|187:127|187:127|194:89|194:89|188:58,1,104.500003189087
92,299,149074,2,0,L|196:299,1,104.500003189087
345,184,149394,2,0,L|427:78,1,104.500003189087
277,268,149713,2,0,L|173:268,1,104.500003189087
416,303,150032,6,0,B|421:275|421:275|409:256|409:256|437:182|409:102,1,209.000006378174
494,245,150511,1,0,0:0:0:0:
272,312,150670,2,0,L|214:323,1,52.2500015945435
175,240,150830,2,0,L|83:217,1,52.2500015945435
281,278,150989,1,0,0:0:0:0:
289,247,151069,1,0,0:0:0:0:
285,215,151149,1,0,0:0:0:0:
278,184,151229,1,0,0:0:0:0:
267,154,151308,5,0,0:0:0:0:
249,123,151628,1,0,0:0:0:0:
222,99,151947,1,0,0:0:0:0:
191,85,152266,1,0,0:0:0:0:
155,80,152585,1,0,0:0:0:0:
119,84,152904,1,0,0:0:0:0:
84,93,153223,1,0,0:0:0:0:
54,112,153542,2,0,L|27:160,1,47.5
153,204,153862,6,0,L|206:106,1,85.4999973907472
199,273,154181,2,0,P|131:280|102:272,1,85.4999973907472
235,205,154500,1,0,0:0:0:0:
235,205,154819,6,0,L|288:107,1,85.4999973907472
281,274,155138,2,0,P|213:281|184:273,1,85.4999973907472
317,206,155457,1,0,0:0:0:0:
248,140,155777,5,0,0:0:0:0:
283,350,155936,1,0,0:0:0:0:
165,225,156096,1,0,0:0:0:0:
278,314,156255,1,0,0:0:0:0:
381,162,156415,6,0,L|226:193,1,128.249996086121
398,190,156734,2,0,B|410:227|410:227|395:360,1,170.999994781494
168,255,157372,6,0,B|161:232|161:232|165:217|165:217|161:201|161:201|168:106,1,128.249996086121
201,274,157691,2,0,B|234:226|234:226|226:194|226:194|232:115,1,170.999994781494
301,182,158330,1,0,0:0:0:0:
329,306,158489,5,0,0:0:0:0:
240,29,158649,2,0,L|229:145,1,85.4999973907472
396,137,158968,5,0,0:0:0:0:
268,284,159128,2,0,L|293:180,1,85.4999973907472
308,118,159447,5,0,0:0:0:0:
180,265,159607,2,0,L|205:159,1,95
237,350,159925,5,0,0:0:0:0:
365,203,160085,2,0,L|341:309,1,104.500003189087
325,369,160404,5,0,0:0:0:0:
453,222,160564,2,0,L|425:334,1,113.999996520996
423,88,160883,6,0,B|390:73|390:73|289:91,1,106.875004076958
226,178,161202,2,0,B|260:170|260:170|279:169|279:169|294:162|294:162|312:162|312:162|332:152|332:152|353:151|353:151|399:140,1,156.750004783631
461,30,161521,6,0,L|453:195,1,142.500005435944
214,348,162159,6,0,L|225:172,1,170.999994781494
225,177,162798,5,0,0:0:0:0:
345,257,162957,1,0,0:0:0:0:
293,105,163117,1,0,0:0:0:0:
345,257,163277,1,0,0:0:0:0:
213,81,163436,1,0,0:0:0:0:
185,72,163516,1,0,0:0:0:0:
156,73,163596,1,0,0:0:0:0:
130,84,163675,1,0,0:0:0:0:
106,100,163755,1,0,0:0:0:0:
91,124,163835,1,0,0:0:0:0:
86,152,163915,1,0,0:0:0:0:
60,139,163995,1,0,0:0:0:0:
50,112,164074,5,0,0:0:0:0:
162,273,164234,1,0,0:0:0:0:
275,134,164394,1,0,0:0:0:0:
51,193,164553,1,0,0:0:0:0:
207,153,164713,2,0,B|220:126|220:126|207:58,1,95
66,327,165032,2,0,P|141:343|203:327,1,142.5
130,210,165351,6,0,L|232:246,1,95
387,275,165670,2,0,L|347:182,1,95
146,29,165989,2,0,L|183:116,1,95
461,336,166308,2,0,P|392:353|324:337,1,142.5
347,188,166628,6,0,B|321:181|321:181|225:193,1,95
323,336,166947,1,0,0:0:0:0:
420,207,167106,1,0,0:0:0:0:
289,262,167266,2,0,L|160:284,1,95
359,123,167585,6,0,P|309:102|262:114,1,95
289,262,167904,1,0,0:0:0:0:
346,42,168064,1,0,0:0:0:0:
310,186,168223,2,0,P|360:207|407:195,1,95
210,103,168542,2,0,P|162:104|121:127,1,95
246,279,168862,2,0,L|219:168,1,95
424,305,169181,5,0,0:0:0:0:
176,280,169340,1,0,0:0:0:0:
393,294,169500,1,0,0:0:0:0:
253,88,169659,1,0,0:0:0:0:
360,277,169819,1,0,0:0:0:0:
346,293,170138,5,0,0:0:0:0:
306,97,170298,1,0,0:0:0:0:
329,271,170457,1,0,0:0:0:0:
172,40,170617,1,0,0:0:0:0:
299,241,170777,1,0,0:0:0:0:
429,184,170936,1,0,0:0:0:0:
238,302,171096,2,0,L|337:322,1,95
216,206,171415,1,0,0:0:0:0:
367,186,171574,1,0,0:0:0:0:
148,321,171734,6,0,B|133:291|133:291|148:219,1,95
55,364,172053,1,0,0:0:0:0:
228,279,172213,2,0,L|245:185,1,95
148,321,172532,1,0,0:0:0:0:
319,236,172691,2,0,L|301:329,1,95
339,144,173011,5,0,0:0:0:0:
366,323,173170,1,0,0:0:0:0:
413,159,173330,2,0,L|431:66,1,95
283,67,173569,1,0,0:0:0:0:
261,76,173649,2,0,L|215:100,1,47.5
305,139,173808,1,0,0:0:0:0:
317,159,173888,1,0,0:0:0:0:
329,179,173968,2,0,L|361:236,1,47.5
255,212,174128,1,0,0:0:0:0:
232,205,174207,1,0,0:0:0:0:
208,192,174287,6,0,L|105:160,1,104.500003189087
286,301,174606,2,0,L|175:296,1,104.500003189087
298,132,174925,2,0,L|397:163,1,104.500003189087
220,23,175244,2,0,L|324:27,1,104.500003189087,0|0,0:0|0:0,0:0:0:0:
51,98,175564,6,0,B|35:133|35:133|50:203,1,104.500003189087
228,110,175883,2,0,L|131:153,1,104.500003189087
445,169,176202,6,0,B|461:204|461:204|447:268,1,104.500003189087
268,181,176521,2,0,L|363:223,1,104.500003189087
65,324,176840,6,0,B|54:170,1,104.500003189087
165,313,177159,2,0,L|202:178,1,104.500003189087
267,317,177479,2,0,L|329:224,1,104.500003189087
316,50,177798,2,0,L|258:136,1,104.500003189087
419,340,178117,6,0,L|442:228,1,104.500003189087
264,273,178436,2,0,P|316:253|367:273,1,104.500003189087
166,324,178755,2,0,P|116:338|69:318,1,104.500003189087
21,177,179074,2,0,L|0:279,1,104.500003189087
292,166,179394,5,0,0:0:0:0:
124,219,179713,1,0,0:0:0:0:
365,169,180032,1,0,0:0:0:0:
110,124,180351,1,0,0:0:0:0:
441,113,180670,6,0,L|437:221,1,104.500003189087
230,142,180989,2,0,L|332:180,1,104.500003189087
222,249,181229,1,0,0:0:0:0:
207,254,181308,2,0,L|143:235,1,52.2500015945435
247,329,181468,1,0,0:0:0:0:
260,336,181548,1,0,0:0:0:0:
275,336,181628,2,0,B|304:347|304:347|381:335,1,104.500003189087
297,73,181947,5,0,0:0:0:0:
203,327,182106,2,0,L|229:257,1,71.2500027179719
241,26,182425,5,0,0:0:0:0:
340,293,182584,2,0,L|314:223,1,71.2500027179719
160,49,182904,5,0,0:0:0:0:
482,178,183063,2,0,B|430:159|430:159|381:176|381:176|257:106|138:174,1,356.25001358986
277,273,184500,5,0,0:0:0:0:
256,288,184580,1,0,0:0:0:0:
234,302,184659,1,0,0:0:0:0:
207,298,184739,1,0,0:0:0:0:
186,274,184819,5,0,0:0:0:0:
177,244,184899,1,0,0:0:0:0:
179,213,184978,1,0,0:0:0:0:
194,186,185058,1,0,0:0:0:0:
179,153,185138,5,0,0:0:0:0:
149,133,185218,1,0,0:0:0:0:
113,133,185297,1,0,0:0:0:0:
82,151,185377,1,0,0:0:0:0:
77,184,185457,5,0,0:0:0:0:
56,150,185537,1,0,0:0:0:0:
60,111,185616,1,0,0:0:0:0:
93,87,185696,1,0,0:0:0:0:
61,60,185777,5,0,0:0:0:0:
177,244,185936,1,0,0:0:0:0:
178,64,186096,2,0,B|216:45|216:45|313:60,1,113.999996520996
79,59,186415,5,0,0:0:0:0:
256,180,186574,1,0,0:0:0:0:
180,9,186734,2,0,L|296:27,1,113.999996520996
166,197,187053,5,0,0:0:0:0:
324,119,187213,1,0,0:0:0:0:
274,300,187372,1,0,0:0:0:0:
165,101,187532,1,0,0:0:0:0:
290,210,187691,2,0,L|235:240,1,56.9999982604981
224,155,187851,1,0,0:0:0:0:
274,300,188011,2,0,B|241:311|241:311|161:300,1,113.999996520996
405,93,188330,5,0,0:0:0:0:
202,121,188489,1,0,0:0:0:0:
425,168,188649,2,0,B|436:135|436:135|425:57,1,113.999996520996
121,173,188968,5,0,0:0:0:0:
324,145,189127,1,0,0:0:0:0:
101,98,189287,2,0,B|90:131|90:131|101:209,1,113.999996520996
313,169,189606,5,0,0:0:0:0:
167,288,189766,1,0,0:0:0:0:
285,191,189925,1,0,0:0:0:0:
101,209,190085,1,0,0:0:0:0:
341,268,190245,2,0,L|395:248,1,56.9999982604981
285,191,190404,1,0,0:0:0:0:
367,347,190564,2,0,L|245:330,1,113.999996520996
392,152,190883,5,0,0:0:0:0:
237,163,191042,1,0,0:0:0:0:
415,238,191202,2,0,P|455:211|490:151,1,113.999996520996
173,213,191521,5,0,0:0:0:0:
328,202,191680,1,0,0:0:0:0:
150,127,191840,2,0,P|110:154|75:214,1,113.999996520996
255,116,192159,5,0,0:0:0:0:
325,274,192319,1,0,0:0:0:0:
184,222,192479,1,0,0:0:0:0:
379,131,192638,1,0,0:0:0:0:
325,274,192798,2,0,L|348:328,1,56.9999982604981
386,215,192957,1,0,0:0:0:0:
306,67,193117,2,0,B|276:55|276:55|195:67,1,113.999996520996
302,205,193436,5,0,0:0:0:0:
458,129,193596,1,0,0:0:0:0:
281,292,193755,1,0,0:0:0:0:
437,298,193915,1,0,0:0:0:0:
248,145,194074,5,0,0:0:0:0:
404,69,194234,1,0,0:0:0:0:
227,232,194393,1,0,0:0:0:0:
383,238,194553,1,0,0:0:0:0:
164,101,194713,5,0,0:0:0:0:
320,25,194873,1,0,0:0:0:0:
122,121,195032,1,0,0:0:0:0:
299,194,195191,1,0,0:0:0:0:
314,170,195271,1,0,0:0:0:0:
309,143,195351,2,0,P|301:111|282:84,1,56.9999982604981
183,48,195511,1,0,0:0:0:0:
159,33,195591,1,0,0:0:0:0:
132,38,195671,2,0,P|100:46|73:65,1,56.9999982604981
6,141,195830,1,0,0:0:0:0:
30,156,195910,1,0,0:0:0:0:
57,151,195989,5,0,0:0:0:0:
73,276,196149,1,0,0:0:0:0:
277,181,196308,1,0,0:0:0:0:
260,317,196468,1,0,0:0:0:0:
133,115,196628,5,0,0:0:0:0:
149,240,196788,1,0,0:0:0:0:
353,145,196947,1,0,0:0:0:0:
336,281,197107,1,0,0:0:0:0:
238,66,197266,5,0,0:0:0:0:
452,92,197425,1,0,0:0:0:0:
322,266,197585,1,0,0:0:0:0:
238,66,197745,1,0,0:0:0:0:
422,204,197904,2,0,L|476:229,1,56.9999982604981
414,285,198064,1,0,0:0:0:0:
350,134,198223,2,0,B|340:166|340:166|350:246,1,113.999996520996
116,249,198542,5,0,0:0:0:0:
88,56,198702,1,0,0:0:0:0:
259,148,198862,1,0,0:0:0:0:
116,249,199022,1,0,0:0:0:0:
287,341,199181,5,0,0:0:0:0:
259,148,199341,1,0,0:0:0:0:
116,249,199501,1,0,0:0:0:0:
287,341,199661,1,0,0:0:0:0:
243,59,199819,5,0,0:0:0:0:
242,249,199979,1,0,0:0:0:0:
239,95,200138,1,0,0:0:0:0:
72,252,200298,1,0,0:0:0:0:
216,188,200457,2,0,B|242:248,1,56.9999982604981
302,191,200617,1,0,0:0:0:0:
135,183,200777,2,0,L|195:328,1,113.999996520996
338,260,201096,5,0,0:0:0:0:
493,108,201255,1,0,0:0:0:0:
219,113,201415,1,0,0:0:0:0:
418,144,201574,1,0,0:0:0:0:
139,229,201734,5,0,0:0:0:0:
294,77,201893,1,0,0:0:0:0:
20,82,202053,1,0,0:0:0:0:
219,113,202212,1,0,0:0:0:0:
152,0,202372,5,0,0:0:0:0:
215,195,202532,1,0,0:0:0:0:
353,44,202691,1,0,0:0:0:0:
152,0,202851,1,0,0:0:0:0:
321,153,203011,2,0,L|332:208,1,56.9999982604981
227,124,203170,1,0,0:0:0:0:
397,101,203330,2,0,P|354:68|292:65,1,113.999996520996
126,148,203649,5,0,0:0:0:0:
305,177,203808,1,0,0:0:0:0:
81,86,203968,1,0,0:0:0:0:
110,265,204127,1,0,0:0:0:0:
400,189,204288,5,0,0:0:0:0:
210,159,204447,1,0,0:0:0:0:
456,255,204606,1,0,0:0:0:0:
425,65,204765,1,0,0:0:0:0:
210,159,204925,5,0,0:0:0:0:
411,191,205084,1,0,0:0:0:0:
141,95,205244,1,0,0:0:0:0:
253,204,205403,1,0,0:0:0:0:
264,230,205484,1,0,0:0:0:0:
278,254,205564,2,0,P|291:287|298:316,1,56.9999982604981
194,291,205723,1,0,0:0:0:0:
183,265,205804,1,0,0:0:0:0:
169,241,205884,2,0,P|156:208|149:179,1,56.9999982604981
218,111,206042,1,0,0:0:0:0:
245,103,206122,1,0,0:0:0:0:
271,105,206202,6,0,P|314:144|336:186,1,104.500003189087
327,47,206521,2,0,P|268:22|194:29,1,104.500003189087
412,148,206840,2,0,P|417:206|401:262,1,104.500003189087
226,200,207159,2,0,L|315:132,1,104.500003189087
127,308,207479,6,0,B|114:275|114:275|132:248|132:248|109:181|132:108,1,209.000006378174
47,214,207957,1,0,0:0:0:0:
201,286,208117,2,0,L|312:289,1,104.500003189087
226,197,208436,1,0,0:0:0:0:
294,365,208596,1,0,0:0:0:0:
330,96,208755,6,0,B|297:78|297:78|266:95|266:95|190:67|133:95,1,209.000006378174
240,12,209234,1,0,0:0:0:0:
307,170,209394,2,0,L|400:219,1,104.500003189087
226,197,209713,1,0,0:0:0:0:
402,131,209872,1,0,0:0:0:0:
263,285,210032,6,0,P|173:258|266:216,1,209.000006378174
414,224,210511,1,0,0:0:0:0:
190,129,210670,2,0,P|146:153|106:202,1,104.500003189087
334,288,210989,2,0,P|378:264|418:215,1,104.500003189087
284,69,211308,6,0,B|270:101|270:101|279:182,1,104.500003189087
75,137,211628,2,0,L|185:157,1,104.500003189087
344,117,211947,2,0,L|385:233,1,104.500003189087
163,255,212266,2,0,L|273:235,1,104.500003189087
37,64,212585,6,0,P|84:50|243:64,1,209.000006378174
79,222,213064,1,0,0:0:0:0:
143,139,213223,1,0,0:0:0:0:
169,171,213303,1,0,0:0:0:0:
184,209,213383,2,0,P|197:244|201:275,1,52.2500015945435
315,255,213542,1,0,0:0:0:0:
286,224,213622,1,0,0:0:0:0:
272,184,213702,2,0,P|259:149|255:118,1,52.2500015945435
374,162,213862,5,0,0:0:0:0:
