osu file format v14

[General]
AudioFilename: audio.mp3
AudioLeadIn: 0
PreviewTime: 206785
Countdown: 0
SampleSet: None
StackLeniency: 0.7
Mode: 0
LetterboxInBreaks: 1
WidescreenStoryboard: 0

[Editor]
Bookmarks: 28007,127785,199562
DistanceSpacing: 1.7
BeatDivisor: 4
GridSize: 8
TimelineZoom: 1

[Metadata]
Title:Leila
TitleUnicode:レイラ
Artist:Silent Siren
ArtistUnicode:Silent Siren
Creator:october
Version:Facade
Source:S
Tags:silent siren speed practice jumps
BeatmapID:1476159
BeatmapSetID:695151

[Difficulty]
HPDrainRate:6
CircleSize:4
OverallDifficulty:7.5
ApproachRate:8.8
SliderMultiplier:2
SliderTickRate:1

[Events]
//Background and Video events
0,0,"bg.jpg",0,0
//Break Periods
2,86207,99525
2,192873,198933
//Storyboard Layer 0 (Background)
//Storyboard Layer 1 (Fail)
//Storyboard Layer 2 (Pass)
//Storyboard Layer 3 (Foreground)
//Storyboard Sound Samples

[TimingPoints]
674,444.444444444444,4,3,0,90,1,0
33340,-133.333333333333,4,3,0,90,0,0
34007,-100,4,3,0,90,0,0
50451,-133.333333333333,4,3,0,90,0,0
54007,-100,4,3,0,90,0,0
57562,-100,4,3,0,90,0,1
86007,-100,4,3,0,90,0,0
128673,-133.333333333333,4,3,0,90,0,0
132229,-100,4,3,0,90,0,0
135785,-100,4,3,0,90,0,1
164229,-100,4,3,0,90,0,0
200451,-133.333333333333,4,3,0,90,0,0
204896,-100,4,3,0,90,0,0
210451,-100,4,3,0,90,0,1
235340,-100,4,3,0,90,0,0

[Colours]
Combo1 : 252,3,208
Combo2 : 202,4,251

[HitObjects]
104,80,22007,5,0,0:0:0:0:
104,80,22340,1,0,0:0:0:0:
104,80,22673,2,0,P|208:64|280:128,1,200
176,192,23340,5,0,0:0:0:0:
176,192,23562,1,0,0:0:0:0:
176,192,23785,2,0,P|224:224|288:224,1,100
248,144,24118,2,0,P|320:120|376:144,1,100
360,232,24451,2,0,P|448:200|448:96,1,200
384,152,25118,6,0,P|312:104|280:96,1,100
72,136,25562,2,0,P|104:80|200:64,1,150
184,176,26229,2,0,P|248:224|360:184,1,200
272,136,26896,1,0,0:0:0:0:
272,136,27118,1,0,0:0:0:0:
272,136,27340,2,0,P|288:88|344:56,1,100
224,224,27673,2,0,P|208:176|152:144,1,100
288,312,28007,2,0,P|304:264|360:232,1,100,0|4,0:0|0:0,0:0:0:0:
342,235,28673,6,0,P|296:168|216:152,1,150,4|0,0:0|0:0,0:0:0:0:
216,152,29118,1,0,0:0:0:0:
216,152,29451,1,0,0:0:0:0:
216,152,29785,2,0,P|144:128|120:96,1,100
296,80,30229,5,0,0:0:0:0:
296,80,30451,2,0,P|208:72|168:104,1,100
248,144,30896,5,0,0:0:0:0:
248,144,31229,1,0,0:0:0:0:
248,144,31562,2,0,P|288:192|360:200,1,100
328,128,32007,5,0,0:0:0:0:
328,128,32229,2,0,P|376:88|424:88,1,100
264,80,32673,1,0,0:0:0:0:
264,80,33007,1,0,0:0:0:0:
264,80,33340,2,0,P|160:64|128:88,1,150
200,136,34007,1,0,0:0:0:0:
216,168,34118,1,0,0:0:0:0:
240,200,34229,1,0,0:0:0:0:
272,224,34340,1,0,0:0:0:0:
304,240,34451,2,0,P|392:240|432:208,1,100
344,168,34785,6,0,P|304:120|312:56,1,100
376,96,35118,2,0,P|432:128|424:200,1,100,0|4,0:0|0:0,0:0:0:0:
439,158,35785,1,4,0:0:0:0:
328,127,36229,6,0,P|368:176|360:223,1,100
328,280,36562,1,0,0:0:0:0:
328,280,36674,2,0,P|248:288|224:272,1,100
144,207,37118,1,0,0:0:0:0:
144,207,37229,1,0,0:0:0:0:
144,207,37340,2,0,P|168:143|200:136,1,100
360,183,37785,5,0,0:0:0:0:
184,256,38006,2,0,P|144:207|152:160,1,100
184,104,38339,1,0,0:0:0:0:
184,104,38451,2,0,P|264:96|288:112,1,100
368,176,38895,1,0,0:0:0:0:
368,176,39006,1,0,0:0:0:0:
368,176,39117,2,0,P|344:240|312:248,1,100
152,200,39562,5,0,0:0:0:0:
152,200,39784,2,0,P|72:239|72:279,1,100
216,128,40117,1,0,0:0:0:0:
216,128,40228,2,0,P|296:96|312:104,1,100
368,176,40673,1,0,0:0:0:0:
368,176,40784,1,0,0:0:0:0:
368,176,40895,2,0,P|344:240|312:248,1,100
152,200,41340,5,0,0:0:0:0:
368,176,41562,2,0,P|447:135|447:96,1,100
392,72,41895,1,0,0:0:0:0:
392,72,42006,2,0,P|311:104|296:96,1,100
223,222,42451,1,0,0:0:0:0:
223,222,42562,1,0,0:0:0:0:
223,222,42673,2,0,P|247:159|311:143,1,100
336,272,43118,1,0,0:0:0:0:
184,128,43340,6,0,P|144:176|152:224,1,100
208,328,43673,1,0,0:0:0:0:
208,328,43785,2,0,P|288:336|312:320,1,100
368,208,44229,1,0,0:0:0:0:
368,208,44340,1,0,0:0:0:0:
368,208,44451,2,0,P|344:144|312:136,1,100
152,184,44896,5,0,0:0:0:0:
152,184,45118,2,0,P|72:144|72:104,1,100
176,72,45451,1,0,0:0:0:0:
176,72,45562,2,0,P|256:104|272:96,1,100
368,208,46007,1,0,0:0:0:0:
368,208,46118,1,0,0:0:0:0:
368,208,46229,2,0,P|344:144|312:136,1,100
152,184,46674,5,0,0:0:0:0:
368,208,46896,2,0,P|448:248|448:288,1,100
392,312,47229,1,0,0:0:0:0:
392,312,47340,2,0,P|312:280|296:288,1,100
223,161,47785,1,0,0:0:0:0:
223,161,47896,1,0,0:0:0:0:
223,161,48007,2,0,P|247:225|311:241,1,100
400,344,48451,1,0,0:0:0:0:
272,240,48673,2,0,P|208:240|152:264,1,100
136,328,49007,5,0,0:0:0:0:
137,327,49118,2,0,P|99:294|88:246,1,100
160,136,49562,1,0,0:0:0:0:
160,136,49673,1,0,0:0:0:0:
160,136,49785,1,0,0:0:0:0:
248,264,50007,1,0,0:0:0:0:
248,264,50118,1,0,0:0:0:0:
248,264,50229,1,0,0:0:0:0:
320,136,50451,6,0,P|400:160|432:240,2,150
224,192,51562,1,0,0:0:0:0:
112,168,51785,1,0,0:0:0:0:
88,56,52007,1,0,0:0:0:0:
192,96,52229,2,0,P|280:104|296:96,1,75.0000028610231
384,88,52673,1,0,0:0:0:0:
384,88,52896,2,0,P|416:176|392:208,1,75.0000028610231
414,202,53562,5,0,0:0:0:0:
304,296,53785,1,0,0:0:0:0:
304,296,54007,2,0,P|200:304|152:264,1,150
120,216,54451,2,0,P|192:200|224:216,1,100
368,240,54896,1,0,0:0:0:0:
400,128,55118,1,0,0:0:0:0:
304,48,55340,2,0,P|224:72|200:104,1,100
104,192,55785,5,0,0:0:0:0:
284,280,56007,1,0,0:0:0:0:
228,88,56229,1,0,0:0:0:0:
284,280,56451,1,0,0:0:0:0:
356,96,56673,5,0,0:0:0:0:
152,240,56896,1,0,0:0:0:0:
400,272,57118,1,0,0:0:0:0:
232,88,57340,1,0,0:0:0:0:
344,336,57562,6,0,P|472:332|504:300,1,100
324,124,58007,1,0,0:0:0:0:
248,276,58229,1,0,0:0:0:0:
136,148,58451,2,0,P|200:52|256:44,1,100
352,48,58896,5,0,0:0:0:0:
280,200,59118,1,0,0:0:0:0:
180,60,59340,2,0,P|76:104|64:144,1,100
256,120,59785,2,0,P|368:160|388:192,1,100
256,284,60229,2,0,P|136:248|120:144,1,200
113,186,61118,5,0,0:0:0:0:
220,56,61340,1,0,0:0:0:0:
324,188,61562,2,0,P|260:280|224:288,1,100
436,328,62007,2,0,P|472:224|448:188,1,100
380,100,62451,1,0,0:0:0:0:
284,240,62673,1,0,0:0:0:0:
192,96,62896,1,0,0:0:0:0:
380,100,63118,5,0,0:0:0:0:
284,240,63340,2,0,P|180:284|132:280,1,100
107,141,63785,2,0,P|211:97|243:109,1,100
332,188,64229,1,0,0:0:0:0:
332,188,64673,6,0,P|256:256|192:256,1,100
112,176,65118,1,0,0:0:0:0:
240,64,65340,1,0,0:0:0:0:
304,224,65562,2,0,P|400:176|400:64,1,200
320,128,66229,5,0,0:0:0:0:
320,128,66451,2,0,P|256:128|208:192,1,100
136,328,66896,2,0,P|208:240|240:240,1,100
376,312,67340,2,0,P|336:216|304:208,1,100
228,147,67785,2,0,P|271:123|320:128,1,100
472,256,68229,2,0,P|360:312|272:248,1,200
104,320,68896,5,0,0:0:0:0:
104,320,69118,2,0,P|192:272|191:239,1,100
368,200,69562,2,0,P|272:160|256:128,1,100
128,32,70007,1,0,0:0:0:0:
192,240,70229,1,0,0:0:0:0:
352,88,70451,1,0,0:0:0:0:
416,296,70673,1,0,0:0:0:0:
416,296,70785,1,0,0:0:0:0:
416,296,70896,2,0,P|368:328|312:336,1,100
264,184,71340,2,0,P|368:168|392:184,1,100
168,335,71785,6,0,P|120:351|71:347,1,100
188,124,72230,1,0,0:0:0:0:
264,276,72452,1,0,0:0:0:0:
376,148,72674,2,0,P|363:99|331:62,1,100
160,47,73119,5,0,0:0:0:0:
232,200,73341,1,0,0:0:0:0:
331,60,73563,2,0,P|381:60|423:86,1,100
256,120,74008,2,0,P|206:121|161:143,1,100
256,284,74452,2,0,P|351:270|398:186,1,200
399,186,75341,5,0,0:0:0:0:
291,55,75563,1,0,0:0:0:0:
187,187,75785,2,0,P|201:235|235:271,1,100
76,328,76230,2,0,P|43:291|35:242,1,100
132,99,76674,1,0,0:0:0:0:
228,240,76896,1,0,0:0:0:0:
320,95,77119,1,0,0:0:0:0:
132,99,77341,5,0,0:0:0:0:
227,239,77563,2,0,P|269:267|316:282,1,100
405,141,78008,2,0,P|368:107|320:95,1,100
180,187,78452,1,0,0:0:0:0:
180,187,78896,6,0,P|240:288|344:280,1,200
360,200,79562,1,0,0:0:0:0:
360,200,79785,2,0,P|424:304|416:320,1,100
480,160,80229,2,0,P|368:112|336:120,1,100
224,104,80673,6,0,P|200:232|256:264,1,200
328,184,81340,1,0,0:0:0:0:
328,184,81562,2,0,P|392:272|368:304,1,100
256,344,82007,1,0,0:0:0:0:
176,192,82229,1,0,0:0:0:0:
72,328,82451,6,0,P|32:224|56:176,1,100
88,80,82896,1,0,0:0:0:0:
176,192,83118,1,0,0:0:0:0:
304,72,83340,2,0,P|320:192|352:208,1,100
392,312,83785,1,0,0:0:0:0:
456,152,84007,5,0,0:0:0:0:
240,224,84229,1,0,0:0:0:0:
448,320,84451,1,0,0:0:0:0:
368,104,84673,1,0,0:0:0:0:
248,304,84896,5,0,0:0:0:0:
136,104,85118,2,0,P|248:104|272:152,1,100
343,301,85562,2,0,P|231:293|199:245,1,100
56,176,86007,1,0,0:0:0:0:
72,144,100229,6,0,P|144:112|208:136,1,150
248,216,100673,2,0,P|296:160|296:144,1,50
144,192,100896,2,0,P|160:248|192:280,1,100
360,312,101229,1,0,0:0:0:0:
360,312,101340,2,0,P|294:321|264:301,1,100
320,240,101785,1,0,0:0:0:0:
224,144,102007,6,0,P|288:96|368:112,1,150
312,168,102451,2,0,P|360:176|392:160,1,50
424,72,102673,2,0,P|464:128|456:192,1,100
448,248,103007,1,0,0:0:0:0:
448,248,103118,2,0,P|389:277|332:273,1,100
246,252,103563,1,0,0:0:0:0:
440,240,103785,6,0,P|368:272|304:248,1,150
264,168,104229,2,0,P|216:224|216:240,1,50
368,192,104452,2,0,P|352:136|320:104,1,100
152,72,104785,1,0,0:0:0:0:
152,72,104896,2,0,P|217:62|247:82,1,100
192,144,105341,1,0,0:0:0:0:
288,240,105563,6,0,P|224:288|144:272,1,150
200,216,106007,2,0,P|152:208|120:224,1,50
88,312,106229,2,0,P|48:256|56:192,1,100
64,136,106563,1,0,0:0:0:0:
64,136,106674,2,0,P|122:106|179:110,1,100
266,132,107119,1,0,0:0:0:0:
401,140,107340,6,0,P|329:108|265:132,1,150
225,212,107784,2,0,P|177:156|177:140,1,50
329,188,108007,2,0,P|313:244|281:276,1,100
113,308,108340,1,0,0:0:0:0:
113,308,108451,2,0,P|178:317|208:297,1,100
153,236,108896,1,0,0:0:0:0:
249,140,109118,6,0,P|185:92|105:108,1,150
161,164,109562,2,0,P|113:172|81:156,1,50
49,68,109784,2,0,P|9:124|17:188,1,100
25,244,110118,1,0,0:0:0:0:
25,244,110229,2,0,P|83:273|140:269,1,100
227,248,110674,1,0,0:0:0:0:
88,296,110896,6,0,P|166:301|218:257,1,150
229,168,111340,2,0,P|293:204|298:219,1,50
140,226,111563,2,0,P|135:167|155:126,1,100
302,39,111896,1,0,0:0:0:0:
302,39,112007,2,0,P|237:52|215:81,1,100
289,120,112452,1,0,0:0:0:0:
231,244,112674,6,0,P|307:267|377:224,1,150
306,191,113118,2,0,P|348:167|383:171,1,50
444,243,113340,2,0,P|462:176|433:119,1,100
406,69,113674,1,0,0:0:0:0:
406,69,113785,2,0,P|340:60|288:84,1,100
215,135,114230,1,0,0:0:0:0:
184,257,114451,6,0,P|144:208|152:161,1,100
184,104,114784,1,0,0:0:0:0:
184,104,114896,2,0,P|264:96|288:112,1,100
368,177,115340,1,0,0:0:0:0:
368,177,115451,1,0,0:0:0:0:
368,177,115562,2,0,P|344:241|312:248,1,100
152,201,116007,5,0,0:0:0:0:
328,128,116228,2,0,P|368:177|360:224,1,100
328,280,116561,1,0,0:0:0:0:
328,280,116673,2,0,P|248:288|224:272,1,100
144,208,117117,1,0,0:0:0:0:
144,208,117228,1,0,0:0:0:0:
144,208,117339,2,0,P|168:144|200:136,1,100
360,184,117784,5,0,0:0:0:0:
360,184,118006,2,0,P|440:145|440:105,1,100
392,72,118339,1,0,0:0:0:0:
392,72,118450,2,0,P|312:104|296:96,1,100
144,208,118895,1,0,0:0:0:0:
144,208,119006,1,0,0:0:0:0:
144,208,119117,2,0,P|168:144|200:136,1,100
360,184,119562,5,0,0:0:0:0:
144,208,119784,2,0,P|65:249|65:288,1,100
120,312,120117,1,0,0:0:0:0:
120,312,120228,2,0,P|201:280|216:288,1,100
289,162,120673,1,0,0:0:0:0:
289,162,120784,1,0,0:0:0:0:
289,162,120895,2,0,P|265:225|201:241,1,100
176,112,121340,1,0,0:0:0:0:
328,256,121562,6,0,P|368:208|360:160,1,100
328,104,121895,1,0,0:0:0:0:
328,104,122007,2,0,P|248:96|224:112,1,100
144,176,122451,1,0,0:0:0:0:
144,176,122562,1,0,0:0:0:0:
144,176,122673,2,0,P|168:240|200:248,1,100
360,200,123118,5,0,0:0:0:0:
360,200,123340,6,0,P|440:240|440:280,1,100
392,312,123673,1,0,0:0:0:0:
392,312,123784,2,0,P|312:280|296:288,1,100
144,176,124229,1,0,0:0:0:0:
144,176,124340,1,0,0:0:0:0:
144,176,124451,2,0,P|168:240|200:248,1,100
360,200,124896,5,0,0:0:0:0:
144,176,125118,2,0,P|64:136|64:96,1,100
120,72,125451,1,0,0:0:0:0:
120,72,125562,2,0,P|200:104|216:96,1,100
289,223,126007,1,0,0:0:0:0:
289,223,126118,1,0,0:0:0:0:
289,223,126229,2,0,P|265:159|201:143,1,100
112,40,126673,1,0,0:0:0:0:
208,240,126896,6,0,P|128:200|128:160,1,100
176,128,127229,1,0,0:0:0:0:
176,128,127340,2,0,P|256:160|272:152,1,100
424,264,127785,1,0,0:0:0:0:
424,264,127896,1,0,0:0:0:0:
424,264,128007,1,0,0:0:0:0:
296,336,128229,1,0,0:0:0:0:
248,344,128340,1,0,0:0:0:0:
200,336,128451,1,0,0:0:0:0:
160,312,128562,1,0,0:0:0:0:
128,280,128673,6,0,P|112:208|168:136,1,150.000005722046
208,48,129340,2,0,P|264:112|256:136,1,75.0000028610231
285,203,129785,1,0,0:0:0:0:
399,221,130008,1,0,0:0:0:0:
461,125,130230,1,0,0:0:0:0:
350,125,130452,2,0,P|265:101|253:88,1,75.0000028610231
173,49,130896,1,0,0:0:0:0:
173,49,131119,2,0,P|112:119|123:158,1,75.0000028610231
104,144,131785,5,0,0:0:0:0:
173,271,132008,1,0,0:0:0:0:
173,271,132230,2,0,P|268:316|327:296,1,150
374,263,132674,2,0,P|312:222|277:225,1,100
134,196,133119,1,0,0:0:0:0:
144,80,133341,5,0,0:0:0:0:
262,40,133563,2,0,P|328:91|339:129,1,100
300,329,134007,5,0,0:0:0:0:
139,106,134229,1,0,0:0:0:0:
400,192,134451,1,0,0:0:0:0:
139,277,134673,1,0,0:0:0:0:
300,54,134895,1,0,0:0:0:0:
306,347,135118,1,0,0:0:0:0:
124,96,135340,1,0,0:0:0:0:
419,192,135562,1,0,0:0:0:0:
168,336,135785,6,0,P|40:332|8:300,1,100
188,124,136230,1,0,0:0:0:0:
264,276,136452,1,0,0:0:0:0:
376,148,136674,2,0,P|312:52|256:44,1,100
160,48,137119,5,0,0:0:0:0:
232,200,137341,1,0,0:0:0:0:
332,60,137563,2,0,P|436:104|448:144,1,100
256,120,138008,2,0,P|144:160|124:192,1,100
256,284,138452,2,0,P|376:248|392:144,1,200
399,186,139341,5,0,0:0:0:0:
292,56,139563,1,0,0:0:0:0:
188,188,139785,2,0,P|252:280|288:288,1,100
76,328,140230,2,0,P|40:224|64:188,1,100
132,100,140674,1,0,0:0:0:0:
228,240,140896,1,0,0:0:0:0:
320,96,141119,1,0,0:0:0:0:
132,100,141341,5,0,0:0:0:0:
228,240,141563,2,0,P|332:284|380:280,1,100
405,141,142008,2,0,P|301:97|269:109,1,100
180,188,142452,1,0,0:0:0:0:
180,188,142896,6,0,P|256:256|320:256,1,100
400,176,143341,1,0,0:0:0:0:
272,64,143563,1,0,0:0:0:0:
208,224,143785,2,0,P|112:176|112:64,1,200
192,128,144452,5,0,0:0:0:0:
192,128,144674,2,0,P|256:128|304:192,1,100
376,328,145119,2,0,P|304:240|272:240,1,100
136,312,145563,2,0,P|176:216|208:208,1,100
284,147,146008,2,0,P|241:123|192:128,1,100
40,256,146452,2,0,P|152:312|240:248,1,200
408,320,147119,5,0,0:0:0:0:
408,320,147341,2,0,P|320:272|320:239,1,100
144,200,147785,2,0,P|240:160|256:128,1,100
384,32,148230,1,0,0:0:0:0:
320,240,148452,1,0,0:0:0:0:
160,88,148674,1,0,0:0:0:0:
96,296,148896,1,0,0:0:0:0:
96,296,149008,1,0,0:0:0:0:
96,296,149119,2,0,P|144:328|200:336,1,100
248,184,149563,2,0,P|144:168|120:184,1,100
344,335,150008,6,0,P|392:351|441:347,1,100
324,124,150453,1,0,0:0:0:0:
248,276,150675,1,0,0:0:0:0:
136,148,150897,2,0,P|149:99|181:62,1,100
352,47,151342,5,0,0:0:0:0:
280,200,151564,1,0,0:0:0:0:
181,60,151786,2,0,P|131:60|89:86,1,100
256,120,152231,2,0,P|306:121|351:143,1,100
256,284,152675,2,0,P|161:270|114:186,1,200
113,186,153564,5,0,0:0:0:0:
221,55,153786,1,0,0:0:0:0:
325,187,154008,2,0,P|311:235|277:271,1,100
436,328,154453,2,0,P|469:291|477:242,1,100
380,99,154897,1,0,0:0:0:0:
284,240,155119,1,0,0:0:0:0:
192,95,155342,1,0,0:0:0:0:
380,99,155564,5,0,0:0:0:0:
285,239,155786,2,0,P|243:267|196:282,1,100
107,141,156231,2,0,P|144:107|192:95,1,100
332,187,156675,1,0,0:0:0:0:
332,187,157119,2,0,P|272:288|168:280,1,200
152,200,157785,1,0,0:0:0:0:
152,200,158008,2,0,P|88:304|96:320,1,100
32,160,158452,2,0,P|144:112|176:120,1,100
288,104,158896,6,0,P|312:232|256:264,1,200
184,184,159563,1,0,0:0:0:0:
184,184,159785,2,0,P|120:272|144:304,1,100
256,344,160230,1,0,0:0:0:0:
336,192,160452,1,0,0:0:0:0:
440,328,160674,6,0,P|480:224|456:176,1,100
424,80,161119,1,0,0:0:0:0:
336,192,161341,1,0,0:0:0:0:
208,72,161563,2,0,P|192:192|160:208,1,100
120,312,162008,1,0,0:0:0:0:
56,152,162230,5,0,0:0:0:0:
272,224,162452,1,0,0:0:0:0:
64,320,162674,1,0,0:0:0:0:
144,104,162896,1,0,0:0:0:0:
264,304,163119,5,0,0:0:0:0:
376,104,163341,2,0,P|264:104|240:152,1,100
169,301,163785,2,0,P|281:293|313:245,1,100
392,216,164229,1,0,0:0:0:0:
424,184,164340,1,0,0:0:0:0:
440,144,164451,1,0,0:0:0:0:
448,96,164562,1,0,0:0:0:0:
440,48,164673,1,0,0:0:0:0:
320,112,164896,5,0,0:0:0:0:
320,112,165007,5,0,0:0:0:0:
320,112,165118,6,0,P|216:120|200:96,1,100
80,160,165562,1,0,0:0:0:0:
104,192,165673,1,0,0:0:0:0:
136,216,165785,1,0,0:0:0:0:
176,232,165896,1,0,0:0:0:0:
216,240,166007,1,0,0:0:0:0:
328,144,166229,1,0,0:0:0:0:
344,176,166340,1,0,0:0:0:0:
360,216,166451,2,0,P|352:272|312:320,1,100
136,232,166896,6,0,P|216:240|240:256,1,100
376,368,167340,2,0,P|456:224|440:192,1,200
352,144,168007,1,0,0:0:0:0:
320,168,168118,1,0,0:0:0:0:
280,176,168229,2,0,P|176:136|168:112,1,100
96,256,168673,5,0,0:0:0:0:
224,304,168896,1,0,0:0:0:0:
264,312,169007,1,0,0:0:0:0:
304,304,169118,2,0,P|384:248|400:224,1,100
328,96,169562,5,0,0:0:0:0:
192,240,169785,1,0,0:0:0:0:
384,304,170007,1,0,0:0:0:0:
216,120,170229,1,0,0:0:0:0:
304,352,170451,1,0,0:0:0:0:
456,152,170673,1,0,0:0:0:0:
232,48,170896,1,0,0:0:0:0:
184,48,171007,1,0,0:0:0:0:
144,64,171118,1,0,0:0:0:0:
96,224,171340,6,0,P|184:184|224:192,1,100
382,316,171785,2,0,P|461:222|447:132,1,200
352,208,172451,1,0,0:0:0:0:
352,208,172673,2,0,P|272:232|232:224,1,100
144,120,173118,2,0,P|80:176|120:288,1,200
105,277,174007,2,0,P|208:264|224:280,1,100
400,216,174451,2,0,P|304:168|280:168,1,100
64,104,174896,6,0,P|152:48|248:48,1,200
392,176,175562,1,0,0:0:0:0:
392,176,175673,1,0,0:0:0:0:
392,176,175785,2,0,P|320:208|280:200,1,100
144,160,176229,1,0,0:0:0:0:
232,288,176451,1,0,0:0:0:0:
264,312,176562,1,0,0:0:0:0:
304,320,176673,2,0,P|376:304|400:288,1,100
344,176,177118,5,0,0:0:0:0:
256,296,177340,1,0,0:0:0:0:
216,320,177451,1,0,0:0:0:0:
168,328,177562,2,0,P|88:296|72:272,1,100
232,104,178007,2,0,P|200:192|168:208,1,100
64,272,178451,5,0,0:0:0:0:
256,224,178673,1,0,0:0:0:0:
56,184,178896,1,0,0:0:0:0:
248,136,179118,1,0,0:0:0:0:
56,88,179340,1,0,0:0:0:0:
248,40,179562,1,0,0:0:0:0:
56,184,179785,2,0,P|112:224|152:224,1,100
248,40,180229,5,0,0:0:0:0:
199,262,180451,1,0,0:0:0:0:
342,75,180674,1,0,0:0:0:0:
295,298,180896,1,0,0:0:0:0:
441,124,181118,1,0,0:0:0:0:
394,347,181340,1,0,0:0:0:0:
346,71,181563,2,0,P|264:80|216:120,1,100
104,224,182007,6,0,P|176:280|272:248,1,200
200,144,182673,1,0,0:0:0:0:
200,144,182896,2,0,P|248:96|312:96,1,100
368,296,183340,2,0,P|352:232|312:208,1,100
176,104,183785,1,0,0:0:0:0:
256,320,184007,1,0,0:0:0:0:
424,168,184229,5,0,0:0:0:0:
152,192,184451,1,0,0:0:0:0:
376,40,184673,2,0,P|416:136|392:192,1,100
248,96,185118,1,0,0:0:0:0:
208,72,185229,1,0,0:0:0:0:
168,64,185340,1,0,0:0:0:0:
120,64,185451,1,0,0:0:0:0:
80,72,185562,2,0,P|32:144|56:192,1,100
88,320,186007,2,0,P|160:344|272:280,1,200
352,168,186673,5,0,0:0:0:0:
352,168,186896,2,0,P|280:144|232:160,1,100
192,296,187340,2,0,P|264:272|296:224,1,100
368,88,187785,2,0,P|296:64|240:72,1,100
64,256,188229,2,0,P|112:160|144:152,1,100
448,256,188673,2,0,P|400:160|368:152,1,100
256,72,189118,1,0,0:0:0:0:
256,192,189229,12,0,190451,0:0:0:0:
256,192,190896,12,0,192673,0:0:0:0:
256,208,199562,5,0,0:0:0:0:
256,208,199785,2,0,P|216:240|96:208,1,150
176,168,200451,2,0,P|200:120|240:96,1,75.0000028610231
320,48,200896,5,0,0:0:0:0:
384,144,201118,1,0,0:0:0:0:
384,264,201340,1,0,0:0:0:0:
288,336,201562,2,0,P|160:320|136:288,1,150.000005722046
232,256,202229,1,0,0:0:0:0:
256,196,203118,5,0,0:0:0:0:
256,196,203340,2,0,P|215:163|183:156,1,75.0000028610231
183,235,203673,2,0,P|127:267|103:259,1,75.0000028610231
255,276,204007,2,0,P|327:268|351:252,1,75.0000028610231
279,204,204451,5,0,0:0:0:0:
335,139,204673,1,0,0:0:0:0:
368,232,204896,6,0,P|296:200|272:208,1,100
160,280,205340,5,0,0:0:0:0:
240,120,205562,1,0,0:0:0:0:
360,256,205785,1,0,0:0:0:0:
176,184,206007,1,0,0:0:0:0:
368,80,206229,1,0,0:0:0:0:
384,320,206451,1,0,0:0:0:0:
96,136,206673,2,0,P|176:96|208:96,1,100,0|4,0:0|0:0,0:0:0:0:
200,112,208673,5,0,0:0:0:0:
168,136,208785,1,0,0:0:0:0:
144,168,208896,2,0,P|144:248|176:272,1,100,4|0,0:0|0:0,0:0:0:0:
304,216,209229,2,0,P|325:278|304:320,1,100,4|0,0:0|0:0,0:0:0:0:
224,184,209562,2,0,P|264:136|320:128,1,100,4|0,0:0|0:0,0:0:0:0:
288,48,209896,2,0,P|208:80|176:112,1,100,4|0,0:0|0:0,0:0:0:0:
112,232,210229,5,0,0:0:0:0:
112,272,210340,1,0,0:0:0:0:
128,304,210451,2,0,P|192:352|240:360,1,100,4|0,0:0|0:0,0:0:0:0:
368,264,210896,1,0,0:0:0:0:
192,232,211118,1,0,0:0:0:0:
360,168,211340,6,0,P|312:120|256:112,1,100
104,136,211785,1,0,0:0:0:0:
192,328,212007,1,0,0:0:0:0:
360,160,212229,2,0,P|408:112|408:40,1,100
152,224,212673,2,0,P|104:272|104:344,1,100
336,80,213118,2,0,B|256:48|256:48|184:88|120:64,1,200,0|4,0:0|0:0,0:0:0:0:
112,208,214007,5,0,0:0:0:0:
312,144,214229,1,0,0:0:0:0:
272,352,214451,2,0,P|192:328|176:296,1,100
64,152,214896,1,0,0:0:0:0:
264,88,215118,1,0,0:0:0:0:
224,296,215340,1,0,0:0:0:0:
368,144,215562,5,0,0:0:0:0:
360,352,215785,1,0,0:0:0:0:
480,176,216007,1,0,0:0:0:0:
224,296,216229,2,0,P|128:280|96:248,1,100
264,88,216674,2,0,P|344:112|368:152,1,100
416,320,217118,1,0,0:0:0:0:
264,176,217340,1,0,0:0:0:0:
416,320,217562,6,0,P|464:248|400:128,1,200
352,232,218229,1,0,0:0:0:0:
304,72,218451,1,0,0:0:0:0:
192,264,218673,1,0,0:0:0:0:
72,64,218896,1,0,0:0:0:0:
192,264,219118,1,0,0:0:0:0:
304,72,219340,2,0,P|384:72|424:120,1,100
341,181,219785,2,0,P|317:237|165:245,1,200
336,184,220673,6,0,P|304:120|240:96,1,100
104,56,221118,1,0,0:0:0:0:
168,256,221340,1,0,0:0:0:0:
280,80,221562,1,0,0:0:0:0:
368,304,221785,1,0,0:0:0:0:
192,144,222007,1,0,0:0:0:0:
432,152,222229,1,0,0:0:0:0:
248,312,222451,2,0,P|168:328|120:304,1,100
264,72,222896,2,0,P|344:56|392:80,1,100
456,280,223340,5,0,0:0:0:0:
352,64,223562,1,0,0:0:0:0:
200,248,223785,1,0,0:0:0:0:
424,160,224007,1,0,0:0:0:0:
200,72,224229,2,0,P|112:112|96:136,1,100
200,248,224673,6,0,P|280:208|320:208,1,100
456,240,225118,1,0,0:0:0:0:
352,88,225340,1,0,0:0:0:0:
456,240,225562,1,0,0:0:0:0:
232,328,225785,1,0,0:0:0:0:
456,240,226007,1,0,0:0:0:0:
248,120,226229,1,0,0:0:0:0:
456,240,226451,6,0,P|416:304|352:312,1,100
160,360,226896,1,0,0:0:0:0:
336,200,227118,1,0,0:0:0:0:
104,256,227340,2,0,P|64:160|80:128,1,100
304,128,227785,6,0,P|272:64|224:32,1,100
256,288,228229,2,0,P|392:280|440:216,1,200
328,208,228896,1,0,0:0:0:0:
328,208,229118,2,0,P|272:120|248:112,1,100
144,184,229562,2,0,P|208:208|256:192,1,100
408,104,230007,6,0,P|432:160|432:232,1,100
344,328,230451,1,0,0:0:0:0:
280,184,230673,1,0,0:0:0:0:
440,192,230896,1,0,0:0:0:0:
304,40,231118,1,0,0:0:0:0:
384,272,231340,1,0,0:0:0:0:
192,144,231562,1,0,0:0:0:0:
456,96,231785,2,0,B|440:192|440:192|384:224|376:296,1,200
264,272,232451,5,0,2:0:0:0:
360,128,232673,1,0,0:0:0:0:
192,128,232896,1,0,0:0:0:0:
199,301,233118,5,0,2:0:0:0:
400,216,233340,1,0,0:0:0:0:
264,40,233563,1,0,0:0:0:0:
144,240,233785,1,0,0:0:0:0:
328,120,234007,1,0,0:0:0:0:
208,320,234229,5,0,0:0:0:0:
424,264,234451,1,0,0:0:0:0:
216,184,234673,1,0,0:0:0:0:
432,128,234896,1,0,0:0:0:0:
432,128,235340,5,0,0:0:0:0:
