osu file format v14

[General]
AudioFilename: audio1.3.mp3
AudioLeadIn: 0
PreviewTime: 159064
Countdown: 0
SampleSet: None
StackLeniency: 0.7
Mode: 0
LetterboxInBreaks: 1
WidescreenStoryboard: 0

[Editor]
DistanceSpacing: 1.7
BeatDivisor: 4
GridSize: 8
TimelineZoom: 1

[Metadata]
Title:Leila
TitleUnicode:レイラ
Artist:Silent Siren
ArtistUnicode:Silent Siren
Creator:october
Version:1.3x
Source:
Tags:
BeatmapID:1476157
BeatmapSetID:695151

[Difficulty]
HPDrainRate:6
CircleSize:4
OverallDifficulty:9
ApproachRate:9.6
SliderMultiplier:2
SliderTickRate:1

[Events]
//Background and Video events
0,0,"bg.jpg",0,0
//Break Periods
2,66359,76470
2,148410,152880
//Storyboard Layer 0 (Background)
//Storyboard Layer 1 (Fail)
//Storyboard Layer 2 (Pass)
//Storyboard Layer 3 (Foreground)
//Storyboard Sound Samples

[TimingPoints]
518,341.8803,4,3,0,90,1,0
25646,-133.3333,4,3,0,90,0,0
26159,-100,4,3,0,90,0,0
38808,-133.3333,4,3,0,90,0,0
41543,-100,4,3,0,90,0,0
44278,-100,4,3,0,90,0,1
66159,-100,4,3,0,90,0,0
98979,-133.3333,4,3,0,90,0,0
101714,-100,4,3,0,90,0,0
104450,-100,4,3,0,90,0,1
126330,-100,4,3,0,90,0,0
154193,-133.3333,4,3,0,90,0,0
157612,-100,4,3,0,90,0,0
161885,-100,4,3,0,90,0,1
181030,-100,4,3,0,90,0,0

[HitObjects]
104,80,16928,5,0,0:0:0:0:
104,80,17184,1,0,0:0:0:0:
104,80,17440,2,0,P|208:64|280:128,1,200
176,192,17953,5,0,0:0:0:0:
176,192,18124,1,0,0:0:0:0:
176,192,18296,2,0,P|224:224|288:224,1,100
248,144,18552,2,0,P|320:120|376:144,1,100
360,232,18808,2,0,P|448:200|448:96,1,200
384,152,19321,6,0,P|312:104|280:96,1,100
72,136,19663,2,0,P|104:80|200:64,1,150
184,176,20176,2,0,P|248:224|360:184,1,200
272,136,20689,1,0,0:0:0:0:
272,136,20860,1,0,0:0:0:0:
272,136,21030,2,0,P|288:88|344:56,1,100
224,224,21286,2,0,P|208:176|152:144,1,100
288,312,21543,2,0,P|304:264|360:232,1,100
342,235,22056,6,0,P|296:168|216:152,1,150
216,152,22398,1,0,0:0:0:0:
216,152,22654,1,0,0:0:0:0:
216,152,22911,2,0,P|144:128|120:96,1,100
296,80,23253,5,0,0:0:0:0:
296,80,23423,2,0,P|208:72|168:104,1,100
248,144,23766,5,0,0:0:0:0:
248,144,24022,1,0,0:0:0:0:
248,144,24278,2,0,P|288:192|360:200,1,100
328,128,24620,5,0,0:0:0:0:
328,128,24791,2,0,P|376:88|424:88,1,100
264,80,25133,1,0,0:0:0:0:
264,80,25390,1,0,0:0:0:0:
264,80,25646,2,0,P|160:64|128:88,1,150
200,136,26159,1,0,0:0:0:0:
216,168,26244,1,0,0:0:0:0:
240,200,26330,1,0,0:0:0:0:
272,224,26415,1,0,0:0:0:0:
304,240,26500,2,0,P|392:240|432:208,1,100
344,168,26757,6,0,P|304:120|312:56,1,100
376,96,27013,2,0,P|432:128|424:200,1,100
439,158,27526,1,4,0:0:0:0:
328,127,27868,6,0,P|368:176|360:223,1,100
328,280,28124,1,0,0:0:0:0:
328,280,28210,2,0,P|248:288|224:272,1,100
144,207,28552,1,0,0:0:0:0:
144,207,28637,1,0,0:0:0:0:
144,207,28723,2,0,P|168:143|200:136,1,100
360,183,29065,5,0,0:0:0:0:
184,256,29235,2,0,P|144:207|152:160,1,100
184,104,29491,1,0,0:0:0:0:
184,104,29577,2,0,P|264:96|288:112,1,100
368,176,29919,1,0,0:0:0:0:
368,176,30004,1,0,0:0:0:0:
368,176,30090,2,0,P|344:240|312:248,1,100
152,200,30432,5,0,0:0:0:0:
152,200,30603,2,0,P|72:239|72:279,1,100
216,128,30859,1,0,0:0:0:0:
216,128,30944,2,0,P|296:96|312:104,1,100
368,176,31286,1,0,0:0:0:0:
368,176,31372,1,0,0:0:0:0:
368,176,31457,2,0,P|344:240|312:248,1,100
152,200,31800,5,0,0:0:0:0:
368,176,31970,2,0,P|447:135|447:96,1,100
392,72,32226,1,0,0:0:0:0:
392,72,32312,2,0,P|311:104|296:96,1,100
223,222,32654,1,0,0:0:0:0:
223,222,32740,1,0,0:0:0:0:
223,222,32825,2,0,P|247:159|311:143,1,100
336,272,33167,1,0,0:0:0:0:
184,128,33338,6,0,P|144:176|152:224,1,100
208,328,33594,1,0,0:0:0:0:
208,328,33680,2,0,P|288:336|312:320,1,100
368,208,34022,1,0,0:0:0:0:
368,208,34107,1,0,0:0:0:0:
368,208,34193,2,0,P|344:144|312:136,1,100
152,184,34535,5,0,0:0:0:0:
152,184,34706,2,0,P|72:144|72:104,1,100
176,72,34962,1,0,0:0:0:0:
176,72,35047,2,0,P|256:104|272:96,1,100
368,208,35390,1,0,0:0:0:0:
368,208,35475,1,0,0:0:0:0:
368,208,35560,2,0,P|344:144|312:136,1,100
152,184,35903,5,0,0:0:0:0:
368,208,36073,2,0,P|448:248|448:288,1,100
392,312,36330,1,0,0:0:0:0:
392,312,36415,2,0,P|312:280|296:288,1,100
223,161,36757,1,0,0:0:0:0:
223,161,36843,1,0,0:0:0:0:
223,161,36928,2,0,P|247:225|311:241,1,100
400,344,37270,1,0,0:0:0:0:
272,240,37440,2,0,P|208:240|152:264,1,100
136,328,37697,5,0,0:0:0:0:
137,327,37783,2,0,P|99:294|88:246,1,100
160,136,38124,1,0,0:0:0:0:
160,136,38210,1,0,0:0:0:0:
160,136,38296,1,0,0:0:0:0:
248,264,38466,1,0,0:0:0:0:
248,264,38552,1,0,0:0:0:0:
248,264,38637,1,0,0:0:0:0:
320,136,38808,6,0,P|400:160|432:240,2,150
224,192,39663,1,0,0:0:0:0:
112,168,39834,1,0,0:0:0:0:
88,56,40005,1,0,0:0:0:0:
192,96,40176,2,0,P|280:104|296:96,1,75
384,88,40517,1,0,0:0:0:0:
384,88,40689,2,0,P|416:176|392:208,1,75
414,202,41201,5,0,0:0:0:0:
304,296,41373,1,0,0:0:0:0:
304,296,41543,2,0,P|200:304|152:264,1,150
120,216,41885,2,0,P|192:200|224:216,1,100
368,240,42227,1,0,0:0:0:0:
400,128,42398,1,0,0:0:0:0:
304,48,42569,2,0,P|224:72|200:104,1,100
104,192,42911,5,0,0:0:0:0:
284,280,43082,1,0,0:0:0:0:
228,88,43253,1,0,0:0:0:0:
284,280,43423,1,0,0:0:0:0:
356,96,43594,5,0,0:0:0:0:
152,240,43766,1,0,0:0:0:0:
400,272,43936,1,0,0:0:0:0:
232,88,44107,1,0,0:0:0:0:
344,336,44278,6,0,P|472:332|504:300,1,100
324,124,44620,1,0,0:0:0:0:
248,276,44791,1,0,0:0:0:0:
136,148,44962,2,0,P|200:52|256:44,1,100
352,48,45304,5,0,0:0:0:0:
280,200,45475,1,0,0:0:0:0:
180,60,45646,2,0,P|76:104|64:144,1,100
256,120,45988,2,0,P|368:160|388:192,1,100
256,284,46330,2,0,P|136:248|120:144,1,200
113,186,47013,5,0,0:0:0:0:
220,56,47184,1,0,0:0:0:0:
324,188,47355,2,0,P|260:280|224:288,1,100
436,328,47697,2,0,P|472:224|448:188,1,100
380,100,48039,1,0,0:0:0:0:
284,240,48210,1,0,0:0:0:0:
192,96,48381,1,0,0:0:0:0:
380,100,48552,5,0,0:0:0:0:
284,240,48723,2,0,P|180:284|132:280,1,100
107,141,49065,2,0,P|211:97|243:109,1,100
332,188,49406,1,0,0:0:0:0:
332,188,49748,6,0,P|256:256|192:256,1,100
112,176,50090,1,0,0:0:0:0:
240,64,50261,1,0,0:0:0:0:
304,224,50432,2,0,P|400:176|400:64,1,200
320,128,50945,5,0,0:0:0:0:
320,128,51116,2,0,P|256:128|208:192,1,100
136,328,51458,2,0,P|208:240|240:240,1,100
376,312,51800,2,0,P|336:216|304:208,1,100
228,147,52142,2,0,P|271:123|320:128,1,100
472,256,52483,2,0,P|360:312|272:248,1,200
104,320,52996,5,0,0:0:0:0:
104,320,53167,2,0,P|192:272|191:239,1,100
368,200,53509,2,0,P|272:160|256:128,1,100
128,32,53851,1,0,0:0:0:0:
192,240,54022,1,0,0:0:0:0:
352,88,54193,1,0,0:0:0:0:
416,296,54363,1,0,0:0:0:0:
416,296,54450,1,0,0:0:0:0:
416,296,54535,2,0,P|368:328|312:336,1,100
264,184,54876,2,0,P|368:168|392:184,1,100
168,335,55219,6,0,P|120:351|71:347,1,100
188,124,55561,1,0,0:0:0:0:
264,276,55732,1,0,0:0:0:0:
376,148,55903,2,0,P|363:99|331:62,1,100
160,47,56245,5,0,0:0:0:0:
232,200,56416,1,0,0:0:0:0:
331,60,56586,2,0,P|381:60|423:86,1,100
256,120,56929,2,0,P|206:121|161:143,1,100
256,284,57270,2,0,P|351:270|398:186,1,200
399,186,57954,5,0,0:0:0:0:
291,55,58125,1,0,0:0:0:0:
187,187,58296,2,0,P|201:235|235:271,1,100
76,328,58638,2,0,P|43:291|35:242,1,100
132,99,58980,1,0,0:0:0:0:
228,240,59150,1,0,0:0:0:0:
320,95,59322,1,0,0:0:0:0:
132,99,59493,5,0,0:0:0:0:
227,239,59663,2,0,P|269:267|316:282,1,100
405,141,60006,2,0,P|368:107|320:95,1,100
180,187,60347,1,0,0:0:0:0:
180,187,60689,6,0,P|240:288|344:280,1,200
360,200,61201,1,0,0:0:0:0:
360,200,61373,2,0,P|424:304|416:320,1,100
480,160,61714,2,0,P|368:112|336:120,1,100
224,104,62056,6,0,P|200:232|256:264,1,200
328,184,62569,1,0,0:0:0:0:
328,184,62740,2,0,P|392:272|368:304,1,100
256,344,63082,1,0,0:0:0:0:
176,192,63253,1,0,0:0:0:0:
72,328,63423,6,0,P|32:224|56:176,1,100
88,80,63766,1,0,0:0:0:0:
176,192,63936,1,0,0:0:0:0:
304,72,64107,2,0,P|320:192|352:208,1,100
392,312,64450,1,0,0:0:0:0:
456,152,64620,5,0,0:0:0:0:
240,224,64791,1,0,0:0:0:0:
448,320,64962,1,0,0:0:0:0:
368,104,65133,1,0,0:0:0:0:
248,304,65304,5,0,0:0:0:0:
136,104,65475,2,0,P|248:104|272:152,1,100
343,301,65816,2,0,P|231:293|199:245,1,100
56,176,66159,1,0,0:0:0:0:
72,144,77099,6,0,P|144:112|208:136,1,150
248,216,77440,2,0,P|296:160|296:144,1,50
144,192,77612,2,0,P|160:248|192:280,1,100
360,312,77868,1,0,0:0:0:0:
360,312,77953,2,0,P|294:321|264:301,1,100
320,240,78296,1,0,0:0:0:0:
224,144,78466,6,0,P|288:96|368:112,1,150
312,168,78808,2,0,P|360:176|392:160,1,50
424,72,78979,2,0,P|464:128|456:192,1,100
448,248,79236,1,0,0:0:0:0:
448,248,79321,2,0,P|389:277|332:273,1,100
246,252,79663,1,0,0:0:0:0:
440,240,79834,6,0,P|368:272|304:248,1,150
264,168,80176,2,0,P|216:224|216:240,1,50
368,192,80347,2,0,P|352:136|320:104,1,100
152,72,80603,1,0,0:0:0:0:
152,72,80689,2,0,P|217:62|247:82,1,100
192,144,81031,1,0,0:0:0:0:
288,240,81202,6,0,P|224:288|144:272,1,150
200,216,81543,2,0,P|152:208|120:224,1,50
88,312,81714,2,0,P|48:256|56:192,1,100
64,136,81971,1,0,0:0:0:0:
64,136,82056,2,0,P|122:106|179:110,1,100
266,132,82399,1,0,0:0:0:0:
401,140,82569,6,0,P|329:108|265:132,1,150
225,212,82910,2,0,P|177:156|177:140,1,50
329,188,83082,2,0,P|313:244|281:276,1,100
113,308,83338,1,0,0:0:0:0:
113,308,83423,2,0,P|178:317|208:297,1,100
153,236,83766,1,0,0:0:0:0:
249,140,83936,6,0,P|185:92|105:108,1,150
161,164,84278,2,0,P|113:172|81:156,1,50
49,68,84449,2,0,P|9:124|17:188,1,100
25,244,84706,1,0,0:0:0:0:
25,244,84791,2,0,P|83:273|140:269,1,100
227,248,85133,1,0,0:0:0:0:
88,296,85304,6,0,P|166:301|218:257,1,150
229,168,85646,2,0,P|293:204|298:219,1,50
140,226,85817,2,0,P|135:167|155:126,1,100
302,39,86073,1,0,0:0:0:0:
302,39,86159,2,0,P|237:52|215:81,1,100
289,120,86501,1,0,0:0:0:0:
231,244,86672,6,0,P|307:267|377:224,1,150
306,191,87013,2,0,P|348:167|383:171,1,50
444,243,87184,2,0,P|462:176|433:119,1,100
406,69,87441,1,0,0:0:0:0:
406,69,87526,2,0,P|340:60|288:84,1,100
215,135,87869,1,0,0:0:0:0:
184,257,88039,6,0,P|144:208|152:161,1,100
184,104,88295,1,0,0:0:0:0:
184,104,88381,2,0,P|264:96|288:112,1,100
368,177,88723,1,0,0:0:0:0:
368,177,88808,1,0,0:0:0:0:
368,177,88893,2,0,P|344:241|312:248,1,100
152,201,89236,5,0,0:0:0:0:
328,128,89406,2,0,P|368:177|360:224,1,100
328,280,89662,1,0,0:0:0:0:
328,280,89748,2,0,P|248:288|224:272,1,100
144,208,90090,1,0,0:0:0:0:
144,208,90175,1,0,0:0:0:0:
144,208,90260,2,0,P|168:144|200:136,1,100
360,184,90603,5,0,0:0:0:0:
360,184,90773,2,0,P|440:145|440:105,1,100
392,72,91030,1,0,0:0:0:0:
392,72,91115,2,0,P|312:104|296:96,1,100
144,208,91457,1,0,0:0:0:0:
144,208,91543,1,0,0:0:0:0:
144,208,91628,2,0,P|168:144|200:136,1,100
360,184,91970,5,0,0:0:0:0:
144,208,92141,2,0,P|65:249|65:288,1,100
120,312,92397,1,0,0:0:0:0:
120,312,92483,2,0,P|201:280|216:288,1,100
289,162,92825,1,0,0:0:0:0:
289,162,92910,1,0,0:0:0:0:
289,162,92996,2,0,P|265:225|201:241,1,100
176,112,93338,1,0,0:0:0:0:
328,256,93509,6,0,P|368:208|360:160,1,100
328,104,93765,1,0,0:0:0:0:
328,104,93851,2,0,P|248:96|224:112,1,100
144,176,94193,1,0,0:0:0:0:
144,176,94278,1,0,0:0:0:0:
144,176,94363,2,0,P|168:240|200:248,1,100
360,200,94706,5,0,0:0:0:0:
360,200,94876,6,0,P|440:240|440:280,1,100
392,312,95133,1,0,0:0:0:0:
392,312,95218,2,0,P|312:280|296:288,1,100
144,176,95560,1,0,0:0:0:0:
144,176,95646,1,0,0:0:0:0:
144,176,95731,2,0,P|168:240|200:248,1,100
360,200,96073,5,0,0:0:0:0:
144,176,96244,2,0,P|64:136|64:96,1,100
120,72,96500,1,0,0:0:0:0:
120,72,96586,2,0,P|200:104|216:96,1,100
289,223,96928,1,0,0:0:0:0:
289,223,97013,1,0,0:0:0:0:
289,223,97099,2,0,P|265:159|201:143,1,100
112,40,97440,1,0,0:0:0:0:
208,240,97612,6,0,P|128:200|128:160,1,100
176,128,97868,1,0,0:0:0:0:
176,128,97953,2,0,P|256:160|272:152,1,100
424,264,98296,1,0,0:0:0:0:
424,264,98381,1,0,0:0:0:0:
424,264,98466,1,0,0:0:0:0:
296,336,98637,1,0,0:0:0:0:
248,344,98723,1,0,0:0:0:0:
200,336,98808,1,0,0:0:0:0:
160,312,98893,1,0,0:0:0:0:
128,280,98979,6,0,P|112:208|168:136,1,150
208,48,99492,2,0,P|264:112|256:136,1,75
285,203,99834,1,0,0:0:0:0:
399,221,100006,1,0,0:0:0:0:
461,125,100176,1,0,0:0:0:0:
350,125,100347,2,0,P|265:101|253:88,1,75
173,49,100689,1,0,0:0:0:0:
173,49,100860,2,0,P|112:119|123:158,1,75
104,144,101373,5,0,0:0:0:0:
173,271,101544,1,0,0:0:0:0:
173,271,101715,2,0,P|268:316|327:296,1,150
374,263,102056,2,0,P|312:222|277:225,1,100
134,196,102399,1,0,0:0:0:0:
144,80,102570,5,0,0:0:0:0:
262,40,102740,2,0,P|328:91|339:129,1,100
300,329,103082,5,0,0:0:0:0:
139,106,103253,1,0,0:0:0:0:
400,192,103423,1,0,0:0:0:0:
139,277,103594,1,0,0:0:0:0:
300,54,103765,1,0,0:0:0:0:
306,347,103936,1,0,0:0:0:0:
124,96,104107,1,0,0:0:0:0:
419,192,104278,1,0,0:0:0:0:
168,336,104450,6,0,P|40:332|8:300,1,100
188,124,104792,1,0,0:0:0:0:
264,276,104963,1,0,0:0:0:0:
376,148,105133,2,0,P|312:52|256:44,1,100
160,48,105476,5,0,0:0:0:0:
232,200,105646,1,0,0:0:0:0:
332,60,105817,2,0,P|436:104|448:144,1,100
256,120,106160,2,0,P|144:160|124:192,1,100
256,284,106501,2,0,P|376:248|392:144,1,200
399,186,107185,5,0,0:0:0:0:
292,56,107356,1,0,0:0:0:0:
188,188,107526,2,0,P|252:280|288:288,1,100
76,328,107869,2,0,P|40:224|64:188,1,100
132,100,108210,1,0,0:0:0:0:
228,240,108381,1,0,0:0:0:0:
320,96,108553,1,0,0:0:0:0:
132,100,108723,5,0,0:0:0:0:
228,240,108894,2,0,P|332:284|380:280,1,100
405,141,109236,2,0,P|301:97|269:109,1,100
180,188,109578,1,0,0:0:0:0:
180,188,109920,6,0,P|256:256|320:256,1,100
400,176,110262,1,0,0:0:0:0:
272,64,110433,1,0,0:0:0:0:
208,224,110603,2,0,P|112:176|112:64,1,200
192,128,111116,5,0,0:0:0:0:
192,128,111287,2,0,P|256:128|304:192,1,100
376,328,111630,2,0,P|304:240|272:240,1,100
136,312,111971,2,0,P|176:216|208:208,1,100
284,147,112313,2,0,P|241:123|192:128,1,100
40,256,112655,2,0,P|152:312|240:248,1,200
408,320,113168,5,0,0:0:0:0:
408,320,113339,2,0,P|320:272|320:239,1,100
144,200,113680,2,0,P|240:160|256:128,1,100
384,32,114023,1,0,0:0:0:0:
320,240,114193,1,0,0:0:0:0:
160,88,114364,1,0,0:0:0:0:
96,296,114535,1,0,0:0:0:0:
96,296,114621,1,0,0:0:0:0:
96,296,114706,2,0,P|144:328|200:336,1,100
248,184,115048,2,0,P|144:168|120:184,1,100
344,335,115390,6,0,P|392:351|441:347,1,100
324,124,115733,1,0,0:0:0:0:
248,276,115903,1,0,0:0:0:0:
136,148,116074,2,0,P|149:99|181:62,1,100
352,47,116416,5,0,0:0:0:0:
280,200,116587,1,0,0:0:0:0:
181,60,116758,2,0,P|131:60|89:86,1,100
256,120,117100,2,0,P|306:121|351:143,1,100
256,284,117442,2,0,P|161:270|114:186,1,200
113,186,118126,5,0,0:0:0:0:
221,55,118296,1,0,0:0:0:0:
325,187,118467,2,0,P|311:235|277:271,1,100
436,328,118810,2,0,P|469:291|477:242,1,100
380,99,119151,1,0,0:0:0:0:
284,240,119322,1,0,0:0:0:0:
192,95,119493,1,0,0:0:0:0:
380,99,119664,5,0,0:0:0:0:
285,239,119835,2,0,P|243:267|196:282,1,100
107,141,120177,2,0,P|144:107|192:95,1,100
332,187,120519,1,0,0:0:0:0:
332,187,120860,2,0,P|272:288|168:280,1,200
152,200,121373,1,0,0:0:0:0:
152,200,121544,2,0,P|88:304|96:320,1,100
32,160,121886,2,0,P|144:112|176:120,1,100
288,104,122227,6,0,P|312:232|256:264,1,200
184,184,122740,1,0,0:0:0:0:
184,184,122911,2,0,P|120:272|144:304,1,100
256,344,123253,1,0,0:0:0:0:
336,192,123424,1,0,0:0:0:0:
440,328,123595,6,0,P|480:224|456:176,1,100
424,80,123937,1,0,0:0:0:0:
336,192,124108,1,0,0:0:0:0:
208,72,124279,2,0,P|192:192|160:208,1,100
120,312,124621,1,0,0:0:0:0:
56,152,124792,5,0,0:0:0:0:
272,224,124963,1,0,0:0:0:0:
64,320,125133,1,0,0:0:0:0:
144,104,125304,1,0,0:0:0:0:
264,304,125476,5,0,0:0:0:0:
376,104,125646,2,0,P|264:104|240:152,1,100
169,301,125988,2,0,P|281:293|313:245,1,100
392,216,126330,1,0,0:0:0:0:
424,184,126415,1,0,0:0:0:0:
440,144,126500,1,0,0:0:0:0:
448,96,126586,1,0,0:0:0:0:
440,48,126671,1,0,0:0:0:0:
320,112,126843,5,0,0:0:0:0:
320,112,126928,5,0,0:0:0:0:
320,112,127013,6,0,P|216:120|200:96,1,100
80,160,127355,1,0,0:0:0:0:
104,192,127440,1,0,0:0:0:0:
136,216,127526,1,0,0:0:0:0:
176,232,127612,1,0,0:0:0:0:
216,240,127697,1,0,0:0:0:0:
328,144,127868,1,0,0:0:0:0:
344,176,127953,1,0,0:0:0:0:
360,216,128039,2,0,P|352:272|312:320,1,100
136,232,128381,6,0,P|216:240|240:256,1,100
376,368,128723,2,0,P|456:224|440:192,1,200
352,144,129236,1,0,0:0:0:0:
320,168,129321,1,0,0:0:0:0:
280,176,129406,2,0,P|176:136|168:112,1,100
96,256,129748,5,0,0:0:0:0:
224,304,129920,1,0,0:0:0:0:
264,312,130005,1,0,0:0:0:0:
304,304,130090,2,0,P|384:248|400:224,1,100
328,96,130432,5,0,0:0:0:0:
192,240,130603,1,0,0:0:0:0:
384,304,130774,1,0,0:0:0:0:
216,120,130945,1,0,0:0:0:0:
304,352,131116,1,0,0:0:0:0:
456,152,131286,1,0,0:0:0:0:
232,48,131458,1,0,0:0:0:0:
184,48,131543,1,0,0:0:0:0:
144,64,131629,1,0,0:0:0:0:
96,224,131800,6,0,P|184:184|224:192,1,100
382,316,132142,2,0,P|461:222|447:132,1,200
352,208,132654,1,0,0:0:0:0:
352,208,132825,2,0,P|272:232|232:224,1,100
144,120,133167,2,0,P|80:176|120:288,1,200
105,277,133851,2,0,P|208:264|224:280,1,100
400,216,134193,2,0,P|304:168|280:168,1,100
64,104,134535,6,0,P|152:48|248:48,1,200
392,176,135047,1,0,0:0:0:0:
392,176,135133,1,0,0:0:0:0:
392,176,135219,2,0,P|320:208|280:200,1,100
144,160,135560,1,0,0:0:0:0:
232,288,135731,1,0,0:0:0:0:
264,312,135816,1,0,0:0:0:0:
304,320,135902,2,0,P|376:304|400:288,1,100
344,176,136244,5,0,0:0:0:0:
256,296,136415,1,0,0:0:0:0:
216,320,136500,1,0,0:0:0:0:
168,328,136586,2,0,P|88:296|72:272,1,100
232,104,136928,2,0,P|200:192|168:208,1,100
64,272,137270,5,0,0:0:0:0:
256,224,137440,1,0,0:0:0:0:
56,184,137612,1,0,0:0:0:0:
248,136,137783,1,0,0:0:0:0:
56,88,137953,1,0,0:0:0:0:
248,40,138124,1,0,0:0:0:0:
56,184,138296,2,0,P|112:224|152:224,1,100
248,40,138637,5,0,0:0:0:0:
199,262,138808,1,0,0:0:0:0:
342,75,138980,1,0,0:0:0:0:
295,298,139150,1,0,0:0:0:0:
441,124,139321,1,0,0:0:0:0:
394,347,139492,1,0,0:0:0:0:
346,71,139663,2,0,P|264:80|216:120,1,100
104,224,140005,6,0,P|176:280|272:248,1,200
200,144,140517,1,0,0:0:0:0:
200,144,140689,2,0,P|248:96|312:96,1,100
368,296,141030,2,0,P|352:232|312:208,1,100
176,104,141373,1,0,0:0:0:0:
256,320,141543,1,0,0:0:0:0:
424,168,141714,5,0,0:0:0:0:
152,192,141885,1,0,0:0:0:0:
376,40,142056,2,0,P|416:136|392:192,1,100
248,96,142398,1,0,0:0:0:0:
208,72,142483,1,0,0:0:0:0:
168,64,142569,1,0,0:0:0:0:
120,64,142654,1,0,0:0:0:0:
80,72,142740,2,0,P|32:144|56:192,1,100
88,320,143082,2,0,P|160:344|272:280,1,200
352,168,143594,5,0,0:0:0:0:
352,168,143766,2,0,P|280:144|232:160,1,100
192,296,144107,2,0,P|264:272|296:224,1,100
368,88,144450,2,0,P|296:64|240:72,1,100
64,256,144791,2,0,P|112:160|144:152,1,100
448,256,145133,2,0,P|400:160|368:152,1,100
256,72,145475,1,0,0:0:0:0:
256,192,145560,12,0,146500,0:0:0:0:
256,192,146843,12,0,148210,0:0:0:0:
256,208,153509,5,0,0:0:0:0:
256,208,153680,2,0,P|216:240|96:208,1,150
176,168,154193,2,0,P|200:120|240:96,1,75
320,48,154535,5,0,0:0:0:0:
384,144,154706,1,0,0:0:0:0:
384,264,154876,1,0,0:0:0:0:
288,336,155047,2,0,P|160:320|136:288,1,150
232,256,155560,1,0,0:0:0:0:
256,196,156244,5,0,0:0:0:0:
256,196,156415,2,0,P|215:163|183:156,1,75
183,235,156671,2,0,P|127:267|103:259,1,75
255,276,156928,2,0,P|327:268|351:252,1,75
279,204,157270,5,0,0:0:0:0:
335,139,157440,1,0,0:0:0:0:
368,232,157612,6,0,P|296:200|272:208,1,100
160,280,157953,5,0,0:0:0:0:
240,120,158124,1,0,0:0:0:0:
360,256,158296,1,0,0:0:0:0:
176,184,158466,1,0,0:0:0:0:
368,80,158637,1,0,0:0:0:0:
384,320,158808,1,0,0:0:0:0:
96,136,158979,2,0,P|176:96|208:96,1,100
200,112,160517,5,0,0:0:0:0:
168,136,160603,1,0,0:0:0:0:
144,168,160689,2,0,P|144:248|176:272,1,100
304,216,160945,2,0,P|325:278|304:320,1,100
224,184,161201,2,0,P|264:136|320:128,1,100
288,48,161458,2,0,P|208:80|176:112,1,100
112,232,161714,5,0,0:0:0:0:
112,272,161800,1,0,0:0:0:0:
128,304,161885,2,0,P|192:352|240:360,1,100
368,264,162227,1,0,0:0:0:0:
192,232,162398,1,0,0:0:0:0:
360,168,162569,6,0,P|312:120|256:112,1,100
104,136,162911,1,0,0:0:0:0:
192,328,163082,1,0,0:0:0:0:
360,160,163253,2,0,P|408:112|408:40,1,100
152,224,163594,2,0,P|104:272|104:344,1,100
336,80,163936,2,0,B|256:48|256:48|184:88|120:64,1,200
112,208,164620,5,0,0:0:0:0:
312,144,164791,1,0,0:0:0:0:
272,352,164962,2,0,P|192:328|176:296,1,100
64,152,165304,1,0,0:0:0:0:
264,88,165475,1,0,0:0:0:0:
224,296,165646,1,0,0:0:0:0:
368,144,165816,5,0,0:0:0:0:
360,352,165988,1,0,0:0:0:0:
480,176,166159,1,0,0:0:0:0:
224,296,166330,2,0,P|128:280|96:248,1,100
264,88,166672,2,0,P|344:112|368:152,1,100
416,320,167013,1,0,0:0:0:0:
264,176,167184,1,0,0:0:0:0:
416,320,167355,6,0,P|464:248|400:128,1,200
352,232,167868,1,0,0:0:0:0:
304,72,168039,1,0,0:0:0:0:
192,264,168210,1,0,0:0:0:0:
72,64,168381,1,0,0:0:0:0:
192,264,168552,1,0,0:0:0:0:
304,72,168723,2,0,P|384:72|424:120,1,100
341,181,169065,2,0,P|317:237|165:245,1,200
336,184,169748,6,0,P|304:120|240:96,1,100
104,56,170090,1,0,0:0:0:0:
168,256,170261,1,0,0:0:0:0:
280,80,170432,1,0,0:0:0:0:
368,304,170603,1,0,0:0:0:0:
192,144,170774,1,0,0:0:0:0:
432,152,170945,1,0,0:0:0:0:
248,312,171116,2,0,P|168:328|120:304,1,100
264,72,171458,2,0,P|344:56|392:80,1,100
456,280,171800,5,0,0:0:0:0:
352,64,171970,1,0,0:0:0:0:
200,248,172142,1,0,0:0:0:0:
424,160,172313,1,0,0:0:0:0:
200,72,172483,2,0,P|112:112|96:136,1,100
200,248,172825,6,0,P|280:208|320:208,1,100
456,240,173167,1,0,0:0:0:0:
352,88,173338,1,0,0:0:0:0:
456,240,173509,1,0,0:0:0:0:
232,328,173680,1,0,0:0:0:0:
456,240,173851,1,0,0:0:0:0:
248,120,174022,1,0,0:0:0:0:
456,240,174193,6,0,P|416:304|352:312,1,100
160,360,174535,1,0,0:0:0:0:
336,200,174706,1,0,0:0:0:0:
104,256,174876,2,0,P|64:160|80:128,1,100
304,128,175219,6,0,P|272:64|224:32,1,100
256,288,175560,2,0,P|392:280|440:216,1,200
328,208,176073,1,0,0:0:0:0:
328,208,176244,2,0,P|272:120|248:112,1,100
144,184,176586,2,0,P|208:208|256:192,1,100
408,104,176928,6,0,P|432:160|432:232,1,100
344,328,177270,1,0,0:0:0:0:
280,184,177440,1,0,0:0:0:0:
440,192,177612,1,0,0:0:0:0:
304,40,177783,1,0,0:0:0:0:
384,272,177953,1,0,0:0:0:0:
192,144,178124,1,0,0:0:0:0:
456,96,178296,2,0,B|440:192|440:192|384:224|376:296,1,200
264,272,178808,5,0,0:0:0:0:
360,128,178979,1,0,0:0:0:0:
192,128,179150,1,0,0:0:0:0:
199,301,179321,5,0,0:0:0:0:
400,216,179492,1,0,0:0:0:0:
264,40,179663,1,0,0:0:0:0:
144,240,179834,1,0,0:0:0:0:
328,120,180005,1,0,0:0:0:0:
208,320,180176,5,0,0:0:0:0:
424,264,180346,1,0,0:0:0:0:
216,184,180517,1,0,0:0:0:0:
432,128,180689,1,0,0:0:0:0:
432,128,181030,5,0,0:0:0:0:
