osu file format v14

[General]
AudioFilename: audio1.2.mp3
AudioLeadIn: 0
PreviewTime: 172320
Countdown: 0
SampleSet: None
StackLeniency: 0.7
Mode: 0
LetterboxInBreaks: 1
WidescreenStoryboard: 0

[Editor]
DistanceSpacing: 1.7
BeatDivisor: 4
GridSize: 8
TimelineZoom: 1

[Metadata]
Title:Leila
TitleUnicode:レイラ
Artist:Silent Siren
ArtistUnicode:Silent Siren
Creator:october
Version:1.2x
Source:
Tags:
BeatmapID:1472987
BeatmapSetID:695151

[Difficulty]
HPDrainRate:6
CircleSize:4
OverallDifficulty:8
ApproachRate:9.4
SliderMultiplier:2
SliderTickRate:1

[Events]
//Background and Video events
0,0,"bg.jpg",0,0
//Break Periods
2,71872,82895
2,160760,165672
//Storyboard Layer 0 (Background)
//Storyboard Layer 1 (Fail)
//Storyboard Layer 2 (Pass)
//Storyboard Layer 3 (Foreground)
//Storyboard Sound Samples

[TimingPoints]
561,370.3704,4,3,0,90,1,0
27783,-133.3333,4,3,0,90,0,0
28339,-100,4,3,0,90,0,0
42042,-133.3333,4,3,0,90,0,0
45005,-100,4,3,0,90,0,0
47968,-100,4,3,0,90,0,1
71672,-100,4,3,0,90,0,0
107227,-133.3333,4,3,0,90,0,0
110190,-100,4,3,0,90,0,0
113154,-100,4,3,0,90,0,1
136857,-100,4,3,0,90,0,0
167042,-133.3333,4,3,0,90,0,0
170746,-100,4,3,0,90,0,0
175375,-100,4,3,0,90,0,1
196116,-100,4,3,0,90,0,0

[HitObjects]
104,80,18339,5,0,0:0:0:0:
104,80,18616,1,0,0:0:0:0:
104,80,18894,2,0,P|208:64|280:128,1,200
176,192,19450,5,0,0:0:0:0:
176,192,19635,1,0,0:0:0:0:
176,192,19820,2,0,P|224:224|288:224,1,100
248,144,20098,2,0,P|320:120|376:144,1,100
360,232,20375,2,0,P|448:200|448:96,1,200
384,152,20931,6,0,P|312:104|280:96,1,100
72,136,21301,2,0,P|104:80|200:64,1,150
184,176,21857,2,0,P|248:224|360:184,1,200
272,136,22413,1,0,0:0:0:0:
272,136,22598,1,0,0:0:0:0:
272,136,22783,2,0,P|288:88|344:56,1,100
224,224,23060,2,0,P|208:176|152:144,1,100
288,312,23339,2,0,P|304:264|360:232,1,100
342,235,23894,6,0,P|296:168|216:152,1,150
216,152,24265,1,0,0:0:0:0:
216,152,24542,1,0,0:0:0:0:
216,152,24820,2,0,P|144:128|120:96,1,100
296,80,25190,5,0,0:0:0:0:
296,80,25375,2,0,P|208:72|168:104,1,100
248,144,25746,5,0,0:0:0:0:
248,144,26024,1,0,0:0:0:0:
248,144,26301,2,0,P|288:192|360:200,1,100
328,128,26672,5,0,0:0:0:0:
328,128,26857,2,0,P|376:88|424:88,1,100
264,80,27227,1,0,0:0:0:0:
264,80,27505,1,0,0:0:0:0:
264,80,27783,2,0,P|160:64|128:88,1,150
200,136,28339,1,0,0:0:0:0:
216,168,28431,1,0,0:0:0:0:
240,200,28524,1,0,0:0:0:0:
272,224,28616,1,0,0:0:0:0:
304,240,28709,2,0,P|392:240|432:208,1,100
344,168,28987,6,0,P|304:120|312:56,1,100
376,96,29265,2,0,P|432:128|424:200,1,100
439,158,29820,1,4,0:0:0:0:
328,127,30190,6,0,P|368:176|360:223,1,100
328,280,30468,1,0,0:0:0:0:
328,280,30561,2,0,P|248:288|224:272,1,100
144,207,30931,1,0,0:0:0:0:
144,207,31024,1,0,0:0:0:0:
144,207,31116,2,0,P|168:143|200:136,1,100
360,183,31487,5,0,0:0:0:0:
184,256,31671,2,0,P|144:207|152:160,1,100
184,104,31949,1,0,0:0:0:0:
184,104,32042,2,0,P|264:96|288:112,1,100
368,176,32412,1,0,0:0:0:0:
368,176,32505,1,0,0:0:0:0:
368,176,32597,2,0,P|344:240|312:248,1,100
152,200,32968,5,0,0:0:0:0:
152,200,33153,2,0,P|72:239|72:279,1,100
216,128,33430,1,0,0:0:0:0:
216,128,33523,2,0,P|296:96|312:104,1,100
368,176,33894,1,0,0:0:0:0:
368,176,33986,1,0,0:0:0:0:
368,176,34079,2,0,P|344:240|312:248,1,100
152,200,34450,5,0,0:0:0:0:
368,176,34635,2,0,P|447:135|447:96,1,100
392,72,34912,1,0,0:0:0:0:
392,72,35005,2,0,P|311:104|296:96,1,100
223,222,35375,1,0,0:0:0:0:
223,222,35468,1,0,0:0:0:0:
223,222,35560,2,0,P|247:159|311:143,1,100
336,272,35931,1,0,0:0:0:0:
184,128,36116,6,0,P|144:176|152:224,1,100
208,328,36394,1,0,0:0:0:0:
208,328,36487,2,0,P|288:336|312:320,1,100
368,208,36857,1,0,0:0:0:0:
368,208,36950,1,0,0:0:0:0:
368,208,37042,2,0,P|344:144|312:136,1,100
152,184,37413,5,0,0:0:0:0:
152,184,37598,2,0,P|72:144|72:104,1,100
176,72,37875,1,0,0:0:0:0:
176,72,37968,2,0,P|256:104|272:96,1,100
368,208,38339,1,0,0:0:0:0:
368,208,38431,1,0,0:0:0:0:
368,208,38524,2,0,P|344:144|312:136,1,100
152,184,38895,5,0,0:0:0:0:
368,208,39080,2,0,P|448:248|448:288,1,100
392,312,39357,1,0,0:0:0:0:
392,312,39450,2,0,P|312:280|296:288,1,100
223,161,39820,1,0,0:0:0:0:
223,161,39913,1,0,0:0:0:0:
223,161,40005,2,0,P|247:225|311:241,1,100
400,344,40375,1,0,0:0:0:0:
272,240,40560,2,0,P|208:240|152:264,1,100
136,328,40839,5,0,0:0:0:0:
137,327,40931,2,0,P|99:294|88:246,1,100
160,136,41301,1,0,0:0:0:0:
160,136,41394,1,0,0:0:0:0:
160,136,41487,1,0,0:0:0:0:
248,264,41672,1,0,0:0:0:0:
248,264,41765,1,0,0:0:0:0:
248,264,41857,1,0,0:0:0:0:
320,136,42042,6,0,P|400:160|432:240,2,150
224,192,42968,1,0,0:0:0:0:
112,168,43154,1,0,0:0:0:0:
88,56,43339,1,0,0:0:0:0:
192,96,43524,2,0,P|280:104|296:96,1,75
384,88,43894,1,0,0:0:0:0:
384,88,44080,2,0,P|416:176|392:208,1,75
414,202,44635,5,0,0:0:0:0:
304,296,44820,1,0,0:0:0:0:
304,296,45005,2,0,P|200:304|152:264,1,150
120,216,45375,2,0,P|192:200|224:216,1,100
368,240,45746,1,0,0:0:0:0:
400,128,45931,1,0,0:0:0:0:
304,48,46116,2,0,P|224:72|200:104,1,100
104,192,46487,5,0,0:0:0:0:
284,280,46672,1,0,0:0:0:0:
228,88,46857,1,0,0:0:0:0:
284,280,47042,1,0,0:0:0:0:
356,96,47227,5,0,0:0:0:0:
152,240,47413,1,0,0:0:0:0:
400,272,47598,1,0,0:0:0:0:
232,88,47783,1,0,0:0:0:0:
344,336,47968,6,0,P|472:332|504:300,1,100
324,124,48339,1,0,0:0:0:0:
248,276,48524,1,0,0:0:0:0:
136,148,48709,2,0,P|200:52|256:44,1,100
352,48,49080,5,0,0:0:0:0:
280,200,49265,1,0,0:0:0:0:
180,60,49450,2,0,P|76:104|64:144,1,100
256,120,49820,2,0,P|368:160|388:192,1,100
256,284,50190,2,0,P|136:248|120:144,1,200
113,186,50931,5,0,0:0:0:0:
220,56,51116,1,0,0:0:0:0:
324,188,51301,2,0,P|260:280|224:288,1,100
436,328,51672,2,0,P|472:224|448:188,1,100
380,100,52042,1,0,0:0:0:0:
284,240,52227,1,0,0:0:0:0:
192,96,52413,1,0,0:0:0:0:
380,100,52598,5,0,0:0:0:0:
284,240,52783,2,0,P|180:284|132:280,1,100
107,141,53154,2,0,P|211:97|243:109,1,100
332,188,53524,1,0,0:0:0:0:
332,188,53894,6,0,P|256:256|192:256,1,100
112,176,54265,1,0,0:0:0:0:
240,64,54450,1,0,0:0:0:0:
304,224,54635,2,0,P|400:176|400:64,1,200
320,128,55190,5,0,0:0:0:0:
320,128,55375,2,0,P|256:128|208:192,1,100
136,328,55746,2,0,P|208:240|240:240,1,100
376,312,56116,2,0,P|336:216|304:208,1,100
228,147,56487,2,0,P|271:123|320:128,1,100
472,256,56857,2,0,P|360:312|272:248,1,200
104,320,57413,5,0,0:0:0:0:
104,320,57598,2,0,P|192:272|191:239,1,100
368,200,57968,2,0,P|272:160|256:128,1,100
128,32,58339,1,0,0:0:0:0:
192,240,58524,1,0,0:0:0:0:
352,88,58709,1,0,0:0:0:0:
416,296,58894,1,0,0:0:0:0:
416,296,58987,1,0,0:0:0:0:
416,296,59080,2,0,P|368:328|312:336,1,100
264,184,59450,2,0,P|368:168|392:184,1,100
168,335,59820,6,0,P|120:351|71:347,1,100
188,124,60191,1,0,0:0:0:0:
264,276,60376,1,0,0:0:0:0:
376,148,60561,2,0,P|363:99|331:62,1,100
160,47,60932,5,0,0:0:0:0:
232,200,61117,1,0,0:0:0:0:
331,60,61302,2,0,P|381:60|423:86,1,100
256,120,61673,2,0,P|206:121|161:143,1,100
256,284,62043,2,0,P|351:270|398:186,1,200
399,186,62784,5,0,0:0:0:0:
291,55,62969,1,0,0:0:0:0:
187,187,63154,2,0,P|201:235|235:271,1,100
76,328,63525,2,0,P|43:291|35:242,1,100
132,99,63895,1,0,0:0:0:0:
228,240,64080,1,0,0:0:0:0:
320,95,64265,1,0,0:0:0:0:
132,99,64450,5,0,0:0:0:0:
227,239,64635,2,0,P|269:267|316:282,1,100
405,141,65006,2,0,P|368:107|320:95,1,100
180,187,65376,1,0,0:0:0:0:
180,187,65746,6,0,P|240:288|344:280,1,200
360,200,66301,1,0,0:0:0:0:
360,200,66487,2,0,P|424:304|416:320,1,100
480,160,66857,2,0,P|368:112|336:120,1,100
224,104,67227,6,0,P|200:232|256:264,1,200
328,184,67783,1,0,0:0:0:0:
328,184,67968,2,0,P|392:272|368:304,1,100
256,344,68339,1,0,0:0:0:0:
176,192,68524,1,0,0:0:0:0:
72,328,68709,6,0,P|32:224|56:176,1,100
88,80,69080,1,0,0:0:0:0:
176,192,69265,1,0,0:0:0:0:
304,72,69450,2,0,P|320:192|352:208,1,100
392,312,69820,1,0,0:0:0:0:
456,152,70005,5,0,0:0:0:0:
240,224,70190,1,0,0:0:0:0:
448,320,70375,1,0,0:0:0:0:
368,104,70560,1,0,0:0:0:0:
248,304,70746,5,0,0:0:0:0:
136,104,70931,2,0,P|248:104|272:152,1,100
343,301,71301,2,0,P|231:293|199:245,1,100
56,176,71672,1,0,0:0:0:0:
72,144,83524,6,0,P|144:112|208:136,1,150
248,216,83894,2,0,P|296:160|296:144,1,50
144,192,84080,2,0,P|160:248|192:280,1,100
360,312,84357,1,0,0:0:0:0:
360,312,84450,2,0,P|294:321|264:301,1,100
320,240,84820,1,0,0:0:0:0:
224,144,85005,6,0,P|288:96|368:112,1,150
312,168,85375,2,0,P|360:176|392:160,1,50
424,72,85560,2,0,P|464:128|456:192,1,100
448,248,85839,1,0,0:0:0:0:
448,248,85931,2,0,P|389:277|332:273,1,100
246,252,86302,1,0,0:0:0:0:
440,240,86487,6,0,P|368:272|304:248,1,150
264,168,86857,2,0,P|216:224|216:240,1,50
368,192,87043,2,0,P|352:136|320:104,1,100
152,72,87320,1,0,0:0:0:0:
152,72,87413,2,0,P|217:62|247:82,1,100
192,144,87784,1,0,0:0:0:0:
288,240,87969,6,0,P|224:288|144:272,1,150
200,216,88339,2,0,P|152:208|120:224,1,50
88,312,88524,2,0,P|48:256|56:192,1,100
64,136,88802,1,0,0:0:0:0:
64,136,88895,2,0,P|122:106|179:110,1,100
266,132,89265,1,0,0:0:0:0:
401,140,89450,6,0,P|329:108|265:132,1,150
225,212,89820,2,0,P|177:156|177:140,1,50
329,188,90005,2,0,P|313:244|281:276,1,100
113,308,90283,1,0,0:0:0:0:
113,308,90375,2,0,P|178:317|208:297,1,100
153,236,90746,1,0,0:0:0:0:
249,140,90931,6,0,P|185:92|105:108,1,150
161,164,91301,2,0,P|113:172|81:156,1,50
49,68,91486,2,0,P|9:124|17:188,1,100
25,244,91765,1,0,0:0:0:0:
25,244,91857,2,0,P|83:273|140:269,1,100
227,248,92228,1,0,0:0:0:0:
88,296,92413,6,0,P|166:301|218:257,1,150
229,168,92783,2,0,P|293:204|298:219,1,50
140,226,92969,2,0,P|135:167|155:126,1,100
302,39,93246,1,0,0:0:0:0:
302,39,93339,2,0,P|237:52|215:81,1,100
289,120,93710,1,0,0:0:0:0:
231,244,93895,6,0,P|307:267|377:224,1,150
306,191,94265,2,0,P|348:167|383:171,1,50
444,243,94450,2,0,P|462:176|433:119,1,100
406,69,94728,1,0,0:0:0:0:
406,69,94820,2,0,P|340:60|288:84,1,100
215,135,95191,1,0,0:0:0:0:
184,257,95375,6,0,P|144:208|152:161,1,100
184,104,95653,1,0,0:0:0:0:
184,104,95746,2,0,P|264:96|288:112,1,100
368,177,96116,1,0,0:0:0:0:
368,177,96209,1,0,0:0:0:0:
368,177,96301,2,0,P|344:241|312:248,1,100
152,201,96672,5,0,0:0:0:0:
328,128,96856,2,0,P|368:177|360:224,1,100
328,280,97134,1,0,0:0:0:0:
328,280,97227,2,0,P|248:288|224:272,1,100
144,208,97597,1,0,0:0:0:0:
144,208,97690,1,0,0:0:0:0:
144,208,97782,2,0,P|168:144|200:136,1,100
360,184,98153,5,0,0:0:0:0:
360,184,98338,2,0,P|440:145|440:105,1,100
392,72,98615,1,0,0:0:0:0:
392,72,98708,2,0,P|312:104|296:96,1,100
144,208,99079,1,0,0:0:0:0:
144,208,99171,1,0,0:0:0:0:
144,208,99264,2,0,P|168:144|200:136,1,100
360,184,99635,5,0,0:0:0:0:
144,208,99820,2,0,P|65:249|65:288,1,100
120,312,100097,1,0,0:0:0:0:
120,312,100190,2,0,P|201:280|216:288,1,100
289,162,100560,1,0,0:0:0:0:
289,162,100653,1,0,0:0:0:0:
289,162,100745,2,0,P|265:225|201:241,1,100
176,112,101116,1,0,0:0:0:0:
328,256,101301,6,0,P|368:208|360:160,1,100
328,104,101579,1,0,0:0:0:0:
328,104,101672,2,0,P|248:96|224:112,1,100
144,176,102042,1,0,0:0:0:0:
144,176,102135,1,0,0:0:0:0:
144,176,102227,2,0,P|168:240|200:248,1,100
360,200,102598,5,0,0:0:0:0:
360,200,102783,6,0,P|440:240|440:280,1,100
392,312,103060,1,0,0:0:0:0:
392,312,103153,2,0,P|312:280|296:288,1,100
144,176,103524,1,0,0:0:0:0:
144,176,103616,1,0,0:0:0:0:
144,176,103709,2,0,P|168:240|200:248,1,100
360,200,104080,5,0,0:0:0:0:
144,176,104265,2,0,P|64:136|64:96,1,100
120,72,104542,1,0,0:0:0:0:
120,72,104635,2,0,P|200:104|216:96,1,100
289,223,105005,1,0,0:0:0:0:
289,223,105098,1,0,0:0:0:0:
289,223,105190,2,0,P|265:159|201:143,1,100
112,40,105560,1,0,0:0:0:0:
208,240,105746,6,0,P|128:200|128:160,1,100
176,128,106024,1,0,0:0:0:0:
176,128,106116,2,0,P|256:160|272:152,1,100
424,264,106487,1,0,0:0:0:0:
424,264,106580,1,0,0:0:0:0:
424,264,106672,1,0,0:0:0:0:
296,336,106857,1,0,0:0:0:0:
248,344,106950,1,0,0:0:0:0:
200,336,107042,1,0,0:0:0:0:
160,312,107135,1,0,0:0:0:0:
128,280,107227,6,0,P|112:208|168:136,1,150
208,48,107783,2,0,P|264:112|256:136,1,75
285,203,108154,1,0,0:0:0:0:
399,221,108340,1,0,0:0:0:0:
461,125,108525,1,0,0:0:0:0:
350,125,108710,2,0,P|265:101|253:88,1,75
173,49,109080,1,0,0:0:0:0:
173,49,109265,2,0,P|112:119|123:158,1,75
104,144,109820,5,0,0:0:0:0:
173,271,110006,1,0,0:0:0:0:
173,271,110191,2,0,P|268:316|327:296,1,150
374,263,110561,2,0,P|312:222|277:225,1,100
134,196,110932,1,0,0:0:0:0:
144,80,111117,5,0,0:0:0:0:
262,40,111302,2,0,P|328:91|339:129,1,100
300,329,111672,5,0,0:0:0:0:
139,106,111857,1,0,0:0:0:0:
400,192,112042,1,0,0:0:0:0:
139,277,112227,1,0,0:0:0:0:
300,54,112412,1,0,0:0:0:0:
306,347,112598,1,0,0:0:0:0:
124,96,112783,1,0,0:0:0:0:
419,192,112968,1,0,0:0:0:0:
168,336,113154,6,0,P|40:332|8:300,1,100
188,124,113525,1,0,0:0:0:0:
264,276,113710,1,0,0:0:0:0:
376,148,113895,2,0,P|312:52|256:44,1,100
160,48,114265,5,0,0:0:0:0:
232,200,114450,1,0,0:0:0:0:
332,60,114635,2,0,P|436:104|448:144,1,100
256,120,115006,2,0,P|144:160|124:192,1,100
256,284,115376,2,0,P|376:248|392:144,1,200
399,186,116117,5,0,0:0:0:0:
292,56,116302,1,0,0:0:0:0:
188,188,116487,2,0,P|252:280|288:288,1,100
76,328,116858,2,0,P|40:224|64:188,1,100
132,100,117228,1,0,0:0:0:0:
228,240,117413,1,0,0:0:0:0:
320,96,117599,1,0,0:0:0:0:
132,100,117784,5,0,0:0:0:0:
228,240,117969,2,0,P|332:284|380:280,1,100
405,141,118340,2,0,P|301:97|269:109,1,100
180,188,118710,1,0,0:0:0:0:
180,188,119080,6,0,P|256:256|320:256,1,100
400,176,119450,1,0,0:0:0:0:
272,64,119635,1,0,0:0:0:0:
208,224,119820,2,0,P|112:176|112:64,1,200
192,128,120376,5,0,0:0:0:0:
192,128,120561,2,0,P|256:128|304:192,1,100
376,328,120932,2,0,P|304:240|272:240,1,100
136,312,121302,2,0,P|176:216|208:208,1,100
284,147,121673,2,0,P|241:123|192:128,1,100
40,256,122043,2,0,P|152:312|240:248,1,200
408,320,122599,5,0,0:0:0:0:
408,320,122784,2,0,P|320:272|320:239,1,100
144,200,123154,2,0,P|240:160|256:128,1,100
384,32,123525,1,0,0:0:0:0:
320,240,123710,1,0,0:0:0:0:
160,88,123895,1,0,0:0:0:0:
96,296,124080,1,0,0:0:0:0:
96,296,124173,1,0,0:0:0:0:
96,296,124265,2,0,P|144:328|200:336,1,100
248,184,124635,2,0,P|144:168|120:184,1,100
344,335,125006,6,0,P|392:351|441:347,1,100
324,124,125377,1,0,0:0:0:0:
248,276,125562,1,0,0:0:0:0:
136,148,125747,2,0,P|149:99|181:62,1,100
352,47,126118,5,0,0:0:0:0:
280,200,126303,1,0,0:0:0:0:
181,60,126488,2,0,P|131:60|89:86,1,100
256,120,126859,2,0,P|306:121|351:143,1,100
256,284,127229,2,0,P|161:270|114:186,1,200
113,186,127970,5,0,0:0:0:0:
221,55,128155,1,0,0:0:0:0:
325,187,128340,2,0,P|311:235|277:271,1,100
436,328,128710,2,0,P|469:291|477:242,1,100
380,99,129080,1,0,0:0:0:0:
284,240,129265,1,0,0:0:0:0:
192,95,129451,1,0,0:0:0:0:
380,99,129636,5,0,0:0:0:0:
285,239,129821,2,0,P|243:267|196:282,1,100
107,141,130192,2,0,P|144:107|192:95,1,100
332,187,130562,1,0,0:0:0:0:
332,187,130932,2,0,P|272:288|168:280,1,200
152,200,131487,1,0,0:0:0:0:
152,200,131673,2,0,P|88:304|96:320,1,100
32,160,132043,2,0,P|144:112|176:120,1,100
288,104,132413,6,0,P|312:232|256:264,1,200
184,184,132969,1,0,0:0:0:0:
184,184,133154,2,0,P|120:272|144:304,1,100
256,344,133525,1,0,0:0:0:0:
336,192,133710,1,0,0:0:0:0:
440,328,133895,6,0,P|480:224|456:176,1,100
424,80,134265,1,0,0:0:0:0:
336,192,134450,1,0,0:0:0:0:
208,72,134635,2,0,P|192:192|160:208,1,100
120,312,135006,1,0,0:0:0:0:
56,152,135191,5,0,0:0:0:0:
272,224,135376,1,0,0:0:0:0:
64,320,135561,1,0,0:0:0:0:
144,104,135746,1,0,0:0:0:0:
264,304,135932,5,0,0:0:0:0:
376,104,136117,2,0,P|264:104|240:152,1,100
169,301,136487,2,0,P|281:293|313:245,1,100
392,216,136857,1,0,0:0:0:0:
424,184,136950,1,0,0:0:0:0:
440,144,137042,1,0,0:0:0:0:
448,96,137135,1,0,0:0:0:0:
440,48,137227,1,0,0:0:0:0:
320,112,137413,5,0,0:0:0:0:
320,112,137505,5,0,0:0:0:0:
320,112,137598,6,0,P|216:120|200:96,1,100
80,160,137968,1,0,0:0:0:0:
104,192,138060,1,0,0:0:0:0:
136,216,138154,1,0,0:0:0:0:
176,232,138246,1,0,0:0:0:0:
216,240,138339,1,0,0:0:0:0:
328,144,138524,1,0,0:0:0:0:
344,176,138616,1,0,0:0:0:0:
360,216,138709,2,0,P|352:272|312:320,1,100
136,232,139080,6,0,P|216:240|240:256,1,100
376,368,139450,2,0,P|456:224|440:192,1,200
352,144,140005,1,0,0:0:0:0:
320,168,140098,1,0,0:0:0:0:
280,176,140190,2,0,P|176:136|168:112,1,100
96,256,140560,5,0,0:0:0:0:
224,304,140746,1,0,0:0:0:0:
264,312,140839,1,0,0:0:0:0:
304,304,140931,2,0,P|384:248|400:224,1,100
328,96,141301,5,0,0:0:0:0:
192,240,141487,1,0,0:0:0:0:
384,304,141672,1,0,0:0:0:0:
216,120,141857,1,0,0:0:0:0:
304,352,142042,1,0,0:0:0:0:
456,152,142227,1,0,0:0:0:0:
232,48,142413,1,0,0:0:0:0:
184,48,142505,1,0,0:0:0:0:
144,64,142598,1,0,0:0:0:0:
96,224,142783,6,0,P|184:184|224:192,1,100
382,316,143154,2,0,P|461:222|447:132,1,200
352,208,143709,1,0,0:0:0:0:
352,208,143894,2,0,P|272:232|232:224,1,100
144,120,144265,2,0,P|80:176|120:288,1,200
105,277,145005,2,0,P|208:264|224:280,1,100
400,216,145375,2,0,P|304:168|280:168,1,100
64,104,145746,6,0,P|152:48|248:48,1,200
392,176,146301,1,0,0:0:0:0:
392,176,146394,1,0,0:0:0:0:
392,176,146487,2,0,P|320:208|280:200,1,100
144,160,146857,1,0,0:0:0:0:
232,288,147042,1,0,0:0:0:0:
264,312,147135,1,0,0:0:0:0:
304,320,147227,2,0,P|376:304|400:288,1,100
344,176,147598,5,0,0:0:0:0:
256,296,147783,1,0,0:0:0:0:
216,320,147875,1,0,0:0:0:0:
168,328,147968,2,0,P|88:296|72:272,1,100
232,104,148339,2,0,P|200:192|168:208,1,100
64,272,148709,5,0,0:0:0:0:
256,224,148894,1,0,0:0:0:0:
56,184,149080,1,0,0:0:0:0:
248,136,149265,1,0,0:0:0:0:
56,88,149450,1,0,0:0:0:0:
248,40,149635,1,0,0:0:0:0:
56,184,149820,2,0,P|112:224|152:224,1,100
248,40,150190,5,0,0:0:0:0:
199,262,150375,1,0,0:0:0:0:
342,75,150561,1,0,0:0:0:0:
295,298,150746,1,0,0:0:0:0:
441,124,150931,1,0,0:0:0:0:
394,347,151116,1,0,0:0:0:0:
346,71,151302,2,0,P|264:80|216:120,1,100
104,224,151672,6,0,P|176:280|272:248,1,200
200,144,152227,1,0,0:0:0:0:
200,144,152413,2,0,P|248:96|312:96,1,100
368,296,152783,2,0,P|352:232|312:208,1,100
176,104,153154,1,0,0:0:0:0:
256,320,153339,1,0,0:0:0:0:
424,168,153524,5,0,0:0:0:0:
152,192,153709,1,0,0:0:0:0:
376,40,153894,2,0,P|416:136|392:192,1,100
248,96,154265,1,0,0:0:0:0:
208,72,154357,1,0,0:0:0:0:
168,64,154450,1,0,0:0:0:0:
120,64,154542,1,0,0:0:0:0:
80,72,154635,2,0,P|32:144|56:192,1,100
88,320,155005,2,0,P|160:344|272:280,1,200
352,168,155560,5,0,0:0:0:0:
352,168,155746,2,0,P|280:144|232:160,1,100
192,296,156116,2,0,P|264:272|296:224,1,100
368,88,156487,2,0,P|296:64|240:72,1,100
64,256,156857,2,0,P|112:160|144:152,1,100
448,256,157227,2,0,P|400:160|368:152,1,100
256,72,157598,1,0,0:0:0:0:
256,192,157690,12,0,158709,0:0:0:0:
256,192,159080,12,0,160560,0:0:0:0:
256,208,166301,5,0,0:0:0:0:
256,208,166487,2,0,P|216:240|96:208,1,150
176,168,167042,2,0,P|200:120|240:96,1,75
320,48,167413,5,0,0:0:0:0:
384,144,167598,1,0,0:0:0:0:
384,264,167783,1,0,0:0:0:0:
288,336,167968,2,0,P|160:320|136:288,1,150
232,256,168524,1,0,0:0:0:0:
256,196,169265,5,0,0:0:0:0:
256,196,169450,2,0,P|215:163|183:156,1,75
183,235,169727,2,0,P|127:267|103:259,1,75
255,276,170005,2,0,P|327:268|351:252,1,75
279,204,170375,5,0,0:0:0:0:
335,139,170560,1,0,0:0:0:0:
368,232,170746,6,0,P|296:200|272:208,1,100
160,280,171116,5,0,0:0:0:0:
240,120,171301,1,0,0:0:0:0:
360,256,171487,1,0,0:0:0:0:
176,184,171672,1,0,0:0:0:0:
368,80,171857,1,0,0:0:0:0:
384,320,172042,1,0,0:0:0:0:
96,136,172227,2,0,P|176:96|208:96,1,100
200,112,173894,5,0,0:0:0:0:
168,136,173987,1,0,0:0:0:0:
144,168,174080,2,0,P|144:248|176:272,1,100
304,216,174357,2,0,P|325:278|304:320,1,100
224,184,174635,2,0,P|264:136|320:128,1,100
288,48,174913,2,0,P|208:80|176:112,1,100
112,232,175190,5,0,0:0:0:0:
112,272,175283,1,0,0:0:0:0:
128,304,175375,2,0,P|192:352|240:360,1,100
368,264,175746,1,0,0:0:0:0:
192,232,175931,1,0,0:0:0:0:
360,168,176116,6,0,P|312:120|256:112,1,100
104,136,176487,1,0,0:0:0:0:
192,328,176672,1,0,0:0:0:0:
360,160,176857,2,0,P|408:112|408:40,1,100
152,224,177227,2,0,P|104:272|104:344,1,100
336,80,177598,2,0,B|256:48|256:48|184:88|120:64,1,200
112,208,178339,5,0,0:0:0:0:
312,144,178524,1,0,0:0:0:0:
272,352,178709,2,0,P|192:328|176:296,1,100
64,152,179080,1,0,0:0:0:0:
264,88,179265,1,0,0:0:0:0:
224,296,179450,1,0,0:0:0:0:
368,144,179635,5,0,0:0:0:0:
360,352,179820,1,0,0:0:0:0:
480,176,180005,1,0,0:0:0:0:
224,296,180190,2,0,P|128:280|96:248,1,100
264,88,180561,2,0,P|344:112|368:152,1,100
416,320,180931,1,0,0:0:0:0:
264,176,181116,1,0,0:0:0:0:
416,320,181301,6,0,P|464:248|400:128,1,200
352,232,181857,1,0,0:0:0:0:
304,72,182042,1,0,0:0:0:0:
192,264,182227,1,0,0:0:0:0:
72,64,182413,1,0,0:0:0:0:
192,264,182598,1,0,0:0:0:0:
304,72,182783,2,0,P|384:72|424:120,1,100
341,181,183154,2,0,P|317:237|165:245,1,200
336,184,183894,6,0,P|304:120|240:96,1,100
104,56,184265,1,0,0:0:0:0:
168,256,184450,1,0,0:0:0:0:
280,80,184635,1,0,0:0:0:0:
368,304,184820,1,0,0:0:0:0:
192,144,185005,1,0,0:0:0:0:
432,152,185190,1,0,0:0:0:0:
248,312,185375,2,0,P|168:328|120:304,1,100
264,72,185746,2,0,P|344:56|392:80,1,100
456,280,186116,5,0,0:0:0:0:
352,64,186301,1,0,0:0:0:0:
200,248,186487,1,0,0:0:0:0:
424,160,186672,1,0,0:0:0:0:
200,72,186857,2,0,P|112:112|96:136,1,100
200,248,187227,6,0,P|280:208|320:208,1,100
456,240,187598,1,0,0:0:0:0:
352,88,187783,1,0,0:0:0:0:
456,240,187968,1,0,0:0:0:0:
232,328,188154,1,0,0:0:0:0:
456,240,188339,1,0,0:0:0:0:
248,120,188524,1,0,0:0:0:0:
456,240,188709,6,0,P|416:304|352:312,1,100
160,360,189080,1,0,0:0:0:0:
336,200,189265,1,0,0:0:0:0:
104,256,189450,2,0,P|64:160|80:128,1,100
304,128,189820,6,0,P|272:64|224:32,1,100
256,288,190190,2,0,P|392:280|440:216,1,200
328,208,190746,1,0,0:0:0:0:
328,208,190931,2,0,P|272:120|248:112,1,100
144,184,191301,2,0,P|208:208|256:192,1,100
408,104,191672,6,0,P|432:160|432:232,1,100
344,328,192042,1,0,0:0:0:0:
280,184,192227,1,0,0:0:0:0:
440,192,192413,1,0,0:0:0:0:
304,40,192598,1,0,0:0:0:0:
384,272,192783,1,0,0:0:0:0:
192,144,192968,1,0,0:0:0:0:
456,96,193154,2,0,B|440:192|440:192|384:224|376:296,1,200
264,272,193709,5,0,0:0:0:0:
360,128,193894,1,0,0:0:0:0:
192,128,194080,1,0,0:0:0:0:
199,301,194265,5,0,0:0:0:0:
400,216,194450,1,0,0:0:0:0:
264,40,194635,1,0,0:0:0:0:
144,240,194820,1,0,0:0:0:0:
328,120,195005,1,0,0:0:0:0:
208,320,195190,5,0,0:0:0:0:
424,264,195375,1,0,0:0:0:0:
216,184,195560,1,0,0:0:0:0:
432,128,195746,1,0,0:0:0:0:
432,128,196116,5,0,0:0:0:0:
