osu file format v14

[General]
AudioFilename: audio.mp3
AudioLeadIn: 1000
PreviewTime: 76604
Countdown: 0
SampleSet: Soft
StackLeniency: 0.2
Mode: 0
LetterboxInBreaks: 0
WidescreenStoryboard: 1

[Editor]
Bookmarks: 24018
DistanceSpacing: 1
BeatDivisor: 4
GridSize: 8
TimelineZoom: 2.7

[Metadata]
Title:LOVE no Shirushi
TitleUnicode:LOVEのしるし
Artist:Silent Siren
ArtistUnicode:Silent Siren
Creator:MeowUsername
Version:Normal
Source:
Tags:japanese pop yoshida sumire umemura hinako yamauchi aina kurosaka yukako loveshiru ラブシル j-pop jpop female vocals vocalist
BeatmapID:3393802
BeatmapSetID:1565315

[Difficulty]
HPDrainRate:4
CircleSize:3.5
OverallDifficulty:4
ApproachRate:5.2
SliderMultiplier:1.2
SliderTickRate:1

[Events]
//Background and Video events
0,0,"soap.jpg",0,0
//Break Periods
//Storyboard Layer 0 (Background)
//Storyboard Layer 1 (Fail)
//Storyboard Layer 2 (Pass)
//Storyboard Layer 3 (Foreground)
//Storyboard Layer 4 (Overlay)
//Storyboard Sound Samples

[TimingPoints]
1222,394.736842105263,4,2,1,70,1,0
12077,-100,4,2,1,80,0,0
12274,-100,4,2,1,80,0,0
12471,-100,4,2,1,80,0,0
14643,-100,4,2,1,70,0,0
14741,-100,4,2,1,80,0,0
14938,-100,4,2,1,70,0,0
15037,-100,4,2,1,80,0,0
16222,-100,4,2,1,70,0,0
16320,-100,4,2,1,80,0,0
16517,-100,4,2,1,70,0,0
16616,-100,4,2,1,80,0,0
17800,-100,4,2,1,70,0,0
17899,-100,4,2,1,80,0,0
18096,-100,4,2,1,70,0,0
18195,-100,4,2,1,80,0,0
20958,-100,4,2,1,70,0,0
21057,-100,4,2,1,80,0,0
21254,-100,4,2,1,70,0,0
21353,-100,4,2,1,80,0,0
22537,-100,4,2,1,70,0,0
22636,-100,4,2,1,80,0,0
22833,-100,4,2,1,70,0,0
22932,-100,4,2,1,80,0,0
24116,-100,4,2,1,70,0,0
24215,-100,4,2,1,80,0,0
24412,-100,4,2,1,70,0,0
24511,-100,4,2,1,80,0,0
26287,-100,4,2,1,60,0,0
31123,-100,4,2,1,70,0,0
31221,-100,4,2,1,60,0,0
32011,-100,4,2,1,70,0,0
32405,-100,4,2,1,60,0,0
34281,-100,4,2,1,70,0,0
34380,-100,4,2,1,60,0,0
39116,-100,4,2,1,80,0,0
39313,-100,4,2,1,70,0,0
39511,-100,4,2,1,80,0,0
41090,-100,4,2,1,70,0,0
41287,-100,4,2,1,80,0,0
42668,-100,4,2,1,70,0,0
42866,-100,4,2,1,80,0,0
45333,-100,4,2,1,70,0,0
45432,-100,4,2,1,80,0,0
46912,-100,4,2,1,70,0,0
47011,-100,4,2,1,80,0,0
47208,-100,4,2,1,70,0,0
47406,-100,4,2,1,80,0,0
48491,-100,4,2,1,70,0,0
48590,-100,4,2,1,80,0,0
49182,-100,4,2,1,70,0,0
49379,-100,4,2,1,80,0,0
52143,-100,4,2,1,65,0,0
52735,-100,4,2,1,70,0,0
52932,-100,4,2,1,65,0,0
53327,-100,4,2,1,70,0,0
53524,-100,4,2,1,65,0,0
54116,-100,4,2,1,70,0,0
54314,-100,4,2,1,65,0,0
56484,-100,4,2,1,70,0,0
56682,-100,4,2,1,65,0,0
57274,-100,4,2,1,70,0,0
57471,-100,4,2,1,65,0,0
59642,-100,4,2,1,70,0,0
59840,-100,4,2,1,65,0,0
60432,-100,4,2,1,70,0,0
60629,-100,4,2,1,65,0,0
65366,-100,4,2,1,70,0,0
65564,-100,4,2,1,65,0,0
66155,-100,4,2,1,70,0,0
66353,-100,4,2,1,65,0,0
66747,-100,4,2,1,70,0,0
66945,-100,4,2,1,65,0,0
69314,-100,4,2,1,70,0,0
69511,-100,4,2,1,65,0,0
69905,-100,4,2,1,70,0,0
70103,-100,4,2,1,65,0,0
72274,-100,4,2,1,70,0,0
72471,-100,4,2,1,65,0,0
74248,-100,4,2,1,70,0,0
75432,-100,4,2,1,65,0,0
77011,-100,4,2,1,85,0,1
77307,-100,4,2,1,70,0,1
77406,-100,4,2,1,85,0,1
77603,-100,4,2,1,70,0,1
77800,-100,4,2,1,85,0,1
77998,-100,4,2,1,70,0,1
78195,-100,4,2,1,85,0,1
78590,-100,4,2,1,70,0,1
78787,-100,4,2,1,85,0,1
78984,-100,4,2,1,70,0,1
79182,-100,4,2,1,85,0,1
80465,-100,4,2,1,70,0,1
80564,-100,4,2,1,85,0,1
80761,-100,4,2,1,70,0,1
80958,-100,4,2,1,85,0,1
81156,-100,4,2,1,70,0,1
81353,-100,4,2,1,85,0,1
81747,-100,4,2,1,70,0,1
81945,-100,4,2,1,85,0,1
82142,-100,4,2,1,70,0,1
82340,-100,4,2,1,85,0,1
83721,-100,4,2,1,85,0,1
84314,-100,4,2,1,85,0,1
84708,-100,4,2,1,85,0,1
84906,-100,4,2,1,85,0,1
85300,-100,4,2,1,85,0,1
85498,-100,4,2,1,85,0,1
86879,-100,4,2,1,70,0,1
87077,-100,4,2,1,85,0,1
87274,-100,4,2,1,70,0,1
87471,-100,4,2,1,85,0,1
89939,-100,4,2,1,70,0,1
90037,-100,4,2,1,85,0,1
90235,-100,4,2,1,70,0,1
90432,-100,4,2,1,85,0,1
90629,-100,4,2,1,70,0,1
90827,-100,4,2,1,85,0,1
91221,-100,4,2,1,70,0,1
91419,-100,4,2,1,85,0,1
91616,-100,4,2,1,70,0,1
91814,-100,4,2,1,85,0,1
93096,-100,4,2,1,70,0,1
93195,-100,4,2,1,85,0,1
93393,-100,4,2,1,70,0,1
93590,-100,4,2,1,85,0,1
93787,-100,4,2,1,70,0,1
93985,-100,4,2,1,85,0,1
94379,-100,4,2,1,70,0,1
94577,-100,4,2,1,85,0,1
94774,-100,4,2,1,70,0,1
94971,-100,4,2,1,85,0,1
95168,-100,4,2,1,70,0,1
95366,-100,4,2,1,85,0,1
96155,-100,4,2,1,70,0,1
96353,-100,4,2,1,85,0,1
96747,-100,4,2,1,70,0,1
96945,-100,4,2,1,85,0,1
97340,-100,4,2,1,70,0,1
97537,-100,4,2,1,85,0,1
97932,-100,4,2,1,70,0,1
98129,-100,4,2,1,85,0,1
98524,-100,4,2,1,70,0,1
98721,-100,4,2,1,85,0,1
100497,-100,4,2,1,70,0,1
100695,-100,4,2,1,85,0,1
102274,-100,4,2,1,80,0,0

[Colours]
Combo1 : 255,128,128
Combo2 : 128,255,255
Combo3 : 255,255,149
Combo4 : 53,255,154

[HitObjects]
12,287,1222,6,0,L|1:222,2,60,2|0|0,0:0|0:0|0:0,0:0:0:0:
24,345,1814,2,0,P|84:365|135:343,1,120
243,201,2800,6,0,L|253:136,2,60,2|0|0,0:0|0:0|0:0,0:0:0:0:
227,259,3392,2,0,P|166:279|115:257,1,120
19,107,4379,6,0,L|8:42,2,60,2|0|0,0:0|0:0|0:0,0:0:0:0:
31,165,4971,2,0,P|91:185|142:163,1,120
287,60,5958,6,0,P|381:83|393:113,1,120,2|0,0:0|0:0,0:0:0:0:
414,149,6550,2,0,L|400:280,1,120,2|0,0:0|0:0,0:0:0:0:
387,327,7143,1,2,0:0:0:0:
329,342,7340,1,0,0:0:0:0:
287,299,7537,6,0,L|226:305,2,60,4|0|0,0:3|3:0|3:0,0:0:0:0:
287,238,8129,2,0,P|263:195|196:173,1,120,0|0,3:0|3:0,0:0:0:0:
28,232,9116,6,0,L|21:292,2,60,4|0|0,0:3|3:0|3:0,0:0:0:0:
37,172,9708,2,0,P|57:128|123:102,1,120,0|0,3:0|3:0,0:0:0:0:
292,45,10695,6,0,L|352:38,2,60,4|0|0,0:3|3:0|3:0,0:0:0:0:
232,55,11287,2,0,P|245:113|295:144,1,120,0|0,3:0|3:0,0:0:0:0:
399,201,12077,2,0,L|406:272,1,60,4|0,0:0|0:0,0:0:0:0:
413,319,12471,6,0,P|457:343|493:341,2,60,4|0|0,3:0|3:0|3:0,0:0:0:0:
352,317,13064,1,0,3:0:0:0:
305,355,13261,1,0,3:0:0:0:
245,361,13458,1,2,3:0:0:0:
258,241,13853,6,0,L|274:119,1,120,6|0,0:0|1:0,0:0:0:0:
301,4,14643,1,0,0:0:0:0:
181,2,15037,1,0,1:0:0:0:
77,62,15432,6,0,L|93:184,1,120,2|0,0:0|1:0,0:0:0:0:
56,295,16222,1,0,0:0:0:0:
172,322,16616,1,0,1:0:0:0:
232,216,17011,6,0,P|295:181|354:183,1,120,2|0,0:0|1:0,0:0:0:0:
426,264,17800,1,0,0:0:0:0:
499,169,18195,1,0,1:0:0:0:
452,58,18590,5,2,0:0:0:0:
395,39,18787,1,2,0:0:0:0:
336,23,18985,2,0,L|259:36,1,60,0|2,1:0|0:0,0:0:0:0:
224,61,19379,1,2,0:0:0:0:
167,80,19576,1,2,0:0:0:0:
108,96,19774,2,0,L|31:83,1,60,0|2,1:0|0:0,0:0:0:0:
11,133,20169,6,0,L|26:278,1,120,4|0,0:0|1:0,0:0:0:0:
83,356,20958,1,0,0:0:0:0:
181,286,21353,1,0,1:0:0:0:
277,357,21748,6,0,P|360:344|388:301,1,120,2|0,0:0|1:0,0:0:0:0:
342,205,22537,1,0,0:0:0:0:
221,202,22932,1,0,1:0:0:0:
118,139,23327,6,0,L|-12:128,1,120,2|0,0:0|1:0,0:0:0:0:
43,17,24116,1,0,0:0:0:0:
161,38,24511,1,0,1:0:0:0:
277,9,24906,6,0,P|347:20|386:72,1,120,2|0,0:0|1:0,0:0:0:0:
451,149,25695,2,0,L|458:219,1,60,2|2,0:0|0:0,0:0:0:0:
440,266,26090,1,0,1:0:0:0:
381,278,26287,1,0,1:0:0:0:
321,289,26485,6,0,B|265:297|265:297|263:303|263:303|199:312,2,120,4|0|0,0:0|0:0|0:0,0:0:0:0:
328,109,27866,2,0,P|301:95|271:93,1,60,0|2,3:0|0:0,0:0:0:0:
69,322,29050,1,2,0:0:0:0:
129,318,29248,2,0,L|207:314,1,60,2|2,0:0|0:0,0:0:0:0:
247,331,29643,6,0,B|306:328|306:328|306:333|306:333|363:332,2,120,2|0|0,0:0|0:0|0:0,0:0:0:0:
107,216,31024,2,0,P|84:182|81:148,1,60,2|2,0:0|0:0,0:0:0:0:
31,128,31419,2,0,P|38:87|60:61,1,60
226,42,32208,1,2,0:0:0:0:
285,33,32406,2,0,L|352:25,1,60,2|2,0:0|0:0,0:0:0:0:
399,47,32800,6,0,B|404:109|404:109|398:111|398:111|404:184,2,120,2|0|0,0:0|0:0|0:0,0:0:0:0:
494,200,34182,2,0,P|478:233|455:250,1,60,2|2,0:0|0:0,0:0:0:0:
447,306,34577,2,0,P|398:316|378:311,1,60
210,291,35366,1,2,0:0:0:0:
203,231,35564,2,0,L|197:167,1,60,2|2,0:0|0:0,0:0:0:0:
192,111,35958,6,0,B|249:101|249:101|251:107|251:107|306:100,2,120,2|0|0,0:0|0:0|0:0,0:0:0:0:
74,84,37143,1,4,0:3:0:0:
25,119,37340,1,2,3:0:0:0:
38,177,37537,2,0,L|41:246,1,60,4|4,0:0|0:3,0:0:0:0:
79,282,37932,2,0,L|147:279,1,60,6|6,3:0|3:0,0:0:0:0:
199,277,38327,1,6,3:0:0:0:
213,37,39116,6,0,P|249:44|309:117,1,120,4|0,0:0|1:0,0:0:0:0:
317,161,39708,1,2,0:0:0:0:
375,146,39906,2,0,L|456:149,1,60,4|2,0:3|0:0,0:0:0:0:
491,167,40300,1,0,1:1:0:0:
459,282,40695,5,4,0:3:0:0:
406,254,40893,2,0,P|355:257|299:319,1,120,2|2,0:0|0:0,0:0:0:0:
304,361,41485,2,0,L|218:360,1,60,4|0,3:0|1:1,0:0:0:0:
184,366,41879,1,0,1:0:0:0:
75,313,42274,5,4,0:3:0:0:
49,258,42471,2,0,L|43:171,1,60,2|0,0:0|1:3,0:0:0:0:
72,144,42866,1,2,0:0:0:0:
174,78,43261,2,0,P|253:65|293:97,1,120,2|2,0:0|0:0,0:0:0:0:
317,134,43853,6,0,L|326:207,1,60,4|2,0:3|0:0,0:0:0:0:
363,239,44248,2,0,L|355:310,1,60,0|2,1:0|0:0,0:0:0:0:
409,325,44643,2,0,L|479:318,1,60,4|0,0:3|3:0,0:0:0:0:
498,267,45037,2,0,L|502:200,1,60,0|2,1:0|0:0,0:0:0:0:
508,147,45432,1,4,0:0:0:0:
441,46,45827,6,0,P|393:55|373:84,1,60,0|2,1:2|0:0,0:0:0:0:
327,74,46221,2,0,P|319:113|324:148,1,60,4|2,0:3|0:0,0:0:0:0:
349,185,46616,1,0,1:0:0:0:
235,224,47011,2,0,L|105:213,1,120,4|0,0:3|1:0,0:0:0:0:
55,205,47603,2,0,P|45:133|85:80,1,120,2|4,0:0|0:3,0:0:0:0:
119,64,48195,1,0,1:0:0:0:
233,27,48590,6,0,L|243:153,1,120,4|0,0:3|1:0,0:0:0:0:
361,134,49379,2,0,L|351:260,1,120,4|0,0:3|1:0,0:0:0:0:
377,308,49971,2,0,P|325:280|257:308,1,120,2|2,0:0|0:0,0:0:0:0:
241,349,50564,1,0,1:0:0:0:
122,363,50958,2,0,L|114:291,1,60,0|0,1:0|3:0,0:0:0:0:
109,243,51353,1,2,0:0:0:0:
40,144,51748,5,4,0:0:0:0:
132,67,52143,2,0,L|118:-18,2,60,2|2|0,0:0|0:0|1:0,0:0:0:0:
198,168,52932,1,2,0:0:0:0:
247,201,53129,2,0,L|238:325,1,120,0|2,1:0|0:0,0:0:0:0:
354,350,53919,2,0,L|345:230,1,120,0|2,1:0|0:0,0:0:0:0:
348,170,54511,1,2,0:0:0:0:
426,79,54906,5,4,0:0:0:0:
483,184,55300,2,0,L|478:267,1,60,2|0,0:0|0:0,0:0:0:0:
475,303,55695,1,0,1:0:0:0:
427,340,55893,2,0,L|342:350,1,60,2|2,0:0|0:0,0:0:0:0:
312,322,56287,2,2,L|298:182,1,120,0|2,1:0|0:0,0:0:0:0:
183,174,57077,2,0,L|171:293,1,120,0|2,1:0|0:0,0:0:0:0:
164,353,57669,1,0,1:0:0:0:
44,361,58064,5,4,0:0:0:0:
37,241,58458,2,0,L|31:109,1,120,2|0,0:0|1:0,0:0:0:0:
119,39,59248,1,2,0:0:0:0:
178,36,59445,2,0,L|306:32,1,120,0|2,1:0|0:0,0:0:0:0:
336,146,60235,2,0,L|210:140,1,120,0|2,1:0|0:0,0:0:0:0:
156,136,60827,1,2,0:0:0:0:
161,255,61221,5,4,0:0:0:0:
265,313,61616,2,0,L|256:386,2,60,2|0|0,0:0|0:0|1:0,0:0:0:0:
336,215,62406,2,0,L|329:144,1,60,2|0,0:0|1:0,0:0:0:0:
365,40,62998,1,2,0:0:0:0:
309,17,63195,2,0,L|232:13,1,60,2|2,0:0|0:0,0:0:0:0:
212,61,63590,2,0,L|136:65,1,60,2|2,0:0|0:0,0:0:0:0:
107,105,63985,2,0,L|32:95,1,60,0|2,1:0|0:0,0:0:0:0:
2,136,64379,5,4,0:0:0:0:
39,250,64774,2,0,L|175:263,1,120,2|0,0:0|1:0,0:0:0:0:
278,267,65564,1,2,0:0:0:0:
293,209,65761,1,2,0:0:0:0:
304,150,65958,2,0,L|164:159,1,120,4|2,0:3|0:0,0:0:0:0:
124,155,66550,2,0,L|141:32,1,120,0|2,1:0|0:0,0:0:0:0:
198,18,67143,1,2,0:0:0:0:
317,14,67537,5,4,0:0:0:0:
406,93,67932,2,0,L|412:175,1,60,2|2,0:0|0:0,0:0:0:0:
448,199,68327,2,0,L|442:284,1,60,0|2,1:0|0:0,0:0:0:0:
417,312,68721,1,2,0:0:0:0:
360,333,68919,1,2,0:0:0:0:
309,300,69116,2,0,L|166:315,1,120,4|2,0:3|0:0,0:0:0:0:
129,312,69708,2,0,L|141:191,1,120,0|2,1:0|0:0,0:0:0:0:
98,149,70300,1,0,1:0:0:0:
44,41,70695,5,4,0:0:0:0:
160,11,71090,1,2,0:0:0:0:
216,29,71287,2,0,L|355:15,1,120,2|4,0:0|0:3,0:0:0:0:
395,21,71879,1,2,0:0:0:0:
442,58,72077,2,0,L|453:185,2,120,4|2|2,0:0|0:0|0:0,0:0:0:0:
348,132,73261,1,2,0:0:0:0:
355,191,73458,2,0,L|362:274,1,60,2|2,0:0|0:0,0:0:0:0:
365,310,73853,5,4,0:0:0:0:
31,44,75432,5,0,3:0:0:0:
66,92,75629,1,0,3:0:0:0:
126,96,75827,2,0,L|211:84,1,60,0|0,3:0|3:0,0:0:0:0:
243,101,76221,2,0,L|315:109,1,60,0|0,3:0|3:0,0:0:0:0:
360,90,76616,1,0,1:0:0:0:
438,180,77011,6,0,B|463:208|463:208|455:296,2,120,4|0|4,0:0|1:0|3:3,0:0:0:0:
346,256,78195,1,0,1:0:0:0:
297,291,78393,2,0,P|243:286|224:271,1,60,2|4,0:0|0:3,0:0:0:0:
179,291,78787,2,0,P|137:249|133:230,1,60,2|0,0:0|1:0,0:0:0:0:
135,190,79182,1,2,0:0:0:0:
146,70,79577,2,0,L|85:40,2,60,2|0|2,0:0|1:0|0:0,0:0:0:0:
201,47,80169,6,0,B|287:35|287:35|323:55,2,120,4|0|4,0:3|1:0|3:3,0:0:0:0:
283,134,81353,1,0,1:0:0:0:
329,172,81550,2,0,P|342:218|338:238,1,60,2|4,0:0|0:3,0:0:0:0:
367,282,81945,2,0,P|346:323|316:337,1,60,2|0,0:0|1:0,0:0:0:0:
275,324,82340,2,0,L|268:387,2,60,2|2|2,0:0|0:3|0:0,0:0:0:0:
215,314,82932,1,0,1:0:0:0:
102,271,83327,6,0,B|69:238|69:238|73:156,1,120,4|2,0:0|0:0,0:0:0:0:
68,104,83919,2,0,P|123:154|171:118,1,120,4|2,0:0|0:0,0:0:0:0:
198,95,84511,2,0,L|307:86,1,60,4|0,0:0|0:0,0:0:0:0:
317,83,84906,1,2,0:0:0:0:
366,116,85103,2,0,L|375:225,1,60,4|0,0:0|0:0,0:0:0:0:
378,235,85498,1,2,0:0:0:0:
382,294,85695,1,4,0:0:0:0:
283,362,86090,1,0,1:0:0:0:
223,359,86287,1,0,1:0:0:0:
162,356,86485,6,0,L|78:344,1,60,4|0,0:0|0:0,0:0:0:0:
61,303,86879,1,2,1:2:0:0:
58,242,87077,2,0,P|130:234|164:182,1,120,2|2,0:0|0:0,0:0:0:0:
143,141,87669,1,0,1:0:0:0:
120,85,87866,1,2,0:0:0:0:
101,27,88064,2,0,L|223:17,1,120,4|0,0:3|1:0,0:0:0:0:
336,49,88853,1,0,3:0:0:0:
324,107,89050,1,0,3:0:0:0:
315,166,89248,1,0,3:0:0:0:
304,224,89445,1,0,3:0:0:0:
293,283,89643,6,0,B|391:294|391:294|410:272,2,120,4|0|4,0:0|1:0|3:3,0:0:0:0:
183,333,90827,1,0,1:0:0:0:
124,345,91024,2,0,P|95:338|66:310,1,60,2|4,0:0|0:3,0:0:0:0:
15,299,91419,2,0,P|4:264|12:224,1,60,2|0,0:0|1:0,0:0:0:0:
38,190,91814,2,0,L|31:105,1,60,2|4,0:0|0:3,0:0:0:0:
39,70,92208,1,2,0:0:0:0:
158,54,92603,1,2,0:0:0:0:
206,89,92800,6,0,B|211:171|211:171|194:207,2,120,4|0|4,0:3|1:3|3:3,0:3:0:0:
311,147,93985,1,0,1:0:0:0:
369,133,94182,2,0,P|394:105|401:65,1,60,2|4,0:0|0:3,3:0:0:0:
370,31,94577,2,0,L|293:23,1,60,2|0,0:0|1:0,0:0:0:0:
252,40,94971,1,2,0:0:0:0:
132,53,95366,1,4,0:3:0:0:
101,104,95564,2,0,L|109:184,1,60,0|0,1:0|1:0,0:0:0:0:
141,211,95958,6,0,P|172:279|149:332,1,120,4|2,0:0|0:0,0:0:0:0:
127,370,96550,2,0,B|184:339|184:339|284:351,1,120,4|2,0:0|0:0,0:0:0:0:
297,359,97143,2,0,L|308:269,1,60,4|0,0:0|0:0,0:0:0:0:
309,239,97537,1,2,0:0:0:0:
351,196,97735,2,0,L|342:107,1,60,4|0,0:0|0:0,0:0:0:0:
342,76,98129,1,2,0:0:0:0:
344,15,98327,2,0,L|423:2,2,60,4|0|2,0:0|0:0|0:0,0:0:0:0:
225,35,99116,6,0,B|146:39|183:82|110:93,1,120,4|2,0:0|0:0,0:0:0:0:
69,117,99708,2,0,P|120:120|143:193,1,120,4|2,0:0|0:0,0:0:0:0:
127,233,100300,1,4,0:0:0:0:
229,294,100695,6,0,L|302:286,1,60,2|0,0:0|0:0,0:0:0:0:
348,277,101090,1,4,0:0:0:0:
424,186,101485,2,0,L|355:171,1,60,0|0,3:0|3:0,0:0:0:0:
307,164,101879,1,0,3:0:0:0:
349,51,102274,5,4,0:0:0:0:
100,92,103853,5,2,0:3:0:0:
42,80,104050,2,0,P|29:42|30:10,2,60,4|4|4,0:3|0:3|0:3,0:0:0:0:
18,135,104643,2,0,L|22:199,1,60,0|0,3:0|3:0,0:0:0:0:
30,254,105037,1,2,3:0:0:0:
37,373,105432,1,4,0:0:0:0:
