osu file format v14

[General]
AudioFilename: audio.mp3
AudioLeadIn: 1000
PreviewTime: 76604
Countdown: 0
SampleSet: Soft
StackLeniency: 0.2
Mode: 0
LetterboxInBreaks: 0
WidescreenStoryboard: 1

[Editor]
Bookmarks: 24018
DistanceSpacing: 1
BeatDivisor: 4
GridSize: 16
TimelineZoom: 2.7

[Metadata]
Title:LOVE no Shirushi
TitleUnicode:LOVEのしるし
Artist:Silent Siren
ArtistUnicode:Silent Siren
Creator:MeowUsername
Version:Insane
Source:
Tags:japanese pop yoshida sumire umemura hinako yamauchi aina kurosaka yukako loveshiru ラブシル j-pop jpop female vocals vocalist
BeatmapID:3393039
BeatmapSetID:1565315

[Difficulty]
HPDrainRate:5
CircleSize:4
OverallDifficulty:7.5
ApproachRate:8
SliderMultiplier:1.8
SliderTickRate:1

[Events]
//Background and Video events
0,0,"soap.jpg",0,0
//Break Periods
//Storyboard Layer 0 (Background)
//Storyboard Layer 1 (Fail)
//Storyboard Layer 2 (Pass)
//Storyboard Layer 3 (Foreground)
//Storyboard Layer 4 (Overlay)
//Storyboard Sound Samples

[TimingPoints]
1222,394.736842105263,4,2,1,70,1,0
1814,-200,4,2,1,70,0,0
12077,-200,4,2,1,80,0,0
12669,-100,4,2,1,80,0,0
12866,-66.6666666666667,4,2,1,80,0,0
14642,-66.6666666666667,4,2,1,70,0,0
14741,-66.6666666666667,4,2,1,80,0,0
14938,-66.6666666666667,4,2,1,70,0,0
15037,-66.6666666666667,4,2,1,80,0,0
16221,-66.6666666666667,4,2,1,70,0,0
16320,-66.6666666666667,4,2,1,80,0,0
16517,-66.6666666666667,4,2,1,70,0,0
16616,-66.6666666666667,4,2,1,80,0,0
17800,-66.6666666666667,4,2,1,70,0,0
17899,-66.6666666666667,4,2,1,80,0,0
18096,-66.6666666666667,4,2,1,70,0,0
18195,-66.6666666666667,4,2,1,80,0,0
20958,-66.6666666666667,4,2,1,70,0,0
21057,-66.6666666666667,4,2,1,80,0,0
21254,-66.6666666666667,4,2,1,70,0,0
21353,-66.6666666666667,4,2,1,80,0,0
22537,-66.6666666666667,4,2,1,70,0,0
22636,-66.6666666666667,4,2,1,80,0,0
22833,-66.6666666666667,4,2,1,70,0,0
22932,-66.6666666666667,4,2,1,80,0,0
24116,-66.6666666666667,4,2,1,70,0,0
24215,-66.6666666666667,4,2,1,80,0,0
24412,-66.6666666666667,4,2,1,70,0,0
24511,-66.6666666666667,4,2,1,80,0,0
26287,-66.6666666666667,4,2,1,60,0,0
26485,-133.333333333333,4,2,1,60,0,0
31123,-133.333333333333,4,2,1,70,0,0
31221,-133.333333333333,4,2,1,60,0,0
32011,-133.333333333333,4,2,1,70,0,0
32405,-133.333333333333,4,2,1,60,0,0
34281,-133.333333333333,4,2,1,70,0,0
34380,-133.333333333333,4,2,1,60,0,0
39116,-66.6666666666667,4,2,1,80,0,0
39313,-66.6666666666667,4,2,1,70,0,0
39511,-66.6666666666667,4,2,1,80,0,0
39708,-100,4,2,1,80,0,0
41090,-100,4,2,1,70,0,0
41287,-100,4,2,1,80,0,0
42668,-100,4,2,1,70,0,0
42866,-100,4,2,1,80,0,0
45333,-100,4,2,1,70,0,0
45432,-100,4,2,1,80,0,0
46912,-100,4,2,1,70,0,0
47011,-100,4,2,1,80,0,0
47208,-100,4,2,1,70,0,0
47406,-100,4,2,1,80,0,0
48491,-100,4,2,1,70,0,0
48590,-100,4,2,1,80,0,0
49182,-100,4,2,1,70,0,0
49379,-100,4,2,1,80,0,0
51748,-200,4,2,1,80,0,0
52143,-200,4,2,1,65,0,0
52735,-200,4,2,1,70,0,0
52932,-200,4,2,1,65,0,0
53327,-200,4,2,1,70,0,0
53524,-200,4,2,1,65,0,0
54116,-200,4,2,1,70,0,0
54314,-200,4,2,1,65,0,0
56484,-200,4,2,1,70,0,0
56682,-200,4,2,1,65,0,0
57274,-200,4,2,1,70,0,0
57471,-200,4,2,1,65,0,0
59642,-200,4,2,1,70,0,0
59840,-200,4,2,1,65,0,0
60432,-200,4,2,1,70,0,0
60629,-200,4,2,1,65,0,0
65366,-200,4,2,1,70,0,0
65564,-200,4,2,1,65,0,0
66155,-200,4,2,1,70,0,0
66353,-200,4,2,1,65,0,0
66747,-200,4,2,1,70,0,0
66945,-200,4,2,1,65,0,0
69314,-200,4,2,1,70,0,0
69511,-200,4,2,1,65,0,0
69905,-200,4,2,1,70,0,0
70103,-200,4,2,1,65,0,0
72274,-200,4,2,1,70,0,0
72471,-200,4,2,1,65,0,0
74248,-200,4,2,1,70,0,0
75432,-200,4,2,1,65,0,0
75827,-100,4,2,1,65,0,0
77011,-50,4,2,1,85,0,1
77307,-50,4,2,1,70,0,1
77406,-50,4,2,1,85,0,1
77603,-50,4,2,1,70,0,1
77800,-50,4,2,1,85,0,1
77998,-50,4,2,1,70,0,1
78195,-50,4,2,1,85,0,1
78393,-66.6666666666667,4,2,1,85,0,1
78590,-66.6666666666667,4,2,1,70,0,1
78787,-66.6666666666667,4,2,1,85,0,1
78984,-66.6666666666667,4,2,1,70,0,1
79182,-100,4,2,1,85,0,1
80169,-62.5,4,2,1,85,0,1
80465,-62.5,4,2,1,70,0,1
80564,-62.5,4,2,1,85,0,1
80761,-62.5,4,2,1,70,0,1
80958,-62.5,4,2,1,85,0,1
81156,-62.5,4,2,1,70,0,1
81353,-62.5,4,2,1,85,0,1
81747,-62.5,4,2,1,70,0,1
81945,-62.5,4,2,1,85,0,1
82142,-62.5,4,2,1,70,0,1
82340,-62.5,4,2,1,85,0,1
86879,-62.5,4,2,1,70,0,1
87077,-62.5,4,2,1,85,0,1
87274,-62.5,4,2,1,70,0,1
87471,-62.5,4,2,1,85,0,1
89643,-50,4,2,1,85,0,1
89939,-50,4,2,1,70,0,1
90037,-50,4,2,1,85,0,1
90235,-50,4,2,1,70,0,1
90432,-50,4,2,1,85,0,1
90629,-50,4,2,1,70,0,1
90827,-50,4,2,1,85,0,1
91024,-62.5,4,2,1,85,0,1
91221,-62.5,4,2,1,70,0,1
91419,-62.5,4,2,1,85,0,1
91616,-62.5,4,2,1,70,0,1
91814,-100,4,2,1,85,0,1
92800,-62.5,4,2,1,85,0,1
93096,-62.5,4,2,1,70,0,1
93195,-62.5,4,2,1,85,0,1
93393,-62.5,4,2,1,70,0,1
93590,-62.5,4,2,1,85,0,1
93787,-62.5,4,2,1,70,0,1
93985,-62.5,4,2,1,85,0,1
94379,-62.5,4,2,1,70,0,1
94577,-62.5,4,2,1,85,0,1
94774,-62.5,4,2,1,70,0,1
94971,-62.5,4,2,1,85,0,1
95168,-62.5,4,2,1,70,0,1
95366,-62.5,4,2,1,85,0,1
96156,-62.5,4,2,1,70,0,1
96353,-62.5,4,2,1,85,0,1
96748,-62.5,4,2,1,70,0,1
96945,-62.5,4,2,1,85,0,1
97341,-62.5,4,2,1,70,0,1
97537,-62.5,4,2,1,85,0,1
97933,-62.5,4,2,1,70,0,1
98129,-62.5,4,2,1,85,0,1
98525,-62.5,4,2,1,70,0,1
98721,-62.5,4,2,1,85,0,1
99708,-62.5,4,2,1,85,0,1
100497,-62.5,4,2,1,70,0,1
100695,-62.5,4,2,1,85,0,1
101879,-100,4,2,1,85,0,1
102274,-100,4,2,1,80,0,0

[Colours]
Combo1 : 255,128,128
Combo2 : 128,255,255
Combo3 : 255,255,149
Combo4 : 53,255,154

[HitObjects]
63,171,1222,5,2,0:0:0:0:
109,237,1419,1,0,0:0:0:0:
186,213,1616,1,0,0:0:0:0:
254,257,1814,2,0,L|349:271,1,90
495,21,2800,5,2,0:0:0:0:
449,87,2997,1,0,0:0:0:0:
372,63,3194,1,0,0:0:0:0:
304,107,3392,2,0,L|208:121,1,90
54,345,4379,5,2,0:0:0:0:
100,279,4576,1,0,0:0:0:0:
177,303,4773,1,0,0:0:0:0:
245,259,4971,2,0,L|340:244,1,90
333,245,5958,6,0,P|360:296|402:305,1,90,2|0,0:0|0:0,0:0:0:0:
456,152,6550,2,0,P|418:195|424:237,1,90,2|0,0:0|0:0,0:0:0:0:
338,165,7143,2,0,L|276:160,1,45,2|0,0:0|0:0,0:0:0:0:
215,150,7537,5,4,0:3:0:0:
145,80,7735,1,0,3:0:0:0:
145,80,7833,1,0,3:0:0:0:
145,80,7932,2,0,L|144:50,2,22.5,0|0|0,3:0|3:0|3:0,0:0:0:0:
98,219,8327,2,0,L|97:249,4,22.5,0|0|0|0|0,3:0|3:0|3:0|3:0|3:0,0:0:0:0:
58,131,8919,1,0,3:0:0:0:
58,131,9018,1,0,3:0:0:0:
58,131,9117,5,4,0:3:0:0:
198,193,9314,1,0,3:0:0:0:
198,193,9412,1,0,3:0:0:0:
198,193,9511,2,0,L|228:192,2,22.5,0|0|0,3:0|3:0|3:0,0:0:0:0:
346,293,9906,2,0,L|316:292,4,22.5,0|0|0|0|0,3:0|3:0|3:0|3:0|3:0,0:0:0:0:
227,295,10498,1,0,3:0:0:0:
227,295,10597,1,0,3:0:0:0:
227,295,10696,5,4,0:3:0:0:
338,180,10893,1,0,3:0:0:0:
338,180,10991,1,0,3:0:0:0:
338,180,11090,2,0,L|337:150,2,22.5,0|0|0,3:0|3:0|3:0,0:0:0:0:
446,56,11485,2,0,L|447:26,4,22.5,0|0|0|0|0,3:0|3:0|3:0|3:0|3:0,0:0:0:0:
438,339,12077,1,4,0:0:0:0:
438,339,12471,6,0,L|400:336,1,22.5,4|0,3:0|0:0,0:0:0:0:
324,255,12669,2,0,P|331:276|332:298,1,45,0|0,3:0|0:0,0:0:0:0:
262,349,12866,2,0,L|164:343,1,67.5000025749208,0|0,3:0|0:0,0:0:0:0:
206,191,13064,1,0,3:0:0:0:
240,221,13162,1,0,3:0:0:0:
222,264,13261,1,0,3:0:0:0:
176,260,13360,1,0,3:0:0:0:
166,215,13458,1,2,3:0:0:0:
399,38,13853,6,0,B|362:35|334:60|334:60|314:96|279:97,1,135.000005149842,6|2,0:0|0:0,0:0:0:0:
473,77,14248,1,0,1:0:0:0:
400,129,14445,1,2,0:0:0:0:
400,129,14544,2,0,L|405:214,1,67.5000025749208,2|0,0:0|0:0,0:0:0:0:
489,166,14741,1,2,0:0:0:0:
489,166,14840,2,0,L|494:251,1,67.5000025749208,2|0,0:0|0:0,0:0:0:0:
425,277,15037,2,0,L|280:290,1,135.000005149842,0|2,1:0|0:0,0:0:0:0:
136,296,15432,6,0,B|99:299|71:274|71:274|51:238|16:237,1,135.000005149842,2|2,0:0|0:0,0:0:0:0:
210,257,15827,1,0,1:0:0:0:
137,205,16024,1,2,0:0:0:0:
137,205,16123,2,0,L|142:120,1,67.5000025749208,2|0,0:0|0:0,0:0:0:0:
226,168,16320,1,2,0:0:0:0:
226,168,16419,2,0,L|231:83,1,67.5000025749208,2|0,0:0|0:0,0:0:0:0:
162,57,16616,2,0,L|17:44,1,135.000005149842,0|2,1:0|0:0,0:0:0:0:
286,18,17011,6,0,P|364:45|377:92,1,135.000005149842,2|2,0:0|0:0,0:0:0:0:
492,23,17406,1,0,1:0:0:0:
468,113,17603,1,2,0:0:0:0:
468,113,17702,2,0,L|474:194,1,67.5000025749208,2|0,0:0|0:0,0:0:0:0:
392,176,17899,1,2,0:0:0:0:
392,176,17998,2,0,L|398:257,1,67.5000025749208,2|0,0:0|0:0,0:0:0:0:
482,265,18195,2,0,L|291:285,1,135.000005149842,0|2,1:0|0:0,0:0:0:0:
116,329,18590,5,2,0:0:0:0:
92,223,18787,1,2,0:0:0:0:
26,325,18985,1,0,1:0:0:0:
177,262,19182,1,2,0:0:0:0:
91,140,19379,1,2,0:0:0:0:
114,140,19478,1,2,0:0:0:0:
135,151,19577,1,2,0:0:0:0:
296,18,19774,2,0,P|216:42|200:105,1,135.000005149842,0|2,1:0|0:0,0:0:0:0:
420,307,20169,6,0,P|455:229|453:162,1,135.000005149842,4|2,0:0|0:0,0:0:0:0:
339,338,20564,1,0,1:0:0:0:
257,306,20761,1,2,0:0:0:0:
257,306,20860,2,0,L|161:312,1,67.5000025749208,2|0,0:0|0:0,0:0:0:0:
308,233,21057,1,2,0:0:0:0:
308,233,21156,2,0,L|302:137,1,67.5000025749208,2|0,0:0|0:0,0:0:0:0:
178,226,21353,2,0,L|24:235,1,135.000005149842,0|2,1:0|0:0,0:0:0:0:
420,77,21748,6,0,P|455:155|453:222,1,135.000005149842,2|2,0:0|0:0,0:0:0:0:
339,46,22143,1,0,1:0:0:0:
257,78,22340,1,2,0:0:0:0:
257,78,22439,2,0,L|161:72,1,67.5000025749208,2|0,0:0|0:0,0:0:0:0:
308,151,22636,1,2,0:0:0:0:
308,151,22735,2,0,L|302:247,1,67.5000025749208,2|0,0:0|0:0,0:0:0:0:
178,158,22932,2,0,L|24:149,1,135.000005149842,0|2,1:0|0:0,0:0:0:0:
369,317,23327,6,0,B|406:314|434:339|434:339|454:375|489:376,1,135.000005149842,2|2,0:0|0:0,0:0:0:0:
296,364,23721,1,0,1:0:0:0:
238,306,23919,1,2,0:0:0:0:
238,306,24018,2,0,L|234:228,1,67.5000025749208,2|0,0:0|0:0,0:0:0:0:
317,252,24215,1,2,0:0:0:0:
317,252,24314,2,0,L|313:174,1,67.5000025749208,2|0,0:0|0:0,0:0:0:0:
231,156,24511,2,0,L|57:146,1,135.000005149842,0|2,1:0|0:0,0:0:0:0:
360,96,24906,5,2,0:0:0:0:
266,52,25103,1,2,0:0:0:0:
438,139,25300,1,0,1:0:0:0:
417,30,25498,1,2,0:0:0:0:
455,224,25695,1,2,0:0:0:0:
482,219,25794,1,2,0:0:0:0:
502,201,25893,1,2,0:0:0:0:
399,293,26090,1,0,1:0:0:0:
307,281,26287,1,0,1:0:0:0:
286,282,26386,1,0,1:0:0:0:
262,283,26485,6,0,L|167:286,1,67.5000025749208,4|0,0:0|0:0,0:0:0:0:
55,233,26879,2,0,L|123:231,1,67.5000025749208
219,153,27274,2,0,L|151:155,1,67.5000025749208
49,67,27866,1,0,3:0:0:0:
49,67,27965,1,0,3:0:0:0:
49,67,28064,2,0,B|31:36|31:36|149:64,1,135.000005149842,2|0,0:0|0:0,0:0:0:0:
418,301,29050,5,2,0:0:0:0:
438,219,29248,1,2,0:0:0:0:
359,205,29445,1,2,0:0:0:0:
335,285,29643,6,0,L|325:353,1,67.5000025749208,2|0,0:0|0:0,0:0:0:0:
300,135,30037,2,0,L|310:69,1,67.5000025749208
211,248,30432,2,0,L|202:315,1,67.5000025749208
94,144,31024,1,2,0:0:0:0:
94,144,31123,1,2,0:0:0:0:
94,144,31221,2,0,B|63:125|63:125|81:235,1,135.000005149842,2|0,0:0|0:0,0:0:0:0:
78,222,32011,2,0,P|151:196|196:230,1,135.000005149842,2|2,0:0|0:0,0:0:0:0:
193,225,32800,6,0,L|269:221,1,67.5000025749208,2|0,0:0|0:0,0:0:0:0:
415,159,33195,2,0,L|339:163,1,67.5000025749208
239,83,33590,2,0,L|315:79,1,67.5000025749208
484,32,34182,1,2,0:0:0:0:
484,32,34281,1,2,0:0:0:0:
484,32,34380,2,0,B|502:1|502:1|384:29,1,135.000005149842,2|0,0:0|0:0,0:0:0:0:
222,273,35366,5,2,0:0:0:0:
238,362,35563,1,2,0:0:0:0:
149,378,35761,1,2,0:0:0:0:
131,287,35958,6,0,L|55:302,1,67.5000025749208,2|0,0:0|0:0,0:0:0:0:
303,203,36353,2,0,L|379:188,1,67.5000025749208
104,178,36747,2,0,L|28:193,1,67.5000025749208
222,70,37143,1,4,0:3:0:0:
203,164,37340,1,2,3:0:0:0:
364,21,37537,5,4,0:0:0:0:
364,21,37735,2,0,L|379:103,1,67.5000025749208,4|6,0:3|3:0,0:0:0:0:
442,179,38129,1,6,3:0:0:0:
327,350,38327,1,6,3:0:0:0:
327,350,38721,2,0,L|322:293,3,33.7500012874604,2|2|2|2,0:0|0:0|0:0|0:0,0:0:0:0:
333,236,39116,6,0,B|250:232|286:282|190:278,1,135.000005149842,4|0,0:0|0:0,0:0:0:0:
97,189,39511,1,0,1:0:0:0:
133,327,39708,2,0,P|59:309|37:286,1,90,2|4,0:0|0:3,0:0:0:0:
97,189,40103,1,2,0:0:0:0:
4,227,40300,1,0,1:1:0:0:
55,109,40498,1,2,0:0:0:0:
186,201,40695,5,4,0:3:0:0:
144,108,40893,2,0,P|149:49|171:12,1,90,2|0,0:0|1:0,0:0:0:0:
305,65,41287,1,2,0:0:0:0:
253,124,41485,1,4,3:0:0:0:
234,111,41583,1,0,3:0:0:0:
227,89,41682,1,0,1:1:0:0:
385,29,41879,2,0,P|441:33|487:66,1,90,0|2,1:0|0:0,0:0:0:0:
360,248,42274,5,4,0:3:0:0:
414,126,42471,2,0,P|350:148|330:197,1,90,2|0,0:0|1:3,0:0:0:0:
360,248,42866,1,2,0:0:0:0:
255,190,43064,1,4,3:0:0:0:
322,334,43261,2,0,L|221:342,1,90,2|0,0:0|1:0,0:0:0:0:
155,292,43656,1,2,0:0:0:0:
80,236,43853,5,4,0:3:0:0:
77,333,44050,1,2,0:0:0:0:
239,160,44248,5,0,1:0:0:0:
146,155,44445,1,2,0:0:0:0:
312,59,44643,5,4,0:3:0:0:
312,78,44741,1,0,3:0:0:0:
312,100,44840,1,0,3:0:0:0:
405,26,45037,5,0,1:0:0:0:
461,126,45235,1,2,0:0:0:0:
436,126,45333,1,0,3:2:0:0:
404,127,45432,5,4,0:0:0:0:
404,127,45827,1,0,1:2:0:0:
428,281,46024,1,2,0:0:0:0:
292,227,46221,1,4,0:3:0:0:
352,347,46419,1,2,0:0:0:0:
375,211,46616,1,0,1:0:0:0:
235,293,46814,1,2,0:0:0:0:
214,285,46912,1,0,0:0:0:0:
200,266,47011,6,0,L|210:153,1,90,4|0,0:3|0:0,0:0:0:0:
137,342,47406,1,0,1:0:0:0:
20,190,47603,2,0,P|69:200|104:242,1,90,2|0,0:0|3:0,0:0:0:0:
96,227,47899,1,0,3:0:0:0:
96,227,47998,1,4,0:3:0:0:
137,342,48195,1,0,1:0:0:0:
207,176,48393,1,4,0:3:0:0:
207,176,48491,1,4,3:0:0:0:
207,176,48590,6,0,L|199:73,1,90,4|0,0:3|3:0,0:0:0:0:
200,86,48886,1,0,3:3:0:0:
200,86,48985,2,0,P|150:89|113:67,1,90,0|0,1:0|0:0,0:0:0:0:
376,26,49379,2,0,L|368:129,1,90,4|0,0:3|3:0,0:0:0:0:
369,115,49675,1,0,3:0:0:0:
369,115,49774,1,0,1:0:0:0:
471,167,49971,6,0,P|409:142|422:226,1,180,2|2,0:0|0:0,0:0:0:0:
414,224,50564,2,0,L|423:319,1,90,0|2,1:0|0:0,0:0:0:0:
459,61,50958,1,0,1:0:0:0:
459,61,51057,1,0,1:0:0:0:
459,61,51156,1,0,3:0:0:0:
390,132,51353,2,0,L|296:142,1,90,2|2,0:0|0:0,0:0:0:0:
43,38,51748,5,4,0:0:0:0:
43,38,52143,1,2,0:0:0:0:
103,199,52340,1,2,0:0:0:0:
160,85,52538,2,0,L|103:109,1,45,0|0,1:0|0:0,0:0:0:0:
46,276,52932,1,2,0:0:0:0:
204,211,53130,2,0,L|180:154,1,45,0|0,1:0|0:0,0:0:0:0:
244,291,53524,1,2,0:0:0:0:
147,293,53721,1,2,0:0:0:0:
302,219,53919,2,0,L|359:195,1,45,0|0,1:0|0:0,0:0:0:0:
384,285,54314,1,2,0:0:0:0:
414,145,54511,1,2,0:0:0:0:
470,233,54708,1,2,0:0:0:0:
431,44,54906,5,4,0:0:0:0:
431,44,55300,2,0,L|377:14,1,45,2|0,0:0|0:0,0:0:0:0:
228,152,55695,1,0,1:0:0:0:
295,44,55893,2,0,L|265:98,1,45,2|2,0:0|0:0,0:0:0:0:
236,241,56287,2,2,L|290:271,1,45,0|0,1:0|0:0,0:0:0:0:
132,180,56682,1,2,0:0:0:0:
223,342,56879,1,2,0:0:0:0:
145,273,57077,2,0,L|115:327,1,45,0|0,1:0|0:0,0:0:0:0:
223,342,57471,1,2,0:0:0:0:
17,313,57669,2,0,L|39:274,1,45,0|0,1:0|0:0,0:0:0:0:
32,72,58064,5,4,0:0:0:0:
32,72,58458,2,0,L|71:30,1,45,2|0,0:0|0:0,0:0:0:0:
268,30,58853,2,0,L|229:72,1,45,0|0,1:0|0:0,0:0:0:0:
142,73,59248,1,2,0:0:0:0:
346,93,59445,2,0,L|376:60,1,45,0|0,1:0|0:0,0:0:0:0:
286,168,59840,1,2,0:0:0:0:
452,104,60037,1,2,0:0:0:0:
402,240,60235,2,0,L|370:210,1,45,0|0,1:0|0:0,0:0:0:0:
286,168,60629,1,2,0:0:0:0:
361,328,60827,2,0,L|330:360,1,45,2|2,0:0|0:0,0:0:0:0:
107,274,61221,5,4,0:0:0:0:
107,274,61616,2,0,L|62:232,1,45,2|0,0:0|0:0,0:0:0:0:
233,107,62011,2,0,L|181:144,1,45,0|0,1:0|0:0,0:0:0:0:
429,278,62406,1,2,0:0:0:0:
453,134,62603,2,0,L|462:80,1,45,0|0,1:0|0:0,0:0:0:0:
272,271,62998,1,2,0:0:0:0:
291,378,63195,1,2,0:0:0:0:
330,209,63393,1,2,0:0:0:0:
206,322,63590,1,2,0:0:0:0:
362,319,63787,1,2,0:0:0:0:
200,215,63985,1,0,1:0:0:0:
291,378,64182,1,2,0:0:0:0:
100,326,64379,5,4,0:0:0:0:
100,326,64774,2,0,L|65:278,1,45,2|0,0:0|0:0,0:0:0:0:
88,116,65169,2,0,L|136:81,1,45,0|0,1:0|0:0,0:0:0:0:
34,191,65564,1,2,0:0:0:0:
39,38,65761,1,2,0:0:0:0:
220,104,65958,2,0,L|255:152,1,45,4|0,0:3|0:0,0:0:0:0:
177,200,66353,1,2,0:0:0:0:
375,118,66550,2,0,L|327:153,1,45,0|0,1:0|0:0,0:0:0:0:
292,227,66945,1,2,0:0:0:0:
237,309,67143,1,2,0:0:0:0:
177,200,67340,1,2,0:0:0:0:
361,313,67537,5,4,0:0:0:0:
361,313,67932,1,2,0:0:0:0:
471,256,68129,1,2,0:0:0:0:
339,225,68327,1,0,1:0:0:0:
438,175,68524,1,2,0:0:0:0:
300,148,68721,1,2,0:0:0:0:
408,94,68919,1,2,0:0:0:0:
269,65,69116,1,4,0:3:0:0:
370,18,69314,2,0,L|415:-2,1,45,2|2,0:0|0:0,0:0:0:0:
174,106,69708,2,0,L|129:126,1,45,0|0,1:0|0:0,0:0:0:0:
189,228,70103,1,2,0:0:0:0:
29,110,70300,2,0,L|49:155,1,45,0|2,1:0|0:0,0:0:0:0:
167,364,70695,5,4,0:0:0:0:
167,364,71090,1,2,0:0:0:0:
331,305,71287,2,0,L|385:283,1,45,2|0,0:0|1:0,0:0:0:0:
270,384,71682,1,4,0:3:0:0:
462,335,71879,1,2,0:0:0:0:
290,163,72077,2,0,L|307:205,1,45,4|0,0:0|0:0,0:0:0:0:
409,73,72471,2,0,L|393:32,1,45,2|2,0:0|0:0,0:0:0:0:
222,73,72866,2,0,L|276:51,1,45,2|0,0:0|1:0,0:0:0:0:
441,179,73261,1,2,0:0:0:0:
290,163,73458,1,2,0:0:0:0:
389,91,73656,1,2,0:0:0:0:
238,246,73853,5,4,0:0:0:0:
238,246,74248,2,0,L|298:261,1,45
141,245,74643,2,0,L|102:288,1,45
129,111,75037,1,0,0:0:0:0:
191,173,75235,1,0,0:0:0:0:
290,31,75432,5,0,3:0:0:0:
287,60,75530,1,0,3:0:0:0:
284,90,75629,1,0,3:0:0:0:
282,119,75728,1,0,3:0:0:0:
279,149,75827,2,0,L|328:160,3,45,0|0|0|0,3:0|3:0|3:0|3:0,0:0:0:0:
288,249,76221,5,0,3:0:0:0:
246,278,76319,1,0,3:0:0:0:
197,266,76418,1,0,3:0:0:0:
172,221,76517,1,0,3:0:0:0:
191,173,76615,1,0,1:0:0:0:
191,173,77011,6,0,B|167:43|57:56|57:56|80:108|134:88,1,270,4|0,0:0|0:0,0:0:0:0:
109,93,77406,1,0,1:0:0:0:
238,54,77603,1,0,3:0:0:0:
234,80,77702,1,0,3:0:0:0:
210,92,77800,1,4,3:3:0:0:
325,23,77998,1,0,0:0:0:0:
273,207,78195,1,0,1:0:0:0:
431,61,78393,2,0,B|353:94|402:121|305:159,1,135.000005149842,2|4,0:0|0:3,0:0:0:0:
105,275,78787,2,0,P|123:215|186:221,1,135.000005149842,2|0,0:0|1:0,0:0:0:0:
118,375,79182,2,0,P|73:372|42:342,1,90,2|4,0:0|0:3,0:0:0:0:
42,342,79577,1,2,0:0:0:0:
19,223,79774,1,0,1:0:0:0:
42,342,79971,1,2,0:0:0:0:
100,134,80169,6,0,B|137:48|205:58|205:58|194:96|142:95,1,216,4|0,0:3|0:0,0:0:0:0:
146,95,80564,1,0,1:0:0:0:
197,232,80761,1,0,3:0:0:0:
178,218,80860,1,0,3:0:0:0:
173,196,80958,1,4,3:3:0:0:
293,205,81156,1,0,0:0:0:0:
186,326,81353,1,0,1:0:0:0:
240,134,81550,2,0,B|322:126|300:196|372:190,1,144,2|4,0:0|0:3,0:0:0:0:
499,8,81945,2,0,P|430:30|440:116,1,144,2|0,0:0|1:0,0:0:0:0:
454,312,82340,1,2,0:0:0:0:
468,184,82537,1,2,0:3:0:0:
361,339,82735,1,2,0:0:0:0:
326,256,82932,1,0,1:0:0:0:
211,362,83129,1,0,1:0:0:0:
230,355,83228,1,0,1:0:0:0:
239,339,83327,6,0,P|172:240|67:209,1,216,4|0,0:0|0:0,0:0:0:0:
84,209,83721,1,2,0:0:0:0:
286,53,83919,2,0,P|251:140|164:85,1,216,4|0,0:0|0:0,0:0:0:0:
165,93,84314,1,2,0:0:0:0:
314,278,84511,2,0,P|362:166|438:105,1,216,4|0,0:0|0:0,0:0:0:0:
433,107,84906,1,2,0:0:0:0:
309,283,85103,2,0,P|284:163|311:70,1,216,4|0,0:0|0:0,0:0:0:0:
308,74,85498,1,2,0:0:0:0:
304,288,85695,2,0,P|215:204|183:112,1,216,4|0,0:0|0:0,0:0:0:0:
184,117,86090,1,0,1:0:0:0:
162,281,86287,1,0,1:0:0:0:
185,265,86386,1,0,1:0:0:0:
199,241,86485,5,4,0:0:0:0:
24,141,86682,2,0,P|27:191|125:198,1,144,2|0,0:0|1:0,0:0:0:0:
202,14,87077,2,0,B|125:20|149:79|74:74,1,144,2|4,0:0|0:3,0:0:0:0:
306,51,87471,1,2,0:0:0:0:
192,125,87669,1,0,1:0:0:0:
336,145,87866,1,2,0:0:0:0:
268,211,88064,6,0,L|254:364,1,144,4|0,0:3|0:0,0:0:0:0:
415,16,88458,2,0,L|429:169,1,144,0|0,1:0|0:0,1:0:0:0:
428,159,88853,5,0,3:0:0:0:
466,184,88951,1,0,3:0:0:0:
484,226,89050,1,0,3:0:0:0:
475,271,89149,1,0,3:0:0:0:
443,304,89247,1,0,3:0:0:0:
398,312,89346,1,0,3:0:0:0:
355,294,89445,1,0,3:0:0:0:
330,256,89543,1,0,3:0:0:0:
331,210,89643,6,0,B|266:124|166:113|166:113|250:148,1,270,4|0,0:0|0:0,0:0:0:0:
233,141,90037,1,0,1:0:0:0:
198,301,90235,1,0,3:0:0:0:
229,283,90333,1,0,3:0:0:0:
239,248,90432,1,4,3:3:0:0:
160,380,90629,1,0,0:0:0:0:
90,216,90827,1,0,1:0:0:0:
301,341,91024,2,0,B|414:372|389:251|337:339,1,144,2|4,0:0|0:3,0:0:0:0:
86,328,91419,2,0,P|19:322|7:257,1,144,2|0,0:0|1:0,0:0:0:0:
100,118,91814,2,0,L|91:29,1,90,2|4,0:0|0:3,0:0:0:0:
83,206,92208,2,0,P|108:236|167:229,1,90,2|0,0:0|1:0,0:0:0:0:
183,53,92603,1,2,0:0:0:0:
225,185,92800,6,0,B|240:100|307:56|307:56|260:111,1,216,4|0,0:3|0:0,0:3:0:0:
269,100,93195,1,0,1:3:0:0:
375,210,93393,1,0,3:0:0:0:
350,195,93491,1,0,3:0:0:0:
343,166,93590,1,4,3:3:0:0:
400,304,93787,1,0,0:0:0:0:
467,124,93985,1,0,1:0:0:0:
258,236,94182,2,0,B|181:272|228:301|126:344,1,144,2|4,0:0|0:3,3:0:0:0:
15,141,94577,2,0,P|92:152|127:213,1,144,2|0,0:0|1:0,0:0:0:0:
276,76,94971,2,0,P|216:135|182:88,1,144,2|4,0:0|0:3,0:0:0:0:
207,28,95366,1,4,0:3:0:0:
271,161,95564,1,0,1:0:0:0:
416,73,95761,1,0,1:0:0:0:
399,53,95859,1,0,1:0:0:0:
376,39,95958,6,0,P|384:118|483:233,1,216,4|0,0:0|0:0,0:0:0:0:
465,223,96353,1,2,0:0:0:0:
239,327,96550,2,0,P|327:362|353:270,1,216,4|0,0:0|0:0,0:0:0:0:
351,269,96945,1,2,0:0:0:0:
161,114,97143,5,4,0:0:0:0:
251,219,97340,1,0,0:0:0:0:
122,239,97537,1,2,0:0:0:0:
157,97,97735,1,4,0:0:0:0:
266,223,97932,1,0,0:0:0:0:
110,249,98129,1,2,0:0:0:0:
152,79,98327,1,4,0:0:0:0:
283,231,98524,1,0,0:0:0:0:
96,260,98721,1,2,0:0:0:0:
96,260,99116,6,0,P|184:157|271:139,1,216,4|0,0:0|0:0,0:0:0:0:
258,138,99511,1,2,0:0:0:0:
486,278,99708,2,0,B|449:286|424:364|424:364|423:278|359:246,1,216,4|0,0:0|0:0,0:0:0:0:
389,268,100103,1,2,0:0:0:0:
458,14,100300,2,0,L|444:170,1,144,4|0,0:0|0:0,0:0:0:0:
445,157,100695,6,0,P|354:139|341:99,1,144,2|0,0:0|0:0,0:0:0:0:
486,278,101090,2,0,P|386:315|283:289,1,216,4|0,0:0|0:0,0:0:0:0:
191,156,101485,5,0,3:0:0:0:
194,127,101583,1,0,3:0:0:0:
197,97,101682,1,0,3:0:0:0:
199,68,101781,1,0,3:0:0:0:
202,38,101880,2,0,L|153:27,3,45,0|0|0|0,3:0|3:0|3:0|3:0,0:0:0:0:
96,187,102274,5,4,0:0:0:0:
96,187,102669,2,0,L|104:276,1,90,0|2,0:0|0:0,0:0:0:0:
189,231,103064,2,0,L|197:320,1,90,0|2,0:0|0:0,0:0:0:0:
281,271,103458,2,0,L|289:360,1,90,0|2,0:0|0:0,0:0:0:0:
464,172,103853,5,2,0:3:0:0:
377,329,104050,1,4,0:3:0:0:
337,207,104248,1,4,0:3:0:0:
390,335,104445,1,4,0:3:0:0:
281,291,104643,1,0,3:0:0:0:
247,293,104741,1,0,3:0:0:0:
213,296,104840,1,0,3:0:0:0:
180,298,104939,1,0,3:0:0:0:
146,301,105037,1,2,3:0:0:0:
483,32,105432,5,4,0:0:0:0:
