osu file format v14

[General]
AudioFilename: audio.mp3
AudioLeadIn: 1000
PreviewTime: 76604
Countdown: 0
SampleSet: Soft
StackLeniency: 0.2
Mode: 0
LetterboxInBreaks: 0
WidescreenStoryboard: 1

[Editor]
Bookmarks: 24018
DistanceSpacing: 1
BeatDivisor: 1
GridSize: 8
TimelineZoom: 2.7

[Metadata]
Title:LOVE no Shirushi
TitleUnicode:LOVEのしるし
Artist:Silent Siren
ArtistUnicode:Silent Siren
Creator:MeowUsername
Version:Easy
Source:
Tags:japanese pop yoshida sumire umemura hinako yamauchi aina kurosaka yukako loveshiru ラブシル j-pop jpop female vocals vocalist
BeatmapID:3394737
BeatmapSetID:1565315

[Difficulty]
HPDrainRate:3
CircleSize:3
OverallDifficulty:3
ApproachRate:4
SliderMultiplier:1
SliderTickRate:1

[Events]
//Background and Video events
0,0,"soap.jpg",0,0
//Break Periods
//Storyboard Layer 0 (Background)
//Storyboard Layer 1 (Fail)
//Storyboard Layer 2 (Pass)
//Storyboard Layer 3 (Foreground)
//Storyboard Layer 4 (Overlay)
//Storyboard Sound Samples

[TimingPoints]
1222,394.736842105263,4,2,1,70,1,0
12077,-100,4,2,1,80,0,0
12668,-100,4,2,1,80,0,0
14643,-100,4,2,1,70,0,0
14741,-100,4,2,1,80,0,0
14938,-100,4,2,1,70,0,0
15037,-100,4,2,1,80,0,0
16221,-100,4,2,1,70,0,0
16320,-100,4,2,1,80,0,0
16517,-100,4,2,1,70,0,0
16616,-100,4,2,1,80,0,0
17800,-100,4,2,1,70,0,0
17899,-100,4,2,1,80,0,0
18096,-100,4,2,1,70,0,0
18195,-100,4,2,1,80,0,0
20958,-100,4,2,1,70,0,0
21057,-100,4,2,1,80,0,0
21254,-100,4,2,1,70,0,0
21353,-100,4,2,1,80,0,0
22537,-100,4,2,1,70,0,0
22636,-100,4,2,1,80,0,0
22833,-100,4,2,1,70,0,0
22932,-100,4,2,1,80,0,0
24116,-100,4,2,1,70,0,0
24215,-100,4,2,1,80,0,0
24412,-100,4,2,1,70,0,0
24511,-100,4,2,1,80,0,0
26287,-100,4,2,1,60,0,0
26485,-100,4,2,1,60,0,0
31123,-100,4,2,1,70,0,0
31221,-100,4,2,1,60,0,0
32011,-100,4,2,1,70,0,0
32405,-100,4,2,1,60,0,0
32800,-100,4,2,1,60,0,0
34281,-100,4,2,1,70,0,0
34380,-100,4,2,1,60,0,0
39116,-100,4,2,1,80,0,0
39313,-100,4,2,1,70,0,0
39511,-100,4,2,1,80,0,0
41089,-100,4,2,1,70,0,0
41287,-100,4,2,1,80,0,0
41484,-100,4,2,1,80,0,0
42668,-100,4,2,1,70,0,0
42866,-100,4,2,1,80,0,0
43064,-100,4,2,1,80,0,0
45333,-100,4,2,1,70,0,0
45432,-100,4,2,1,80,0,0
46912,-100,4,2,1,70,0,0
47011,-100,4,2,1,80,0,0
47208,-100,4,2,1,70,0,0
47406,-100,4,2,1,80,0,0
48491,-100,4,2,1,70,0,0
48590,-100,4,2,1,80,0,0
49182,-100,4,2,1,70,0,0
49379,-100,4,2,1,80,0,0
50169,-100,4,2,1,80,0,0
50564,-100,4,2,1,80,0,0
52143,-100,4,2,1,65,0,0
52735,-100,4,2,1,70,0,0
52932,-100,4,2,1,65,0,0
53327,-100,4,2,1,70,0,0
53524,-100,4,2,1,65,0,0
54116,-100,4,2,1,70,0,0
54314,-100,4,2,1,65,0,0
56484,-100,4,2,1,70,0,0
56682,-100,4,2,1,65,0,0
57274,-100,4,2,1,70,0,0
57471,-100,4,2,1,65,0,0
59642,-100,4,2,1,70,0,0
59840,-100,4,2,1,65,0,0
60432,-100,4,2,1,70,0,0
60629,-100,4,2,1,65,0,0
65366,-100,4,2,1,70,0,0
65564,-100,4,2,1,65,0,0
66155,-100,4,2,1,70,0,0
66353,-100,4,2,1,65,0,0
66747,-100,4,2,1,70,0,0
66945,-100,4,2,1,65,0,0
69314,-100,4,2,1,70,0,0
69511,-100,4,2,1,65,0,0
69905,-100,4,2,1,70,0,0
70103,-100,4,2,1,65,0,0
72274,-100,4,2,1,70,0,0
72471,-100,4,2,1,65,0,0
74248,-100,4,2,1,70,0,0
75432,-100,4,2,1,65,0,0
77011,-100,4,2,1,85,0,1
77307,-100,4,2,1,70,0,1
77406,-100,4,2,1,85,0,1
77603,-100,4,2,1,70,0,1
77800,-100,4,2,1,85,0,1
77998,-100,4,2,1,70,0,1
78195,-100,4,2,1,85,0,1
78589,-100,4,2,1,70,0,1
78787,-100,4,2,1,85,0,1
78984,-100,4,2,1,70,0,1
79182,-100,4,2,1,85,0,1
79379,-100,4,2,1,85,0,1
80465,-100,4,2,1,70,0,1
80564,-100,4,2,1,85,0,1
80761,-100,4,2,1,70,0,1
80958,-100,4,2,1,85,0,1
81156,-100,4,2,1,70,0,1
81353,-100,4,2,1,85,0,1
81748,-100,4,2,1,70,0,1
81945,-100,4,2,1,85,0,1
82142,-100,4,2,1,70,0,1
82340,-100,4,2,1,85,0,1
82537,-100,4,2,1,85,0,1
86879,-100,4,2,1,70,0,1
87077,-100,4,2,1,85,0,1
87274,-100,4,2,1,70,0,1
87471,-100,4,2,1,85,0,1
89939,-100,4,2,1,70,0,1
90037,-100,4,2,1,85,0,1
90235,-100,4,2,1,70,0,1
90432,-100,4,2,1,85,0,1
90629,-100,4,2,1,70,0,1
90827,-100,4,2,1,85,0,1
91221,-100,4,2,1,70,0,1
91419,-100,4,2,1,85,0,1
91616,-100,4,2,1,70,0,1
91814,-100,4,2,1,85,0,1
92011,-100,4,2,1,85,0,1
93096,-100,4,2,1,70,0,1
93195,-100,4,2,1,85,0,1
93393,-100,4,2,1,70,0,1
93590,-100,4,2,1,85,0,1
93787,-100,4,2,1,70,0,1
93985,-100,4,2,1,85,0,1
94379,-100,4,2,1,70,0,1
94577,-100,4,2,1,85,0,1
94774,-100,4,2,1,70,0,1
94971,-100,4,2,1,85,0,1
95168,-100,4,2,1,70,0,1
95366,-100,4,2,1,85,0,1
96156,-100,4,2,1,70,0,1
96353,-100,4,2,1,85,0,1
96748,-100,4,2,1,70,0,1
96945,-100,4,2,1,85,0,1
97341,-100,4,2,1,70,0,1
97537,-100,4,2,1,85,0,1
97933,-100,4,2,1,70,0,1
98129,-100,4,2,1,85,0,1
98525,-100,4,2,1,70,0,1
98721,-100,4,2,1,85,0,1
100497,-100,4,2,1,70,0,1
100695,-100,4,2,1,85,0,1
102274,-100,4,2,1,80,0,0

[Colours]
Combo1 : 255,128,128
Combo2 : 128,255,255
Combo3 : 255,255,149
Combo4 : 53,255,154

[HitObjects]
264,77,1222,6,0,B|153:90|223:153|90:170,1,200,2|0,0:0|0:0,0:0:0:0:
287,228,2800,2,0,B|405:243|329:310|473:329,1,200,2|0,0:0|0:0,0:0:0:0:
451,126,4379,2,0,P|417:55|292:79,1,200,2|0,0:0|0:0,0:0:0:0:
146,177,5958,1,2,0:0:0:0:
268,335,6748,1,0,0:0:0:0:
430,219,7537,6,0,B|446:131|401:61|401:61|348:100,1,200,4|0,0:3|3:0,0:0:0:0:
189,160,9116,2,0,P|101:148|75:40,1,200,4|0,0:3|3:0,0:0:0:0:
271,41,10695,2,0,L|289:265,1,200,4|0,0:3|3:0,0:0:0:0:
103,319,12274,1,0,0:0:0:0:
64,226,12669,2,0,L|76:95,1,100,0|0,3:0|3:0,0:0:0:0:
138,49,13458,1,2,3:0:0:0:
220,104,13853,6,0,P|279:116|332:78,1,100,6|0,0:0|1:0,0:0:0:0:
388,32,14643,1,0,0:0:0:0:
466,94,15037,1,0,1:0:0:0:
428,187,15432,2,0,B|425:309,1,100,2|0,0:0|1:0,0:0:0:0:
359,361,16221,1,0,0:0:0:0:
292,286,16616,1,0,1:0:0:0:
216,352,17011,6,0,P|135:343|105:292,1,100,2|0,0:0|1:0,0:0:0:0:
102,236,17800,2,0,L|214:224,1,100,0|0,0:0|1:0,0:0:0:0:
263,148,18590,1,2,0:0:0:0:
351,192,18985,1,0,1:0:0:0:
446,163,19379,2,0,L|453:46,1,100,2|0,0:0|1:0,0:0:0:0:
355,37,20169,6,0,L|238:26,1,100,4|0,0:0|1:0,0:0:0:0:
162,62,20958,1,0,0:0:0:0:
70,21,21353,1,0,1:0:0:0:
32,113,21748,2,0,P|48:185|77:208,1,100,2|0,0:0|1:0,0:0:0:0:
141,265,22537,1,0,0:0:0:0:
201,344,22932,1,0,1:0:0:0:
292,302,23327,6,0,L|406:293,1,100,2|0,0:0|1:0,0:0:0:0:
477,243,24116,2,0,L|451:130,1,100,0|0,0:0|1:0,0:0:0:0:
367,104,24906,1,2,0:0:0:0:
333,198,25300,1,0,1:0:0:0:
245,246,25695,2,0,L|125:252,1,100,2|0,0:0|1:0,0:0:0:0:
70,184,26485,6,0,B|44:119|67:53|67:53|108:69|143:67,2,200,4|0|2,0:0|0:0|0:0,0:0:0:0:
451,136,29643,2,0,B|487:99|458:39|458:39|382:37|365:97,2,200,2|0|2,0:0|0:0|0:0,0:0:0:0:
256,91,32011,1,2,0:0:0:0:
193,273,32800,6,0,P|148:320|111:214,2,200,2|0|2,0:0|0:0|0:0,0:0:0:0:
360,321,35958,2,0,B|440:326|440:326|471:170,1,200,2|0,0:0|0:0,0:0:0:0:
333,56,37537,1,4,0:0:0:0:
234,41,37932,1,6,3:0:0:0:
138,11,38327,1,6,3:0:0:0:
112,210,39116,6,0,P|117:293|162:322,1,100,4|0,0:0|1:0,0:0:0:0:
215,345,39906,1,4,0:3:0:0:
289,278,40300,1,0,1:1:0:0:
358,206,40695,2,0,L|457:222,2,100,4|0|4,0:3|1:0|3:0,0:0:0:0:
310,117,41879,1,0,1:0:0:0:
224,65,42274,6,0,P|153:87|138:151,1,100,4|0,0:3|1:3,0:0:0:0:
124,204,43064,1,4,3:0:0:0:
171,290,43458,1,0,1:0:0:0:
256,237,43853,2,0,P|296:232|394:263,1,100,4|0,0:3|1:0,0:0:0:0:
430,178,44643,2,0,P|409:93|420:57,1,100,4|0,0:3|1:0,0:0:0:0:
320,44,45432,5,4,0:0:0:0:
228,84,45827,2,0,L|102:71,2,100,0|4|0,1:2|0:3|1:0,0:0:0:0:
287,165,47011,2,0,P|328:205|340:256,1,100,4|0,0:3|1:0,0:0:0:0:
284,327,47800,1,0,3:0:0:0:
191,289,48195,1,0,1:0:0:0:
106,235,48590,6,0,L|98:136,1,100,4|0,0:3|1:0,0:0:0:0:
127,40,49379,2,0,L|235:47,1,100,4|0,0:3|1:0,0:0:0:0:
326,52,50169,1,4,0:3:0:0:
367,142,50564,1,0,1:0:0:0:
373,242,50958,2,0,L|269:212,1,100,0|2,1:0|0:0,0:0:0:0:
219,293,51748,5,4,0:0:0:0:
136,349,52143,1,2,0:0:0:0:
46,305,52537,2,0,L|39:156,2,150,0|0|2,1:0|1:0|0:0,0:0:0:0:
136,349,54116,2,0,L|256:300,1,100,0|2,1:0|0:0,0:0:0:0:
320,353,54906,5,4,0:0:0:0:
402,296,55300,2,0,L|407:197,1,100,2|0,0:0|1:0,0:0:0:0:
417,96,56090,1,2,0:0:0:0:
352,19,56485,2,0,P|262:45|208:139,1,200,2|2,0:0|0:0,0:0:0:0:
236,228,57669,1,0,1:0:0:0:
169,302,58064,5,4,0:0:0:0:
82,252,58458,2,0,L|75:139,1,100,2|0,0:0|1:0,0:0:0:0:
74,51,59248,1,2,0:0:0:0:
166,89,59643,2,0,L|336:76,2,150,2|0|2,0:0|1:0|0:0,0:0:0:0:
83,145,61221,5,4,0:0:0:0:
157,211,61616,2,0,L|169:340,1,100,2|0,0:0|1:0,0:0:0:0:
255,355,62406,1,2,0:0:0:0:
338,300,62800,1,0,0:0:0:0:
292,210,63195,2,0,L|283:100,2,100,2|2|0,0:0|0:0|1:0,0:0:0:0:
338,300,64379,5,4,0:0:0:0:
410,231,64774,2,0,L|426:118,1,100,2|0,0:0|1:0,0:0:0:0:
391,38,65564,1,2,0:0:0:0:
307,91,65958,2,0,L|149:77,2,150,4|0|2,0:3|1:0|0:0,0:0:0:0:
376,163,67537,5,4,0:0:0:0:
374,263,67932,2,0,P|358:296|275:295,1,100,2|0,0:0|1:0,0:0:0:0:
232,238,68721,1,2,0:0:0:0:
168,315,69116,2,0,L|3:319,2,150,4|0|0,0:3|1:0|1:0,0:0:0:0:
263,343,70695,5,4,0:0:0:0:
345,287,71090,2,0,L|355:177,1,100,2|0,0:0|1:0,0:0:0:0:
357,87,71879,2,0,L|358:34,1,50,2|4,0:0|0:0,0:0:0:0:
224,248,73064,2,0,P|132:268|105:258,1,100,0|2,1:0|0:0,0:0:0:0:
40,226,73853,1,4,0:0:0:0:
450,259,75432,6,0,L|476:390,2,100,0|0|0,3:0|3:0|3:0,0:0:0:0:
428,161,76616,1,0,1:0:0:0:
367,81,77011,6,0,P|299:95|281:149,1,100,4|0,0:0|1:0,0:0:0:0:
267,214,77800,1,4,3:3:0:0:
175,173,78195,2,0,L|67:181,1,100,0|4,1:0|0:3,0:0:0:0:
47,277,78985,1,0,1:0:0:0:
133,325,79379,1,4,0:3:0:0:
197,248,79774,1,0,1:0:0:0:
145,163,80169,6,0,L|140:40,1,100,4|0,0:3|1:0,0:0:0:0:
233,23,80958,1,4,3:3:0:0:
304,92,81353,1,0,1:0:0:0:
401,64,81748,2,0,P|448:122|436:190,1,100,4|0,0:3|1:0,0:0:0:0:
410,236,82537,2,0,L|424:298,2,50,2|2|0,0:3|0:0|1:0,0:0:0:0:
335,301,83327,6,0,B|298:320|298:320|220:283,1,100,4|2,0:0|0:0,0:0:0:0:
198,278,83919,2,0,P|201:215|150:194,1,100,4|2,0:0|0:0,0:0:0:0:
126,196,84511,1,4,0:0:0:0:
208,71,85103,1,4,0:0:0:0:
357,72,85695,2,0,L|376:193,1,100,4|0,0:0|0:0,0:0:0:0:
385,270,86485,6,0,B|342:304|342:304|301:283,1,100,4|0,0:0|1:0,0:0:0:0:
219,226,87274,1,4,0:3:0:0:
145,293,87669,1,0,1:0:0:0:
49,264,88064,2,0,L|41:134,1,100,4|0,0:3|1:0,0:0:0:0:
39,64,88853,1,4,3:0:0:0:
134,93,89248,1,0,3:0:0:0:
234,74,89643,6,0,B|262:77|262:77|291:159,1,100,4|0,0:0|1:0,0:0:0:0:
311,240,90432,1,4,3:3:0:0:
390,300,90827,2,0,P|457:265|470:218,1,100,0|4,1:0|0:3,0:0:0:0:
421,156,91616,1,0,1:0:0:0:
452,62,92011,1,4,0:3:0:0:
360,23,92406,1,0,1:0:0:0:
287,91,92800,6,0,L|162:99,1,100,4|0,0:3|1:3,0:3:0:0:
159,192,93590,1,4,3:3:0:0:
234,258,93985,1,0,1:0:0:0:
158,325,94379,2,0,P|91:338|56:312,1,100,4|0,0:3|1:0,0:0:0:0:
52,224,95169,1,4,0:3:0:0:
40,124,95564,1,0,1:0:0:0:
120,63,95958,6,0,B|182:77|182:77|222:62,1,100,4|2,0:0|0:0,0:0:0:0:
261,43,96550,2,0,P|309:68|308:147,1,100,4|2,0:0|0:0,0:0:0:0:
317,160,97143,1,4,0:0:0:0:
298,308,97735,1,4,0:0:0:0:
148,287,98327,1,4,0:0:0:0:
135,87,99116,6,0,B|86:36|86:36|17:77,2,150,4|4|4,0:0|0:0|0:0,0:0:0:0:
107,184,100695,1,2,0:0:0:0:
136,280,101090,1,4,0:0:0:0:
222,229,101485,1,0,3:0:0:0:
293,300,101879,1,0,3:0:0:0:
373,239,102274,1,4,0:0:0:0:
68,77,103853,6,0,L|57:222,1,100,2|4,0:3|0:3,0:0:0:0:
55,266,104643,1,0,3:0:0:0:
112,336,105037,1,2,3:0:0:0:
186,284,105432,1,4,0:0:0:0:
