osu file format v14

[General]
AudioFilename: audio.mp3
AudioLeadIn: 0
PreviewTime: 76510
Countdown: 0
SampleSet: Normal
StackLeniency: 0.7
Mode: 1
LetterboxInBreaks: 0
WidescreenStoryboard: 0

[Editor]
DistanceSpacing: 0.9
BeatDivisor: 4
GridSize: 32
TimelineZoom: 2.1

[Metadata]
Title:LOVE no Shirushi
TitleUnicode:LOVEのしるし
Artist:Silent Siren
ArtistUnicode:Silent Siren
Creator:Igor Sprite
Version:Muzukashii
Source:
Tags:サイレントサイレン yoshida sumire umemura hinako yamauchi aina kurosaka yukako loveshiru
BeatmapID:1150356
BeatmapSetID:541897

[Difficulty]
HPDrainRate:6
CircleSize:2
OverallDifficulty:5
ApproachRate:10
SliderMultiplier:1.4
SliderTickRate:1

[Events]
//Background and Video events
0,0,"sda.jpg",0,60
//Break Periods
//Storyboard Layer 0 (Background)
//Storyboard Layer 1 (Fail)
//Storyboard Layer 2 (Pass)
//Storyboard Layer 3 (Foreground)
//Storyboard Sound Samples

[TimingPoints]
1214,394.736842105263,4,1,0,40,1,0
7529,-100,4,1,0,60,0,0
12463,-100,4,1,0,75,0,0
13845,-100,4,1,0,85,0,0
26575,-166.666666666667,4,1,0,40,0,0
37727,-142.857142857143,4,1,0,50,0,0
37924,-133.333333333333,4,1,0,55,0,0
38121,-125,4,1,0,60,0,0
38319,-117.64705882353,4,1,0,65,0,0
38713,-117.64705882353,4,1,0,25,0,0
39108,-100,4,1,0,75,0,0
51937,-100,4,1,0,75,0,0
74240,-117.64705882353,4,1,0,75,0,0
75424,-100,4,1,0,75,0,0
77003,-100,4,1,0,80,0,1
102266,-100,4,1,0,80,0,0
102661,-117.64705882353,4,1,0,60,0,0
105424,-100,4,1,0,80,0,0
111740,-100,4,1,0,70,0,0
113319,-100,4,1,0,60,0,0
113911,-100,4,1,0,50,0,0
114898,-100,4,1,0,40,0,0
115292,-100,4,1,0,35,0,0
115687,-100,4,1,0,30,0,0
116082,-100,4,1,0,25,0,0
116477,-100,4,1,0,20,0,0
116871,-100,4,1,0,15,0,0
117266,-100,4,1,0,10,0,0
117661,-100,4,1,0,5,0,0

[HitObjects]
256,192,1214,5,2,0:0:0:0:
256,192,1608,1,0,0:0:0:0:
256,192,1806,1,2,0:0:0:0:
256,192,2200,1,2,0:0:0:0:
256,192,2792,1,2,0:0:0:0:
256,192,3187,1,0,0:0:0:0:
256,192,3384,1,2,0:0:0:0:
256,192,3778,1,2,0:0:0:0:
256,192,4371,1,2,0:0:0:0:
256,192,4766,1,0,0:0:0:0:
256,192,4963,1,2,0:0:0:0:
256,192,5357,1,2,0:0:0:0:
256,192,5950,1,0,0:0:0:0:
256,192,6345,1,0,0:0:0:0:
256,192,6542,1,2,0:0:0:0:
256,192,6937,1,0,0:0:0:0:
256,192,7135,1,2,0:0:0:0:
256,192,7332,1,2,0:0:0:0:
256,192,7529,1,4,0:0:0:0:
320,192,7924,1,0,0:0:0:0:
192,192,8121,1,2,0:0:0:0:
320,192,8319,1,0,0:0:0:0:
320,192,8713,1,0,0:0:0:0:
192,192,9108,1,2,0:0:0:0:
320,192,9503,1,0,0:0:0:0:
192,192,9700,1,2,0:0:0:0:
320,192,9898,1,0,0:0:0:0:
320,192,10292,1,0,0:0:0:0:
192,192,10687,1,2,0:0:0:0:
320,192,11082,1,0,0:0:0:0:
192,192,11279,1,2,0:0:0:0:
320,192,11477,1,0,0:0:0:0:
320,192,11871,1,0,0:0:0:0:
256,192,12069,1,6,0:0:0:0:
256,192,12463,1,0,0:0:0:0:
256,192,12661,1,2,0:0:0:0:
256,192,12858,1,0,0:0:0:0:
256,192,13056,1,0,0:0:0:0:
256,192,13450,1,2,0:0:0:0:
192,192,13845,1,6,0:0:0:0:
320,192,14240,1,0,0:0:0:0:
320,192,14536,1,0,0:0:0:0:
320,192,14832,1,0,0:0:0:0:
192,192,15029,1,2,0:0:0:0:
192,192,15424,1,2,0:0:0:0:
320,192,15819,1,0,0:0:0:0:
320,192,16115,1,0,0:0:0:0:
192,192,16411,1,0,0:0:0:0:
192,192,16608,1,2,0:0:0:0:
192,192,17003,1,2,0:0:0:0:
320,192,17398,1,0,0:0:0:0:
320,192,17694,1,0,0:0:0:0:
192,192,17990,1,0,0:0:0:0:
192,192,18187,1,2,0:0:0:0:
192,192,18582,1,0,0:0:0:0:
320,192,18779,1,2,0:0:0:0:
320,192,18977,1,0,0:0:0:0:
256,192,19174,1,2,0:0:0:0:
256,192,19470,1,0,0:0:0:0:
256,192,19569,1,0,0:0:0:0:
256,192,19766,1,2,0:0:0:0:
192,192,20161,1,6,0:0:0:0:
320,192,20556,1,0,0:0:0:0:
320,192,20852,1,2,0:0:0:0:
192,192,21148,1,0,0:0:0:0:
192,192,21345,1,2,0:0:0:0:
192,192,21740,1,2,0:0:0:0:
320,192,22135,1,0,0:0:0:0:
320,192,22431,1,2,0:0:0:0:
192,192,22727,1,0,0:0:0:0:
192,192,22924,1,2,0:0:0:0:
192,192,23319,1,2,0:0:0:0:
320,192,23714,1,0,0:0:0:0:
320,192,24010,1,2,0:0:0:0:
256,192,24306,1,0,0:0:0:0:
192,192,24503,1,2,0:0:0:0:
192,192,24898,1,0,0:0:0:0:
320,192,25095,1,2,0:0:0:0:
320,192,25293,1,0,0:0:0:0:
256,192,25490,1,2,0:0:0:0:
288,192,25786,1,0,0:0:0:0:
288,192,25885,1,0,0:0:0:0:
256,192,26082,1,2,0:0:0:0:
256,192,26279,1,2,0:0:0:0:
256,192,26477,1,4,0:0:0:0:
256,192,27858,1,0,0:0:0:0:
256,192,28056,1,4,0:0:0:0:
256,192,29042,1,2,0:0:0:0:
256,192,29240,1,2,0:0:0:0:
256,192,29437,1,2,0:0:0:0:
256,192,29635,1,4,0:0:0:0:
256,192,31016,1,0,0:0:0:0:
256,192,31213,1,4,0:0:0:0:
256,192,32200,1,0,0:0:0:0:
256,192,32398,1,2,0:0:0:0:
256,192,32595,1,0,0:0:0:0:
256,192,32792,1,4,0:0:0:0:
256,192,34174,1,0,0:0:0:0:
256,192,34371,1,4,0:0:0:0:
256,192,35358,1,2,0:0:0:0:
256,192,35556,1,2,0:0:0:0:
256,192,35753,1,0,0:0:0:0:
256,192,35950,1,4,0:0:0:0:
256,192,36740,1,0,0:0:0:0:
256,192,37529,1,4,0:0:0:0:
256,192,37924,1,2,0:0:0:0:
256,192,38121,1,2,0:0:0:0:
256,192,38319,1,2,0:0:0:0:
256,192,39108,1,4,0:0:0:0:
256,192,39306,1,2,0:0:0:0:
256,192,39503,1,0,0:0:0:0:
256,192,39700,1,0,0:0:0:0:
256,192,40095,1,0,0:0:0:0:
256,192,40292,1,2,0:0:0:0:
256,192,40687,1,0,0:0:0:0:
256,192,40885,1,2,0:0:0:0:
256,192,41082,1,2,0:0:0:0:
256,192,41279,1,0,0:0:0:0:
256,192,41575,1,0,0:0:0:0:
256,192,41674,1,0,0:0:0:0:
256,192,41871,1,2,0:0:0:0:
256,192,42266,1,2,0:0:0:0:
256,192,42463,1,0,0:0:0:0:
256,192,42661,1,0,0:0:0:0:
256,192,42858,1,2,0:0:0:0:
256,192,43253,1,0,0:0:0:0:
256,192,43450,1,2,0:0:0:0:
256,192,43845,1,2,0:0:0:0:
256,192,44042,1,0,0:0:0:0:
256,192,44240,1,2,0:0:0:0:
256,192,44634,1,2,0:0:0:0:
256,192,44832,1,0,0:0:0:0:
256,192,45029,1,2,0:0:0:0:
256,192,45227,1,0,0:0:0:0:
256,192,45424,1,6,0:0:0:0:
256,192,45819,1,0,0:0:0:0:
256,192,46016,1,0,0:0:0:0:
256,192,46213,1,2,0:0:0:0:
256,192,46608,1,2,0:0:0:0:
256,192,46806,1,0,0:0:0:0:
256,192,47003,1,0,0:0:0:0:
256,192,47398,1,2,0:0:0:0:
256,192,47595,1,0,0:0:0:0:
256,192,47891,1,0,0:0:0:0:
256,192,47990,1,0,0:0:0:0:
256,192,48187,1,0,0:0:0:0:
256,192,48385,1,2,0:0:0:0:
256,192,48582,1,0,0:0:0:0:
256,192,48977,1,2,0:0:0:0:
256,192,49371,1,0,0:0:0:0:
256,192,49569,1,2,0:0:0:0:
256,192,49766,1,2,0:0:0:0:
256,192,49963,1,0,0:0:0:0:
192,128,50358,1,0,0:0:0:0:
256,192,50556,1,2,0:0:0:0:
256,192,50753,1,0,0:0:0:0:
256,192,50950,2,0,L|256:128,8,35
256,192,52135,1,0,0:0:0:0:
256,192,52332,1,0,0:0:0:0:
256,192,52529,1,2,0:0:0:0:
256,192,52924,1,2,0:0:0:0:
256,192,53121,1,0,0:0:0:0:
256,192,53516,1,0,0:0:0:0:
256,192,53713,1,0,0:0:0:0:
256,224,53911,1,2,0:0:0:0:
256,192,54108,1,0,0:0:0:0:
256,192,54306,1,2,0:0:0:0:
256,192,54700,1,0,0:0:0:0:
256,192,54898,1,6,0:0:0:0:
256,192,55292,1,0,0:0:0:0:
256,192,55490,1,2,0:0:0:0:
256,192,55687,1,0,0:0:0:0:
256,192,56082,1,0,0:0:0:0:
256,192,56279,1,2,0:0:0:0:
256,192,56674,1,0,0:0:0:0:
256,192,57069,1,2,0:0:0:0:
256,192,57463,1,2,0:0:0:0:
256,192,57661,1,0,0:0:0:0:
256,192,58056,1,6,0:0:0:0:
256,192,58450,1,2,0:0:0:0:
256,192,58648,1,0,0:0:0:0:
256,192,58845,1,0,0:0:0:0:
256,192,59240,1,2,0:0:0:0:
256,192,59437,1,0,0:0:0:0:
256,192,59832,1,2,0:0:0:0:
256,192,60227,1,0,0:0:0:0:
256,192,60424,1,2,0:0:0:0:
256,192,60621,1,0,0:0:0:0:
256,192,60819,1,2,0:0:0:0:
256,192,61213,1,6,0:0:0:0:
256,192,61608,1,0,0:0:0:0:
256,192,62003,1,2,0:0:0:0:
256,192,62398,1,0,0:0:0:0:
256,192,62595,1,2,0:0:0:0:
256,192,62990,1,0,0:0:0:0:
256,192,63187,1,2,0:0:0:0:
256,192,63385,1,0,0:0:0:0:
256,192,63582,1,2,0:0:0:0:
256,192,63779,1,2,0:0:0:0:
256,192,63977,1,0,0:0:0:0:
256,192,64174,1,0,0:0:0:0:
256,192,64371,1,6,0:0:0:0:
256,192,64766,1,0,0:0:0:0:
256,192,64963,1,0,0:0:0:0:
256,192,65161,1,2,0:0:0:0:
256,192,65556,1,2,0:0:0:0:
256,192,65753,1,0,0:0:0:0:
256,192,65950,1,0,0:0:0:0:
256,192,66148,1,2,0:0:0:0:
256,192,66542,1,2,0:0:0:0:
256,192,66937,1,2,0:0:0:0:
256,192,67135,1,2,0:0:0:0:
256,192,67332,1,0,0:0:0:0:
256,192,67529,1,6,0:0:0:0:
256,192,67924,1,0,0:0:0:0:
256,192,68121,1,0,0:0:0:0:
256,192,68319,1,2,0:0:0:0:
256,192,68713,1,0,0:0:0:0:
256,192,68911,1,0,0:0:0:0:
256,192,69108,1,2,0:0:0:0:
256,192,69306,1,0,0:0:0:0:
256,192,69700,1,0,0:0:0:0:
256,192,70095,1,0,0:0:0:0:
256,192,70292,1,2,0:0:0:0:
256,192,70687,1,6,0:0:0:0:
256,192,71082,1,0,0:0:0:0:
256,192,71279,1,0,0:0:0:0:
256,192,71477,1,2,0:0:0:0:
256,192,71674,1,0,0:0:0:0:
256,192,72069,1,6,0:0:0:0:
256,192,72463,1,0,0:0:0:0:
256,192,72858,1,0,0:0:0:0:
256,192,73056,1,2,0:0:0:0:
256,192,73253,1,0,0:0:0:0:
256,192,73450,1,2,0:0:0:0:
256,192,73845,1,6,0:0:0:0:
256,192,74240,1,2,0:0:0:0:
256,192,74635,1,0,0:0:0:0:
256,192,75029,1,2,0:0:0:0:
256,192,75227,1,0,0:0:0:0:
256,192,75424,2,0,L|256:128,11,35
256,192,77003,1,6,0:0:0:0:
256,192,77398,1,2,0:0:0:0:
256,192,77595,1,0,0:0:0:0:
256,192,77792,1,0,0:0:0:0:
256,192,78187,1,2,0:0:0:0:
256,192,78385,1,0,0:0:0:0:
256,192,78779,1,0,0:0:0:0:
256,192,78977,1,2,0:0:0:0:
256,192,79371,1,0,0:0:0:0:
256,192,79569,1,0,0:0:0:0:
256,192,79766,1,2,0:0:0:0:
256,192,80161,1,4,0:0:0:0:
256,192,80556,1,2,0:0:0:0:
256,192,80950,1,2,0:0:0:0:
256,192,81148,1,0,0:0:0:0:
256,192,81345,1,2,0:0:0:0:
256,192,81542,1,0,0:0:0:0:
256,192,81937,1,0,0:0:0:0:
256,192,82135,1,2,0:0:0:0:
256,192,82332,1,0,0:0:0:0:
256,192,82727,1,2,0:0:0:0:
288,192,82924,1,2,0:0:0:0:
256,288,83121,1,0,0:0:0:0:
256,192,83319,1,6,0:0:0:0:
256,192,83713,1,0,0:0:0:0:
256,192,83911,1,6,0:0:0:0:
256,192,84306,1,0,0:0:0:0:
256,192,84503,1,6,0:0:0:0:
256,192,84898,1,0,0:0:0:0:
256,192,85095,1,6,0:0:0:0:
256,192,85490,1,0,0:0:0:0:
256,192,85687,1,6,0:0:0:0:
256,192,86082,1,0,0:0:0:0:
256,192,86279,1,0,0:0:0:0:
256,192,86477,1,6,0:0:0:0:
256,192,86871,1,2,0:0:0:0:
256,192,87069,1,0,0:0:0:0:
256,192,87463,1,0,0:0:0:0:
256,192,87661,1,2,0:0:0:0:
256,192,87858,1,0,0:0:0:0:
256,192,88056,1,2,0:0:0:0:
256,192,88253,1,0,0:0:0:0:
256,192,88450,1,2,0:0:0:0:
256,192,88648,1,0,0:0:0:0:
256,160,88845,2,0,L|256:224,8,35
256,192,90029,1,2,0:0:0:0:
256,192,90424,1,0,0:0:0:0:
256,192,90621,1,0,0:0:0:0:
256,192,90819,1,2,0:0:0:0:
256,192,91016,1,0,0:0:0:0:
256,192,91411,1,2,0:0:0:0:
256,192,91608,1,2,0:0:0:0:
256,192,91806,1,0,0:0:0:0:
256,192,92200,1,0,0:0:0:0:
256,192,92398,1,2,0:0:0:0:
256,192,92595,1,0,0:0:0:0:
256,192,92792,1,0,0:0:0:0:
256,192,93187,1,0,0:0:0:0:
256,192,93385,1,0,0:0:0:0:
256,192,93582,1,2,0:0:0:0:
256,192,93977,1,2,0:0:0:0:
256,192,94174,1,0,0:0:0:0:
256,192,94569,1,0,0:0:0:0:
256,192,94766,1,2,0:0:0:0:
256,192,94963,1,0,0:0:0:0:
256,192,95358,1,2,0:0:0:0:
256,192,95556,1,2,0:0:0:0:
256,160,95753,1,0,0:0:0:0:
256,192,95950,1,6,0:0:0:0:
256,192,96345,1,0,0:0:0:0:
256,192,96542,1,6,0:0:0:0:
256,192,96937,1,0,0:0:0:0:
256,192,97135,1,6,0:0:0:0:
256,192,97529,1,0,0:0:0:0:
256,192,97726,1,6,0:0:0:0:
256,192,98121,1,0,0:0:0:0:
256,192,98318,1,6,0:0:0:0:
256,192,98713,1,0,0:0:0:0:
256,192,99108,1,6,0:0:0:0:
256,192,99503,1,0,0:0:0:0:
256,192,99898,1,0,0:0:0:0:
256,192,100095,1,2,0:0:0:0:
256,192,100292,1,2,0:0:0:0:
256,192,100687,1,0,0:0:0:0:
256,192,101082,1,0,0:0:0:0:
256,224,101477,2,0,L|256:160,8,35
256,192,102661,1,0,0:0:0:0:
256,192,103056,1,0,0:0:0:0:
256,192,103450,1,0,0:0:0:0:
256,192,103845,1,2,0:0:0:0:
256,192,104042,1,2,0:0:0:0:
256,192,104240,1,2,0:0:0:0:
256,192,104437,1,2,0:0:0:0:
256,192,104635,1,0,0:0:0:0:
256,192,105029,1,2,0:0:0:0:
256,192,105424,1,6,0:0:0:0:
256,192,105819,1,0,0:0:0:0:
256,192,106016,1,0,0:0:0:0:
256,192,106312,1,2,0:0:0:0:
256,192,106411,1,2,0:0:0:0:
256,192,106608,1,2,0:0:0:0:
256,192,106806,1,0,0:0:0:0:
256,192,107003,1,2,0:0:0:0:
256,192,107398,1,0,0:0:0:0:
256,192,107595,1,0,0:0:0:0:
256,192,107891,1,2,0:0:0:0:
256,192,107990,1,2,0:0:0:0:
256,192,108187,1,2,0:0:0:0:
256,192,108385,1,0,0:0:0:0:
256,192,108582,1,2,0:0:0:0:
256,192,108977,1,0,0:0:0:0:
256,192,109174,1,0,0:0:0:0:
256,192,109470,1,2,0:0:0:0:
256,192,109569,1,2,0:0:0:0:
256,192,109766,1,2,0:0:0:0:
256,192,109963,1,0,0:0:0:0:
256,192,110161,1,0,0:0:0:0:
256,192,110358,1,2,0:0:0:0:
256,192,110556,1,0,0:0:0:0:
256,192,110753,1,0,0:0:0:0:
256,192,111049,1,2,0:0:0:0:
256,192,111148,1,2,0:0:0:0:
256,192,111345,1,2,0:0:0:0:
256,192,111542,1,0,0:0:0:0:
256,192,111740,1,6,0:0:0:0:
256,192,112135,1,0,0:0:0:0:
256,192,112332,1,0,0:0:0:0:
256,192,112727,1,2,0:0:0:0:
256,192,112924,1,2,0:0:0:0:
256,192,113121,1,0,0:0:0:0:
256,192,113319,1,2,0:0:0:0:
256,192,113713,1,0,0:0:0:0:
256,192,113911,1,0,0:0:0:0:
256,192,114306,1,2,0:0:0:0:
256,192,114503,1,2,0:0:0:0:
256,192,114700,1,0,0:0:0:0:
256,192,114898,1,2,0:0:0:0:
256,192,115292,1,0,0:0:0:0:
256,192,115490,1,0,0:0:0:0:
256,192,115885,1,2,0:0:0:0:
256,192,116082,1,2,0:0:0:0:
256,192,116279,1,0,0:0:0:0:
256,192,116476,1,2,0:0:0:0:
256,192,116674,1,0,0:0:0:0:
256,192,116871,1,0,0:0:0:0:
256,192,117068,1,0,0:0:0:0:
256,192,117463,1,2,0:0:0:0:
256,192,117661,1,0,0:0:0:0:
