osu file format v14

[General]
AudioFilename: audio.mp3
AudioLeadIn: 0
PreviewTime: 76510
Countdown: 0
SampleSet: Normal
StackLeniency: 0.7
Mode: 1
LetterboxInBreaks: 0
WidescreenStoryboard: 0

[Editor]
DistanceSpacing: 0.9
BeatDivisor: 4
GridSize: 32
TimelineZoom: 2.1

[Metadata]
Title:LOVE no Shirushi
TitleUnicode:LOVEのしるし
Artist:Silent Siren
ArtistUnicode:Silent Siren
Creator:Igor Sprite
Version:Kantan
Source:
Tags:サイレントサイレン yoshida sumire umemura hinako yamauchi aina kurosaka yukako loveshiru
BeatmapID:1150817
BeatmapSetID:541897

[Difficulty]
HPDrainRate:8
CircleSize:2
OverallDifficulty:3
ApproachRate:7
SliderMultiplier:1.4
SliderTickRate:1

[Events]
//Background and Video events
0,0,"sda.jpg",0,60
//Break Periods
//Storyboard Layer 0 (Background)
//Storyboard Layer 1 (Fail)
//Storyboard Layer 2 (Pass)
//Storyboard Layer 3 (Foreground)
//Storyboard Sound Samples

[TimingPoints]
1214,394.736842105263,4,1,0,40,1,0
7529,-100,4,1,0,60,0,0
12463,-100,4,1,0,75,0,0
13845,-100,4,1,0,85,0,0
26575,-100,4,1,0,40,0,0
39108,-100,4,1,0,75,0,0
51838,-100,4,1,0,75,0,0
75424,-100,4,1,0,75,0,0
77003,-100,4,1,0,80,0,1
102266,-100,4,1,0,80,0,0
102661,-100,4,1,0,60,0,0
105424,-100,4,1,0,80,0,0
111740,-100,4,1,0,70,0,0
113319,-100,4,1,0,60,0,0
113911,-100,4,1,0,50,0,0
114898,-100,4,1,0,40,0,0
115292,-100,4,1,0,35,0,0
115687,-100,4,1,0,30,0,0
116082,-100,4,1,0,25,0,0
116477,-100,4,1,0,20,0,0
116871,-100,4,1,0,15,0,0
117266,-100,4,1,0,10,0,0
117661,-100,4,1,0,5,0,0

[HitObjects]
256,192,1214,5,0,0:0:0:0:
256,192,2792,1,2,0:0:0:0:
256,192,4371,1,2,0:0:0:0:
256,192,5950,1,0,0:0:0:0:
256,192,7135,1,2,0:0:0:0:
256,192,7529,1,4,0:0:0:0:
256,192,8319,1,2,0:0:0:0:
256,192,9108,1,0,0:0:0:0:
256,192,9898,1,2,0:0:0:0:
256,192,10687,1,0,0:0:0:0:
256,192,11477,1,2,0:0:0:0:
256,192,12069,1,4,0:0:0:0:
256,192,12463,2,0,L|256:128,10,35
256,192,13845,1,6,0:0:0:0:
256,192,14240,1,0,0:0:0:0:
224,224,15029,1,0,0:0:0:0:
256,160,15424,1,2,0:0:0:0:
224,256,15819,1,0,0:0:0:0:
256,192,16608,1,0,0:0:0:0:
256,192,17003,1,2,0:0:0:0:
256,128,17398,1,0,0:0:0:0:
256,192,18187,1,0,0:0:0:0:
256,192,18582,1,2,0:0:0:0:
256,192,19371,1,0,0:0:0:0:
256,192,20161,1,6,0:0:0:0:
192,64,20556,1,0,0:0:0:0:
256,192,21345,1,2,0:0:0:0:
256,192,21740,1,2,0:0:0:0:
320,192,22135,1,0,0:0:0:0:
160,224,22924,1,2,0:0:0:0:
256,192,23319,1,2,0:0:0:0:
256,192,23713,1,0,0:0:0:0:
256,192,24503,1,2,0:0:0:0:
256,192,24898,1,2,0:0:0:0:
256,192,26082,1,2,0:0:0:0:
256,192,26477,1,4,0:0:0:0:
256,192,28056,1,4,0:0:0:0:
256,192,29240,1,2,0:0:0:0:
256,192,29635,1,4,0:0:0:0:
256,192,31213,1,4,0:0:0:0:
256,192,32398,1,0,0:0:0:0:
256,192,32792,1,4,0:0:0:0:
256,192,34371,1,4,0:0:0:0:
256,192,35556,1,2,0:0:0:0:
256,192,35950,1,4,0:0:0:0:
256,192,36740,1,0,0:0:0:0:
256,192,37529,1,4,0:0:0:0:
256,192,39108,1,4,0:0:0:0:
256,192,40292,1,2,0:0:0:0:
256,192,40687,1,0,0:0:0:0:
256,192,41871,1,0,0:0:0:0:
256,192,42266,1,2,0:0:0:0:
256,192,43450,1,0,0:0:0:0:
256,192,43845,1,2,0:0:0:0:
256,192,44635,1,2,0:0:0:0:
256,192,45424,1,6,0:0:0:0:
192,192,45819,1,2,0:0:0:0:
256,192,46608,1,0,0:0:0:0:
256,192,47398,1,2,0:0:0:0:
256,192,48582,1,0,0:0:0:0:
256,192,49371,1,0,0:0:0:0:
256,192,49766,1,2,0:0:0:0:
256,192,50950,1,2,0:0:0:0:
256,192,51740,1,4,0:0:0:0:
256,192,52529,1,2,0:0:0:0:
256,192,53319,1,0,0:0:0:0:
256,192,54108,1,2,0:0:0:0:
224,128,54503,1,0,0:0:0:0:
256,192,54898,1,6,0:0:0:0:
256,192,55687,1,0,0:0:0:0:
256,192,56477,1,0,0:0:0:0:
256,192,57266,1,0,0:0:0:0:
256,192,57661,1,2,0:0:0:0:
256,192,58056,1,6,0:0:0:0:
256,192,58845,1,0,0:0:0:0:
256,192,59635,1,0,0:0:0:0:
256,192,60424,1,0,0:0:0:0:
256,192,60819,1,2,0:0:0:0:
256,192,61213,1,6,0:0:0:0:
256,192,62003,1,0,0:0:0:0:
256,192,62792,1,0,0:0:0:0:
256,96,63977,1,2,0:0:0:0:
256,192,64371,1,6,0:0:0:0:
256,192,65161,1,2,0:0:0:0:
256,192,65950,1,0,0:0:0:0:
256,192,66740,1,2,0:0:0:0:
256,96,67135,1,0,0:0:0:0:
256,192,67529,1,6,0:0:0:0:
256,192,68319,1,0,0:0:0:0:
256,192,69108,1,2,0:0:0:0:
256,192,69898,1,0,0:0:0:0:
256,160,70292,1,2,0:0:0:0:
256,192,70687,1,6,0:0:0:0:
256,192,71477,1,0,0:0:0:0:
256,192,72069,1,6,0:0:0:0:
160,192,73056,1,2,0:0:0:0:
256,160,73450,1,0,0:0:0:0:
256,192,73845,1,6,0:0:0:0:
288,96,74635,1,0,0:0:0:0:
256,192,75424,12,0,76608,0:0:0:0:
256,192,77003,5,4,0:0:0:0:
256,192,78187,1,0,0:0:0:0:
256,192,78582,1,2,0:0:0:0:
256,192,78977,1,0,0:0:0:0:
256,192,79766,1,2,0:0:0:0:
256,192,80556,1,0,0:0:0:0:
256,192,81345,1,0,0:0:0:0:
256,192,81740,1,2,0:0:0:0:
256,192,82529,1,0,0:0:0:0:
256,192,83319,1,6,0:0:0:0:
256,192,83911,1,6,0:0:0:0:
256,192,84503,1,6,0:0:0:0:
256,192,85095,1,6,0:0:0:0:
256,192,85687,1,6,0:0:0:0:
256,192,86477,1,4,0:0:0:0:
256,192,87661,1,2,0:0:0:0:
256,192,88056,1,0,0:0:0:0:
256,192,88845,1,0,0:0:0:0:
256,192,89240,1,0,0:0:0:0:
256,192,89635,1,6,0:0:0:0:
256,192,90819,1,2,0:0:0:0:
256,192,91608,1,0,0:0:0:0:
256,192,92398,1,0,0:0:0:0:
256,192,92792,1,2,0:0:0:0:
256,192,93977,1,2,0:0:0:0:
256,192,94371,1,0,0:0:0:0:
256,192,94766,1,2,0:0:0:0:
256,192,95161,1,0,0:0:0:0:
256,192,95950,1,6,0:0:0:0:
256,192,96542,1,6,0:0:0:0:
256,192,97135,1,6,0:0:0:0:
256,192,97727,1,6,0:0:0:0:
256,192,98319,1,6,0:0:0:0:
256,192,98713,1,2,0:0:0:0:
256,192,99108,1,4,0:0:0:0:
256,192,100292,1,0,0:0:0:0:
256,192,100687,1,2,0:0:0:0:
256,192,101477,1,0,0:0:0:0:
256,192,101871,1,0,0:0:0:0:
256,192,102266,1,4,0:0:0:0:
256,192,103056,1,0,0:0:0:0:
256,192,103845,2,0,L|256:128,12,35
256,192,105424,1,4,0:0:0:0:
256,192,105819,1,0,0:0:0:0:
256,192,106213,1,2,0:0:0:0:
256,192,107003,1,0,0:0:0:0:
256,192,107398,1,0,0:0:0:0:
256,192,107792,1,2,0:0:0:0:
256,192,108582,1,0,0:0:0:0:
256,192,108977,1,0,0:0:0:0:
256,192,109371,1,2,0:0:0:0:
256,192,110161,1,0,0:0:0:0:
256,192,110556,1,2,0:0:0:0:
256,192,111345,1,2,0:0:0:0:
256,192,111740,1,4,0:0:0:0:
256,192,113319,1,0,0:0:0:0:
256,192,113713,1,2,0:0:0:0:
256,192,114898,1,0,0:0:0:0:
256,192,115292,1,2,0:0:0:0:
256,192,116477,1,0,0:0:0:0:
256,192,116871,1,2,0:0:0:0:
256,192,117661,1,0,0:0:0:0:
