osu file format v14

[General]
AudioFilename: 01. Koiyuki.mp3
AudioLeadIn: 0
PreviewTime: 205980
Countdown: 0
SampleSet: Soft
StackLeniency: 0.4
Mode: 0
LetterboxInBreaks: 0
WidescreenStoryboard: 0

[Editor]
Bookmarks: 721,30961,45961,60961,75961,90961,109711,124711,139711,154711,173461,188461,207211,222211,237211,252211,270961,285961,300961,308283
DistanceSpacing: 1.2
BeatDivisor: 4
GridSize: 4
TimelineZoom: 2.2

[Metadata]
Title:Koi Yuki
TitleUnicode:恋い雪
Artist:Silent Siren
ArtistUnicode:Silent Siren
Creator:lit120
Version:Confession
Source:
Tags:サイレント サイレン あいにゃん クボナオキ サイサイ -Hakurei- Iceskulls CelsiusLK full version japanese pop jpop j-pop xmas christmas
BeatmapID:2713319
BeatmapSetID:1308821

[Difficulty]
HPDrainRate:6
CircleSize:4.3
OverallDifficulty:8
ApproachRate:8.5
SliderMultiplier:1.7
SliderTickRate:1

[Events]
//Background and Video events
0,0,"bg.jpg",0,0
//Break Periods
2,203426,206536
//Storyboard Layer 0 (Background)
//Storyboard Layer 1 (Fail)
//Storyboard Layer 2 (Pass)
//Storyboard Layer 3 (Foreground)
//Storyboard Layer 4 (Overlay)
//Storyboard Sound Samples

[TimingPoints]
721,545.454545454546,4,2,1,40,1,0
721,-333.333333333333,4,2,1,40,0,0
2085,545.454545454546,4,2,1,40,1,0
2085,-333.333333333333,4,2,1,40,0,0
12994,645.161290322581,4,2,1,40,1,0
13316,-333.333333333333,4,2,1,40,0,0
14284,674.157303370787,4,2,1,30,1,0
14284,-333.333333333333,4,2,1,30,0,0
14958,705.882352941176,4,2,1,20,1,0
15663,561.797752808989,4,2,1,20,1,0
17634,468.75,4,2,1,50,1,0
17634,-133.333333333333,4,2,1,50,0,0
17836,468.75,4,2,1,70,1,0
17836,-83.3333333333333,4,2,1,70,0,0
20882,-83.3333333333333,4,2,1,55,0,0
21117,-83.3333333333333,4,2,1,70,0,0
26507,-83.3333333333333,4,2,1,55,0,0
26742,-83.3333333333333,4,2,1,70,0,0
29086,-200,4,2,1,70,0,0
30961,-133.333333333333,4,2,2,55,0,0
31312,-133.333333333333,4,2,2,5,0,0
31429,-133.333333333333,4,2,2,55,0,0
37875,-133.333333333333,4,2,2,5,0,0
37992,-76.9230769230769,4,2,2,55,0,0
38461,-133.333333333333,4,2,2,55,0,0
38812,-133.333333333333,4,2,2,5,0,0
38929,-133.333333333333,4,2,2,55,0,0
45375,-133.333333333333,4,2,2,5,0,0
45492,-76.9230769230769,4,2,2,55,0,0
46429,-133.333333333333,4,2,1,55,0,0
60961,-100,4,2,1,70,0,0
63187,-100,4,2,1,5,0,0
63304,-100,4,2,1,70,0,0
71742,-133.333333333333,4,2,1,70,0,0
72093,-133.333333333333,4,2,1,5,0,0
72211,-100,4,2,1,70,0,0
73851,-100,4,2,1,65,0,0
74320,-100,4,2,1,70,0,0
74789,-100,4,2,1,75,0,0
75961,-83.3333333333333,4,2,1,80,0,1
83343,-83.3333333333333,4,2,1,5,0,1
83461,-83.3333333333333,4,2,1,80,0,1
89671,-83.3333333333333,4,2,1,5,0,1
89789,-83.3333333333333,4,2,1,80,0,1
89906,-83.3333333333333,4,2,1,5,0,1
90023,-83.3333333333333,4,2,1,80,0,1
92250,-83.3333333333333,4,2,1,5,0,1
92367,-83.3333333333333,4,2,1,80,0,1
93656,-83.3333333333333,4,2,1,5,0,1
93773,-83.3333333333333,4,2,1,80,0,1
96000,-83.3333333333333,4,2,1,5,0,1
96117,-83.3333333333333,4,2,1,80,0,1
105961,-166.666666666667,4,2,1,80,0,0
106078,-166.666666666667,4,2,1,60,0,0
107836,-166.666666666667,4,2,1,80,0,0
108187,-166.666666666667,4,2,1,5,0,0
108304,-166.666666666667,4,2,1,80,0,0
109711,-133.333333333333,4,2,1,70,0,0
124711,-100,4,2,1,70,0,0
126937,-100,4,2,1,5,0,0
127054,-100,4,2,1,70,0,0
137601,-100,4,2,1,65,0,0
138070,-100,4,2,1,70,0,0
138539,-100,4,2,1,75,0,0
139007,-100,4,2,1,80,0,0
139711,-83.3333333333333,4,2,1,80,0,1
153421,-83.3333333333333,4,2,1,5,0,1
153539,-83.3333333333333,4,2,1,80,0,1
156000,-83.3333333333333,4,2,1,5,0,1
156117,-83.3333333333333,4,2,1,80,0,1
159750,-83.3333333333333,4,2,1,5,0,1
159867,-83.3333333333333,4,2,1,80,0,1
169711,-200,4,2,1,80,0,0
169828,-200,4,2,1,60,0,0
171586,-100,4,2,1,50,0,0
171820,-100,4,2,1,55,0,0
172054,-100,4,2,1,60,0,0
172289,-100,4,2,1,65,0,0
172523,-100,4,2,1,70,0,0
173461,-83.3333333333333,4,2,1,80,0,0
174046,-83.3333333333333,4,2,1,5,0,0
174164,-83.3333333333333,4,2,1,80,0,0
174281,-83.3333333333333,4,2,1,5,0,0
174398,-83.3333333333333,4,2,1,80,0,0
174984,-83.3333333333333,4,2,1,5,0,0
175101,-83.3333333333333,4,2,1,80,0,0
175218,-83.3333333333333,4,2,1,5,0,0
175336,-83.3333333333333,4,2,1,80,0,0
175921,-83.3333333333333,4,2,1,5,0,0
176039,-83.3333333333333,4,2,1,80,0,0
176156,-83.3333333333333,4,2,1,5,0,0
176273,-83.3333333333333,4,2,1,80,0,0
177796,-83.3333333333333,4,2,1,5,0,0
177914,-83.3333333333333,4,2,1,80,0,0
178031,-83.3333333333333,4,2,1,5,0,0
178148,-83.3333333333333,4,2,1,80,0,0
178734,-83.3333333333333,4,2,1,5,0,0
178851,-83.3333333333333,4,2,1,80,0,0
178968,-83.3333333333333,4,2,1,5,0,0
179086,-83.3333333333333,4,2,1,80,0,0
182484,-83.3333333333333,4,2,1,5,0,0
182601,-83.3333333333333,4,2,1,80,0,0
182718,-83.3333333333333,4,2,1,5,0,0
182836,-83.3333333333333,4,2,1,80,0,0
184359,-83.3333333333333,4,2,1,5,0,0
184476,-83.3333333333333,4,2,1,80,0,0
184593,-83.3333333333333,4,2,1,5,0,0
184711,-83.3333333333333,4,2,1,80,0,0
191742,-66.6666666666667,4,2,1,80,0,0
192211,-83.3333333333333,4,2,1,80,0,0
195023,-111.111111111111,4,2,1,80,0,0
195375,-111.111111111111,4,2,1,5,0,0
195492,-83.3333333333333,4,2,1,80,0,0
195609,-83.3333333333333,4,2,1,5,0,0
195726,-83.3333333333333,4,2,1,80,0,0
195843,-83.3333333333333,4,2,1,5,0,0
195961,-83.3333333333333,4,2,1,80,0,0
196312,-83.3333333333333,4,2,1,5,0,0
196429,-83.3333333333333,4,2,1,80,0,0
201937,-83.3333333333333,4,2,1,5,0,0
202054,-83.3333333333333,4,2,1,80,0,0
207211,-333.333333333333,4,2,1,40,0,0
221507,-333.333333333333,4,2,1,20,0,0
222211,-166.666666666667,4,2,1,40,0,0
235336,-100,4,2,1,80,0,0
237211,-83.3333333333333,4,2,1,80,0,1
250570,-83.3333333333333,4,2,1,5,0,1
250687,-83.3333333333333,4,2,1,80,0,1
250921,-83.3333333333333,4,2,1,5,0,1
251039,-83.3333333333333,4,2,1,80,0,1
253500,-83.3333333333333,4,2,1,5,0,1
253617,-83.3333333333333,4,2,1,80,0,1
257250,-83.3333333333333,4,2,1,5,0,1
257367,-83.3333333333333,4,2,1,80,0,1
267211,-200,4,2,1,80,0,0
269086,-100,4,2,1,40,0,0
270961,-83.3333333333333,4,2,1,80,0,0
279984,-83.3333333333333,4,2,1,5,0,0
280101,-83.3333333333333,4,2,1,80,0,0
280218,-83.3333333333333,4,2,1,5,0,0
280336,-83.3333333333333,4,2,1,80,0,0
281859,-83.3333333333333,4,2,1,5,0,0
281976,-83.3333333333333,4,2,1,80,0,0
282093,-83.3333333333333,4,2,1,5,0,0
282211,-83.3333333333333,4,2,1,80,0,0
286546,-83.3333333333333,4,2,1,5,0,0
286664,-83.3333333333333,4,2,1,80,0,0
286781,-83.3333333333333,4,2,1,5,0,0
286898,-83.3333333333333,4,2,1,80,0,0
287484,-83.3333333333333,4,2,1,5,0,0
287601,-83.3333333333333,4,2,1,80,0,0
287718,-83.3333333333333,4,2,1,5,0,0
287836,-83.3333333333333,4,2,1,80,0,0
289125,-83.3333333333333,4,2,1,5,0,0
289242,-66.6666666666667,4,2,1,80,0,0
289593,-66.6666666666667,4,2,1,5,0,0
289711,-83.3333333333333,4,2,1,80,0,0
290296,-83.3333333333333,4,2,1,5,0,0
290414,-83.3333333333333,4,2,1,80,0,0
290531,-83.3333333333333,4,2,1,5,0,0
290648,-83.3333333333333,4,2,1,80,0,0
291234,-83.3333333333333,4,2,1,5,0,0
291351,-83.3333333333333,4,2,1,80,0,0
291468,-83.3333333333333,4,2,1,5,0,0
291586,-83.3333333333333,4,2,1,80,0,0
292640,-83.3333333333333,4,2,1,5,0,0
292757,-83.3333333333333,4,2,1,80,0,0
292875,-83.3333333333333,4,2,1,5,0,0
292992,-83.3333333333333,4,2,1,80,0,0
293812,-83.3333333333333,4,2,1,5,0,0
293929,-83.3333333333333,4,2,1,80,0,0
294984,-83.3333333333333,4,2,1,5,0,0
295101,-83.3333333333333,4,2,1,80,0,0
295218,-83.3333333333333,4,2,1,5,0,0
295336,-83.3333333333333,4,2,1,80,0,0
296859,-83.3333333333333,4,2,1,5,0,0
296976,-83.3333333333333,4,2,1,80,0,0
297093,-83.3333333333333,4,2,1,5,0,0
297211,-83.3333333333333,4,2,1,80,0,0
300961,472.44094488189,4,2,1,40,1,0
300961,-133.333333333333,4,2,1,40,0,0
308283,-133.333333333333,4,2,1,20,0,0

[Colours]
Combo1 : 177,180,186
Combo2 : 86,99,131
Combo3 : 199,56,60
Combo4 : 129,103,109

[HitObjects]
90,203,721,6,0,P|81:171|77:158,2,25.4999992218018,2|2|2,0:0|0:0|0:0,0:0:0:0:
84,292,1539,2,0,P|93:282|102:272,1,25.4999992218018,2|2,0:0|0:0,0:0:0:0:
182,233,2085,6,0,P|199:232|212:234,1,25.4999992218018,2|2,0:0|0:0,0:0:0:0:
259,292,2630,2,0,P|266:276|274:266,1,25.4999992218018,2|2,0:0|0:0,0:0:0:0:
348,254,3175,1,2,0:0:0:0:
348,254,3721,2,0,P|338:239|333:227,1,25.4999992218018,2|2,0:0|0:0,0:0:0:0:
376,65,4266,5,2,0:0:0:0:
366,136,4539,1,2,0:0:0:0:
310,91,4812,1,2,0:0:0:0:
310,91,5357,1,2,0:0:0:0:
310,91,6448,5,2,0:0:0:0:
254,47,6721,2,0,P|252:26|252:12,2,25.4999992218018,2|2|2,0:0|0:0|0:0,0:0:0:0:
187,73,7539,1,2,0:0:0:0:
187,73,8085,6,0,P|185:96|183:108,1,25.4999992218018,2|2,0:0|0:0,0:0:0:0:
142,233,8630,2,0,P|162:223|174:218,1,25.4999992218018,2|2,0:0|0:0,0:0:0:0:
304,192,9175,2,0,P|285:178|275:171,1,25.4999992218018,2|0,0:0|0:0,0:0:0:0:
211,166,9721,1,2,0:0:0:0:
211,166,10539,5,2,0:0:0:0:
213,176,10675,1,2,0:0:0:0:
215,186,10812,2,0,P|215:211|216:223,1,25.4999992218018,2|0,0:0|0:0,0:0:0:0:
290,278,11357,2,0,P|290:253|289:241,1,25.4999992218018,2|0,0:0|0:0,0:0:0:0:
210,321,11903,2,0,P|177:311|156:308,1,50.9999984436036,2|2,0:0|0:0,0:0:0:0:
81,360,12721,2,0,P|85:340|87:327,1,25.4999992218018,2|0,0:0|0:0,0:0:0:0:
49,254,13316,6,0,P|54:219|56:197,1,50.9999984436036,2|2,0:0|0:0,0:0:0:0:
6,124,14284,6,0,P|35:127|62:121,1,50.9999984436036,2|2,0:0|0:0,0:0:0:0:
157,52,15663,5,2,0:0:0:0:
157,52,17634,6,0,L|161:94,1,31.8750012159348,2|2,0:0|0:0,0:0:0:0:
210,144,17836,6,0,P|276:123|324:118,1,101.999996887207,6|2,3:2|0:0,0:0:0:0:
425,178,18304,1,2,3:2:0:0:
265,292,18539,2,0,B|147:306|201:211|81:229,1,203.999993774414,8|2,0:3|0:0,0:0:0:0:
32,331,19242,1,4,3:3:0:0:
256,202,19476,1,4,0:3:0:0:
256,202,19593,1,4,0:3:0:0:
256,202,19711,6,0,P|341:248|336:345,1,203.999993774414,6|0,3:2|3:2,0:0:0:0:
435,201,20414,2,0,P|426:157|421:93,1,101.999996887207,2|0,0:0|3:2,0:0:0:0:
320,28,20882,1,8,0:3:0:0:
167,190,21117,1,8,3:3:0:0:
77,82,21351,1,2,0:0:0:0:
77,82,21468,1,2,0:0:0:0:
77,82,21586,6,0,B|161:92|161:92|188:113|188:113|275:123,1,203.999993774414,6|0,3:2|3:2,0:0:0:0:
435,312,22289,2,0,P|425:254|285:254,1,203.999993774414,8|4,0:3|0:3,0:0:0:0:
160,357,22992,1,8,3:3:0:0:
17,275,23226,1,4,0:3:0:0:
19,262,23343,1,4,0:3:0:0:
22,250,23461,6,0,B|31:180|52:114|52:114|86:138|98:176,1,203.999993774414,6|0,3:2|3:2,0:0:0:0:
161,281,24164,1,2,0:0:0:0:
273,56,24398,1,0,3:2:0:0:
294,257,24632,1,8,0:3:0:0:
108,174,24867,1,4,0:3:0:0:
224,161,25101,1,2,0:0:0:0:
224,161,25218,1,2,0:0:0:0:
224,161,25336,6,0,P|281:161|334:156,1,101.999996887207,6|2,3:2|0:0,0:0:0:0:
425,70,25804,1,0,3:2:0:0:
473,257,26039,2,0,P|468:312|467:368,1,101.999996887207,8|0,0:3|3:2,0:0:0:0:
319,270,26507,1,4,0:3:0:0:
507,134,26742,1,8,3:3:0:0:
359,45,26976,1,4,0:3:0:0:
359,45,27093,1,4,0:3:0:0:
359,45,27211,5,6,3:2:0:0:
279,104,27445,2,0,P|208:101|170:90,1,101.999996887207,2|0,0:0|3:2,0:0:0:0:
85,206,27914,1,4,0:3:0:0:
193,384,28148,1,2,3:2:0:0:
210,174,28382,1,2,0:0:0:0:
74,335,28617,1,2,3:2:0:0:
277,286,28851,1,10,0:0:0:0:
330,213,29086,6,0,P|331:180|327:165,2,42.5,2|2|2,0:0|0:0|0:0,0:0:0:0:
415,167,29789,2,0,P|446:157|459:149,2,42.5,2|2|2,0:0|0:0|0:0,0:0:0:0:
485,233,30492,2,0,P|503:260|515:270,1,42.5,2|2,0:0|0:0,0:0:0:0:
444,320,30961,6,0,P|398:326|353:309,1,95.6250036478044,4|0,3:2|0:0,0:0:0:0:
328,288,31429,2,0,P|338:265|360:232,1,63.7500024318696,10|0,0:0|0:0,0:0:0:0:
512,180,31898,2,0,P|449:168|398:132,1,127.500004863739,2|10,0:0|0:0,0:0:0:0:
328,20,32601,1,2,0:0:0:0:
224,168,32836,6,0,P|243:143|269:124,1,63.7500024318696,2|2,3:2|0:0,0:0:0:0:
67,176,33304,2,0,P|99:179|129:190,1,63.7500024318696,10|0,0:0|0:0,0:0:0:0:
272,256,33773,1,2,0:0:0:0:
52,328,34007,5,2,0:0:0:0:
67,176,34242,1,10,0:0:0:0:
180,352,34476,2,0,L|160:260,1,63.7500024318696,2|0,3:2|3:2,0:0:0:0:
120,48,34945,5,2,0:0:0:0:
68,176,35179,1,10,0:0:0:0:
272,256,35414,2,0,L|334:245,1,63.7500024318696,2|0,0:0|0:0,0:0:0:0:
496,184,35882,5,2,0:0:0:0:
336,112,36117,1,10,0:0:0:0:
260,236,36351,1,2,0:0:0:0:
400,352,36586,5,2,3:2:0:0:
352,268,36820,1,2,0:0:0:0:
444,236,37054,1,10,0:0:0:0:
496,316,37289,1,2,0:0:0:0:
256,296,37523,2,0,P|207:286|161:280,1,95.6250036478044,2|0,0:0|0:0,0:0:0:0:
147,275,37992,6,0,P|192:222|257:222,1,110.499994941712,10|0,0:0|3:2,0:0:0:0:
400,352,38461,6,0,P|390:305|374:259,1,95.6250036478044,0|0,3:2|0:0,0:0:0:0:
348,240,38929,2,0,P|364:208|385:188,1,63.7500024318696,10|0,0:0|0:0,0:0:0:0:
512,44,39398,2,0,P|469:89|396:96,1,127.500004863739,2|10,0:0|0:0,0:0:0:0:
248,160,40101,1,2,0:0:0:0:
432,16,40336,5,2,3:2:0:0:
432,16,40570,1,2,0:0:0:0:
472,220,40804,2,0,P|408:208|345:204,1,127.500004863739,10|2,0:0|0:0,0:0:0:0:
192,272,41507,5,2,0:0:0:0:
276,352,41742,1,10,0:0:0:0:
88,308,41976,2,0,L|0:324,1,63.7500024318696,2|0,3:2|3:2,0:0:0:0:
160,128,42445,5,2,0:0:0:0:
192,272,42679,1,10,0:0:0:0:
36,116,42914,2,0,L|16:40,1,63.7500024318696,2|0,0:0|0:0,0:0:0:0:
160,128,43382,5,2,0:0:0:0:
88,308,43617,1,10,0:0:0:0:
228,192,43851,1,2,0:0:0:0:
340,44,44086,5,2,3:2:0:0:
404,116,44320,1,2,0:0:0:0:
320,160,44554,1,10,0:0:0:0:
256,88,44789,1,2,0:0:0:0:
463,188,45023,2,0,P|452:236|445:281,1,95.6250036478044,2|0,0:0|0:0,0:0:0:0:
446,294,45492,6,0,P|393:255|333:260,1,110.499994941712,10|0,0:0|3:2,0:0:0:0:
166,337,45961,1,4,3:2:0:0:
166,337,46429,6,0,P|159:293|162:248,1,63.7500024318696,2|8,0:0|0:0,0:0:0:0:
46,133,46898,2,0,P|52:164|74:187,1,63.7500024318696,2|0,0:0|0:0,0:0:0:0:
254,48,47367,1,10,0:0:0:0:
408,154,47601,6,0,B|354:146|354:146|331:151|331:151|250:139,1,127.500004863739,2|2,3:2|0:0,0:0:0:0:
189,190,48304,1,0,0:0:0:0:
326,335,48539,2,0,P|389:304|484:295,1,127.500004863739,10|2,0:0|0:0,0:0:0:0:
258,226,49242,1,10,0:0:0:0:
168,356,49476,1,2,3:2:0:0:
132,163,49711,6,0,P|138:95|135:-12,1,127.500004863739,0|0,3:2|0:0,0:0:0:0:
340,186,50414,2,0,P|284:146|189:95,1,127.500004863739,8|2,0:0|0:0,0:0:0:0:
463,17,51117,1,10,0:0:0:0:
349,75,51351,1,2,3:2:0:0:
457,317,51586,5,2,3:2:0:0:
511,150,51820,1,2,0:0:0:0:
340,186,52054,1,2,0:0:0:0:
435,219,52289,1,10,0:0:0:0:
293,321,52523,2,0,P|225:300|131:286,1,127.500004863739,2|10,0:0|0:0,0:0:0:0:
71,153,53226,1,0,3:2:0:0:
12,357,53461,1,0,3:2:0:0:
25,365,53929,6,0,P|79:342|99:339,1,63.7500024318696,2|8,0:0|0:0,0:0:0:0:
241,224,54398,2,0,P|210:215|182:200,1,63.7500024318696,2|0,0:0|0:0,0:0:0:0:
87,48,54867,1,10,0:0:0:0:
161,189,55101,1,2,3:2:0:0:
353,21,55336,5,2,3:2:0:0:
413,99,55570,1,2,0:0:0:0:
357,180,55804,1,2,0:0:0:0:
262,151,56039,1,10,0:0:0:0:
259,53,56273,1,2,0:0:0:0:
367,210,56507,5,2,0:0:0:0:
240,278,56742,1,10,0:0:0:0:
396,362,56976,2,0,P|473:345|490:347,1,63.7500024318696,2|0,3:2|3:2,0:0:0:0:
240,278,57445,5,2,0:0:0:0:
367,210,57679,1,2,0:0:0:0:
211,126,57914,2,0,P|133:142|116:140,1,63.7500024318696,10|0,0:0|0:0,0:0:0:0:
57,248,58382,5,2,0:0:0:0:
120,43,58617,1,10,0:0:0:0:
211,126,58851,1,2,3:2:0:0:
148,331,59086,5,2,3:2:0:0:
336,221,59320,1,2,0:0:0:0:
120,199,59554,1,2,0:0:0:0:
282,343,59789,1,10,0:0:0:0:
236,132,60023,2,0,P|242:82|249:51,1,63.7500024318696,2|8,0:0|0:3,0:0:0:0:
135,310,60492,1,10,0:0:0:0:
56,148,60726,1,2,3:2:0:0:
56,148,60843,1,2,0:0:0:0:
56,148,60961,6,0,P|138:127|222:115,1,170,6|0,3:2|0:0,0:0:0:0:
460,208,61664,2,0,P|377:187|293:175,1,170,10|0,0:0|0:0,0:0:0:0:
88,280,62367,1,8,0:0:0:0:
222,114,62601,1,2,3:2:0:0:
272,256,62836,6,0,P|276:312|281:383,1,127.5,2|0,3:2|0:0,0:0:0:0:
271,380,63304,2,0,P|306:355|347:342,1,85,2|8,0:0|0:0,0:0:0:0:
484,364,63773,1,2,0:0:0:0:
428,268,64007,1,0,3:2:0:0:
464,164,64242,1,10,0:0:0:0:
424,60,64476,1,0,3:2:0:0:
240,168,64711,6,0,P|168:210|86:194,1,170,2|0,3:2|0:0,0:0:0:0:
270,33,65414,2,0,P|351:17|423:59,1,170,10|0,0:0|3:2,0:0:0:0:
472,184,66117,1,8,0:0:0:0:
336,116,66351,1,2,3:2:0:0:
136,224,66586,6,0,L|40:212,1,85,2|0,3:2|0:0,0:0:0:0:
336,116,67054,2,0,L|420:126,1,85,2|8,0:0|0:0,0:0:0:0:
296,280,67523,1,2,0:0:0:0:
196,96,67757,1,0,3:2:0:0:
120,348,67992,1,10,0:0:0:0:
120,348,68226,1,0,3:2:0:0:
384,320,68461,6,0,B|412:236|344:236|380:152,1,170,6|8,3:2|0:0,0:0:0:0:
468,64,69164,1,2,0:0:0:0:
456,196,69398,1,0,3:2:0:0:
296,280,69632,1,0,3:2:0:0:
252,156,69867,1,8,0:0:0:0:
456,196,70101,1,2,0:0:0:0:
179,240,70336,6,0,P|137:236|100:216,1,85,2|0,3:2|0:0,0:0:0:0:
312,68,70804,2,0,P|354:71|391:91,1,85,10|0,0:0|0:0,0:0:0:0:
164,160,71273,1,2,3:2:0:0:
328,152,71507,1,0,3:2:0:0:
420,296,71742,2,0,P|372:288|325:282,1,95.6250036478044,10|0,0:0|0:0,0:0:0:0:
315,285,72211,6,0,P|250:335|173:307,1,170,6|8,3:2|0:0,0:0:0:0:
84,212,72914,1,2,3:2:0:0:
328,152,73148,1,2,3:2:0:0:
315,285,73382,1,0,0:0:0:0:
328,152,73617,1,8,0:0:0:0:
173,307,73851,5,2,3:2:0:0:
280,64,74320,1,10,0:0:0:0:
173,307,74789,1,10,0:0:0:0:
173,307,75257,1,2,0:0:0:0:
173,307,75492,1,2,0:0:0:0:
396,220,75726,1,2,0:0:0:0:
396,220,75843,1,2,0:0:0:0:
396,220,75961,5,6,3:2:0:0:
285,147,76195,1,2,3:2:0:0:
149,326,76429,1,10,0:0:0:0:
408,245,76664,1,2,0:0:0:0:
258,64,76898,2,0,P|263:121|258:183,1,101.999996887207,2|0,3:2|3:2,0:0:0:0:
47,290,77367,5,10,0:0:0:0:
122,114,77601,1,2,0:0:0:0:
78,325,77836,1,2,3:2:0:0:
91,79,78070,1,2,3:2:0:0:
266,250,78304,2,0,P|167:221|136:222,1,101.999996887207,10|0,0:0|0:0,0:0:0:0:
343,106,78773,2,0,P|393:97|439:77,1,101.999996887207,2|0,3:2|3:2,0:0:0:0:
497,322,79242,2,0,B|511:176|511:176|460:219,1,203.999993774414,10|2,0:0|3:2,0:0:0:0:
366,331,79945,5,2,3:2:0:0:
245,163,80179,1,10,0:0:0:0:
114,380,80414,1,2,0:0:0:0:
273,266,80648,2,0,P|348:246|413:240,1,101.999996887207,2|0,3:2|3:2,0:0:0:0:
150,87,81117,5,10,0:0:0:0:
111,183,81351,1,2,0:0:0:0:
47,101,81586,1,2,3:2:0:0:
259,215,81820,1,2,3:2:0:0:
54,341,82054,2,0,P|65:288|60:209,1,101.999996887207,10|0,0:0|0:0,0:0:0:0:
220,23,82523,2,0,P|220:73|231:123,1,101.999996887207,2|0,3:2|3:2,0:0:0:0:
463,229,82992,2,0,B|374:238|412:169|327:180,1,152.999995330811,10|0,0:0|0:0,0:0:0:0:
249,237,83461,6,0,P|259:292|262:347,1,101.999996887207,2|0,3:2|3:2,0:0:0:0:
407,166,83929,2,0,P|397:111|394:56,1,101.999996887207,10|0,0:2|0:0,0:0:0:0:
252,14,84398,1,2,3:2:0:0:
252,14,84632,1,0,3:2:0:0:
117,184,84867,1,10,0:0:0:0:
37,81,85101,6,0,P|107:99|157:102,1,101.999996887207,2|0,0:0|3:2,0:0:0:0:
320,268,85570,2,0,P|277:226|222:220,1,101.999996887207,2|8,3:2|0:0,0:0:0:0:
105,298,86039,1,2,0:0:0:0:
250,113,86273,1,2,3:2:0:0:
351,167,86507,1,2,3:2:0:0:
406,66,86742,1,10,0:0:0:0:
305,11,86976,1,2,0:0:0:0:
376,199,87211,6,0,B|441:222|501:164|501:164|507:200|474:233,1,203.999993774414,2|8,3:2|0:0,0:0:0:0:
346,334,87914,2,0,B|229:355|280:247|161:280,1,203.999993774414,2|0,0:0|3:2,0:0:0:0:
9,381,88617,2,0,P|25:335|30:267,1,101.999996887207,8|2,0:0|0:0,0:0:0:0:
139,27,89086,6,0,P|144:77|160:125,1,101.999996887207,2|0,3:2|3:2,0:0:0:0:
280,168,89437,2,0,P|233:147|183:137,1,101.999996887207,2|0,0:0|0:0,0:0:0:0:
87,219,89789,2,0,P|126:213|151:203,1,50.9999984436036,2|0,0:0|0:0,0:0:0:0:
292,350,90023,5,2,3:2:0:0:
157,222,90257,1,0,3:2:0:0:
445,250,90492,1,8,0:0:0:0:
454,213,90609,1,8,0:0:0:0:
457,175,90726,1,8,0:3:0:0:
455,137,90843,1,4,0:3:0:0:
448,100,90961,6,0,P|402:78|352:83,1,101.999996887207,6|2,3:2|3:2,0:0:0:0:
216,152,91429,1,10,0:0:0:0:
140,56,91664,1,2,0:0:0:0:
72,216,91898,2,0,P|55:290|44:366,1,152.999995330811,2|0,3:2|0:0,0:0:0:0:
80,356,92367,5,10,0:0:0:0:
200,380,92601,1,2,0:0:0:0:
272,276,92836,1,2,3:2:0:0:
188,184,93070,1,2,3:2:0:0:
71,215,93304,6,0,P|122:217|167:195,1,101.999996887207,10|0,0:0|0:0,0:0:0:0:
288,104,93773,2,0,P|337:98|392:124,1,101.999996887207,2|0,3:2|3:2,0:0:0:0:
460,256,94242,1,10,0:0:0:0:
272,276,94476,1,0,0:0:0:0:
468,176,94711,6,0,L|328:156,1,101.999996887207,2|2,3:2|3:2,0:0:0:0:
344,192,95062,1,0,3:2:0:0:
344,192,95179,2,0,P|360:244|368:290,1,101.999996887207,10|2,0:0|0:0,0:0:0:0:
143,167,95648,2,0,P|134:95|190:46,1,152.999995330811,2|0,3:2|0:0,0:0:0:0:
240,64,96117,1,10,0:0:0:0:
444,24,96351,1,2,0:0:0:0:
240,172,96586,5,2,3:2:0:0:
344,100,96820,1,2,3:2:0:0:
448,168,97054,1,10,0:0:0:0:
412,288,97289,1,2,0:0:0:0:
288,296,97523,1,2,3:2:0:0:
448,168,97757,1,0,3:2:0:0:
448,168,97875,1,0,3:2:0:0:
448,168,97992,1,10,0:0:0:0:
412,288,98226,1,0,3:2:0:0:
240,64,98461,6,0,P|184:52|139:48,1,101.999996887207,2|0,3:2|3:2,0:0:0:0:
328,140,98929,1,8,0:0:0:0:
72,228,99164,2,0,B|194:240|142:192|272:211,1,203.999993774414,2|0,0:0|3:2,0:0:0:0:
400,308,99867,1,10,0:0:0:0:
288,352,100101,1,0,0:0:0:0:
472,207,100336,6,0,P|461:158|440:108,1,101.999996887207,2|0,3:2|3:2,0:0:0:0:
272,256,100804,2,0,P|309:221|342:178,1,101.999996887207,10|0,0:0|0:0,0:0:0:0:
64,176,101273,2,0,P|112:191|166:198,1,101.999996887207,2|8,3:2|3:3,0:0:0:0:
441,111,101742,1,10,0:0:0:0:
276,52,101976,1,0,3:2:0:0:
396,280,102211,6,0,P|400:319|407:381,2,101.999996887207,6|0|0,3:2|0:0|0:0,0:0:0:0:
404,192,102914,1,0,3:2:0:0:
216,280,103148,2,0,P|168:264|117:251,1,101.999996887207,8|8,0:0|0:3,0:0:0:0:
4,276,103617,1,8,0:3:0:0:
288,176,103851,6,0,P|388:156|488:128,1,203.999993774414,14|8,0:0|0:3,0:0:0:0:
448,36,104554,1,0,0:0:0:0:
352,12,104789,1,4,0:3:0:0:
256,60,105023,1,4,0:3:0:0:
240,64,105140,1,4,0:3:0:0:
224,68,105257,1,4,0:3:0:0:
128,24,105492,1,4,0:3:0:0:
128,24,105726,1,4,0:3:0:0:
52,256,105961,5,6,3:2:0:0:
256,192,106078,12,0,107367,0:0:0:0:
52,256,107836,6,0,P|85:248|127:246,1,76.4999976654053,6|0,3:2|0:0,0:0:0:0:
144,256,108304,2,0,P|169:260|194:259,1,50.9999984436036,2|0,0:0|0:0,0:0:0:0:
272,232,108773,1,2,0:0:0:0:
208,176,109007,1,0,0:0:0:0:
256,328,109242,1,4,0:3:0:0:
256,328,109711,1,0,3:2:0:0:
256,328,110179,6,0,P|297:314|336:314,1,63.7500024318696,2|8,0:0|0:0,0:0:0:0:
409,162,110648,2,0,P|401:208|397:237,1,63.7500024318696,2|0,0:0|0:0,0:0:0:0:
273,98,111117,1,10,0:0:0:0:
389,38,111351,1,2,3:2:0:0:
260,106,111586,6,0,P|213:95|188:90,1,63.7500024318696,2|2,3:2|0:0,0:0:0:0:
69,219,112054,2,0,B|124:213|124:213|144:201|144:201|203:196,1,127.500004863739,2|2,0:0|0:0,0:0:0:0:
400,286,112757,5,2,0:0:0:0:
326,167,112992,1,10,0:0:0:0:
215,319,113226,2,0,P|223:345|232:389,1,63.7500024318696,2|0,3:2|3:2,0:2:0:0:
326,167,113695,5,2,0:0:0:0:
400,286,113929,1,2,0:0:0:0:
511,134,114163,2,0,P|503:108|494:64,1,63.7500024318696,10|0,0:0|0:0,0:0:0:0:
363,226,114632,5,2,0:0:0:0:
299,77,114867,1,10,0:0:0:0:
154,282,115101,1,2,3:2:0:0:
94,60,115336,5,2,3:2:0:0:
28,129,115570,1,2,0:0:0:0:
73,212,115804,1,2,0:0:0:0:
168,196,116039,1,10,0:0:0:0:
305,99,116273,2,0,B|256:106|256:106|227:95|227:95|181:101,1,127.500004863739,2|10,0:0|0:0,0:0:0:0:
331,16,116976,1,0,3:2:0:0:
429,200,117211,1,0,3:2:0:0:
438,216,117679,6,0,P|433:251|431:286,1,63.7500024318696,2|8,0:0|0:0,0:0:0:0:
290,384,118148,2,0,P|287:352|283:320,1,63.7500024318696,2|0,0:0|0:0,0:0:0:0:
138,222,118617,1,10,0:0:0:0:
261,300,118851,1,2,3:2:0:0:
313,54,119086,5,2,3:2:0:0:
364,137,119320,1,2,0:0:0:0:
300,212,119554,1,2,0:0:0:0:
208,173,119789,1,10,0:0:0:0:
216,75,120023,1,2,0:0:0:0:
307,243,120257,5,2,0:0:0:0:
432,188,120492,1,10,0:0:0:0:
297,47,120726,2,0,P|306:74|320:133,1,63.7500024318696,2|0,3:2|3:2,0:0:0:0:
432,188,121195,5,2,0:0:0:0:
307,243,121430,1,2,0:0:0:0:
442,384,121664,2,0,P|433:357|419:298,1,63.7500024318696,10|0,0:0|0:0,0:0:0:0:
273,223,122132,5,2,0:0:0:0:
226,335,122367,1,10,0:0:0:0:
151,238,122601,1,2,3:2:0:0:
335,314,122836,5,2,3:2:0:0:
199,138,123070,1,2,0:2:0:0:
115,343,123304,1,2,0:0:0:0:
217,265,123539,1,10,0:0:0:0:
56,193,123773,2,0,P|72:114|76:11,1,127.500004863739,2|10,0:0|0:0,0:0:0:0:
212,19,124476,1,2,3:2:0:0:
212,19,124593,1,2,0:0:0:0:
212,19,124711,6,0,P|232:101|235:186,1,170,6|0,3:2|0:0,0:0:0:0:
356,360,125414,2,0,P|358:275|378:192,1,170,10|0,0:0|0:0,0:0:0:0:
480,24,126117,1,8,0:0:0:0:
276,112,126351,1,2,3:2:0:0:
497,212,126586,6,0,P|439:185|377:192,1,127.5,2|0,3:2|0:0,0:0:0:0:
359,208,127054,2,0,P|320:223|278:224,1,85,2|8,0:0|0:0,0:0:0:0:
76,160,127523,1,2,0:0:0:0:
148,260,127757,1,0,3:2:0:0:
277,223,127992,1,10,0:0:0:0:
349,323,128226,1,0,3:2:0:0:
476,192,128461,6,0,P|505:113|490:30,1,170,2|0,3:2|0:0,0:0:0:0:
277,223,129164,2,0,P|261:305|291:384,1,170,10|0,0:0|3:2,0:0:0:0:
432,344,129867,1,8,0:0:0:0:
475,191,130101,1,2,3:2:0:0:
228,324,130336,6,0,L|144:310,1,85,2|0,3:2|0:0,0:0:0:0:
392,205,130804,2,0,L|476:191,1,85,2|8,0:0|0:0,0:0:0:0:
232,116,131273,1,2,0:2:0:0:
348,320,131507,1,0,3:2:0:0:
388,60,131742,1,10,0:0:0:0:
388,60,131976,1,0,3:2:0:0:
148,72,132211,6,0,B|119:162|183:154|143:237,1,170,6|8,3:2|0:0,0:0:0:0:
64,336,132914,1,2,0:0:0:0:
32,212,133148,1,0,3:2:0:0:
244,284,133382,1,0,3:2:0:0:
284,156,133617,1,8,0:0:0:0:
32,212,133851,1,2,0:0:0:0:
243,283,134086,6,0,P|285:278|322:257,1,85,2|0,3:2|0:0,0:0:0:0:
476,80,134554,2,0,P|434:85|397:106,1,85,10|0,0:0|0:0,0:0:0:0:
484,304,135023,2,0,P|478:262|457:225,1,85,2|0,3:2|3:2,0:0:0:0:
284,156,135492,1,10,0:0:0:0:
284,156,135726,1,0,3:2:0:0:
128,292,135961,6,0,P|215:279|296:270,1,170,6|8,3:2|0:0,0:0:0:0:
416,216,136664,1,2,3:2:0:0:
280,353,136898,1,2,3:2:0:0:
300,313,137015,1,2,0:0:0:0:
296,269,137132,1,2,0:0:0:0:
268,237,137250,1,2,0:0:0:0:
228,217,137367,1,10,0:0:0:0:
184,221,137484,1,2,0:0:0:0:
128,200,137601,5,2,3:2:0:0:
416,216,138070,1,10,0:0:0:0:
108,185,138539,1,10,0:0:0:0:
108,185,139007,6,8,L|101:112,1,42.5
57,38,139242,2,8,L|48:80,1,42.5
0,212,139476,2,8,L|14:155,1,42.5,10|10,0:0|0:0,0:0:0:0:
180,104,139711,5,6,3:2:0:0:
68,264,139945,1,2,3:2:0:0:
152,24,140179,1,10,0:0:0:0:
302,142,140414,1,2,0:0:0:0:
68,264,140648,2,0,P|78:313|81:364,1,101.999996887207,2|0,3:2|3:2,0:0:0:0:
282,246,141117,5,10,0:0:0:0:
110,180,141351,1,2,0:0:0:0:
334,164,141586,1,2,3:2:0:0:
68,264,141820,1,2,3:2:0:0:
258,345,142054,2,0,P|313:332|370:328,1,101.999996887207,10|0,0:0|0:0,0:0:0:0:
421,56,142523,1,2,3:2:0:0:
334,239,142757,1,2,3:2:0:0:
512,142,142992,1,10,0:2:0:0:
458,255,143226,1,2,0:0:0:0:
311,115,143461,5,2,3:2:0:0:
205,236,143695,1,2,3:2:0:0:
407,161,143929,1,10,0:0:0:0:
194,22,144164,1,2,0:0:0:0:
48,162,144398,2,0,P|65:222|78:308,1,101.999996887207,2|0,3:2|3:2,0:0:0:0:
328,173,144867,5,10,0:0:0:0:
248,107,145101,1,2,0:0:0:0:
152,143,145336,1,2,3:2:0:0:
322,15,145570,1,2,3:2:0:0:
450,185,145804,2,0,P|440:260|436:305,1,101.999996887207,10|0,0:2|0:0,0:0:0:0:
237,377,146273,2,0,P|266:339|341:332,1,101.999996887207,2|0,3:2|3:2,0:0:0:0:
187,173,146742,1,10,0:0:0:0:
161,200,146859,1,2,0:0:0:0:
129,223,146976,1,2,0:0:0:0:
94,236,147093,1,2,0:0:0:0:
56,239,147211,6,0,P|118:230|172:255,1,101.999996887207,2|0,3:2|3:2,0:0:0:0:
335,65,147679,2,0,P|290:113|273:153,1,101.999996887207,10|0,0:0|0:0,0:0:0:0:
339,347,148148,1,2,3:2:0:0:
339,347,148382,1,0,3:2:0:0:
161,200,148617,1,10,0:0:0:0:
305,245,148851,6,0,P|347:237|431:227,1,101.999996887207,2|0,0:0|3:2,0:0:0:0:
212,96,149320,1,2,3:2:0:0:
142,184,149554,1,10,0:0:0:0:
98,80,149789,1,2,0:0:0:0:
230,223,150023,5,2,3:2:0:0:
254,38,150257,1,2,3:2:0:0:
68,15,150492,1,10,0:0:0:0:
45,200,150726,1,2,0:0:0:0:
283,127,150961,6,0,B|405:100|351:205|478:173,1,203.999993774414,2|8,3:2|0:0,0:0:0:0:
512,349,151664,1,2,0:0:0:0:
492,316,151781,1,2,0:0:0:0:
465,289,151898,1,2,3:2:0:0:
432,269,152015,1,2,0:0:0:0:
396,259,152132,1,2,3:2:0:0:
358,258,152250,1,2,0:0:0:0:
320,267,152367,1,10,0:0:0:0:
287,286,152484,1,2,0:0:0:0:
259,312,152601,1,2,0:0:0:0:
231,338,152718,1,2,0:0:0:0:
198,357,152836,6,0,P|126:343|93:340,1,101.999996887207,2|0,3:2|3:2,0:0:0:0:
12,275,153187,2,0,P|62:269|112:258,1,101.999996887207,2|0,0:0|0:0,0:0:0:0:
181,204,153539,1,10,0:0:0:0:
181,165,153656,1,8,0:0:0:0:
177,127,153773,5,2,3:2:0:0:
64,41,154007,1,0,3:2:0:0:
215,224,154242,1,10,0:0:0:0:
251,211,154359,1,2,0:0:0:0:
288,202,154476,1,4,0:3:0:0:
326,196,154593,1,2,0:0:0:0:
364,193,154711,6,0,P|376:244|380:293,1,101.999996887207,6|2,3:2|3:2,0:0:0:0:
428,104,155179,1,10,0:0:0:0:
244,56,155414,1,2,0:0:0:0:
180,256,155648,2,0,P|106:269|44:226,1,152.999995330811,2|0,3:2|0:0,0:0:0:0:
32,180,156117,5,10,0:0:0:0:
124,96,156351,1,2,0:0:0:0:
232,148,156586,1,2,3:2:0:0:
180,256,156820,1,2,3:2:0:0:
64,284,157054,6,0,P|105:255|160:243,1,101.999996887207,10|0,0:0|0:0,0:0:0:0:
344,352,157523,2,0,P|294:340|252:312,1,101.999996887207,2|2,3:2|3:2,0:0:0:0:
154,243,157992,1,10,0:0:0:0:
364,156,158226,1,2,0:0:0:0:
364,156,158343,1,2,0:0:0:0:
364,156,158461,6,0,P|368:208|369:257,1,101.999996887207,2|2,3:2|3:2,0:0:0:0:
232,148,158929,1,10,0:0:0:0:
164,344,159164,1,2,0:0:0:0:
60,104,159398,2,0,P|132:84|197:120,1,152.999995330811,2|0,3:2|0:0,0:0:0:0:
232,148,159867,1,10,0:2:0:0:
328,32,160101,1,2,0:0:0:0:
464,196,160336,5,2,3:2:0:0:
358,135,160570,1,2,3:2:0:0:
297,240,160804,1,10,0:0:0:0:
362,342,161039,1,2,0:0:0:0:
477,307,161273,1,2,3:2:0:0:
297,240,161507,1,0,3:2:0:0:
297,240,161625,1,0,3:2:0:0:
297,240,161742,1,10,0:0:0:0:
464,196,161976,1,2,0:0:0:0:
220,336,162211,6,0,P|176:332|118:325,1,101.999996887207,2|0,3:2|3:2,0:0:0:0:
16,208,162679,1,8,0:0:0:0:
232,92,162914,2,0,B|340:72|332:140|431:107,1,203.999993774414,2|0,0:0|3:2,0:0:0:0:
264,216,163617,1,10,0:0:0:0:
232,92,163851,1,0,0:0:0:0:
108,312,164086,6,0,P|118:262|138:215,1,101.999996887207,2|0,3:2|3:2,0:0:0:0:
308,320,164554,2,0,P|269:286|238:245,1,101.999996887207,10|0,0:0|0:0,0:0:0:0:
488,216,165023,2,0,P|439:232|388:238,1,101.999996887207,2|8,3:2|0:3,0:0:0:0:
137,215,165492,1,10,0:0:0:0:
304,136,165726,1,4,0:3:0:0:
432,280,165961,6,0,P|428:336|423:381,2,101.999996887207,6|0|0,3:2|0:0|0:0,0:0:0:0:
304,136,166664,1,0,3:2:0:0:
137,215,166898,1,10,0:0:0:0:
420,180,167132,1,2,0:0:0:0:
420,180,167250,1,2,0:0:0:0:
420,180,167367,1,8,0:3:0:0:
215,47,167601,6,0,P|122:20|56:91,1,203.999993774414,14|8,0:0|0:3,0:0:0:0:
32,212,168304,1,0,0:0:0:0:
148,184,168539,1,4,0:3:0:0:
252,248,168773,1,4,0:3:0:0:
268,244,168890,1,4,0:3:0:0:
284,240,169007,1,4,0:3:0:0:
392,184,169242,1,4,0:3:0:0:
460,284,169476,1,4,0:3:0:0:
512,20,169711,5,6,3:2:0:0:
256,192,169828,12,0,171117,0:0:0:0:
463,159,171586,6,0,P|440:125|402:108,1,85,6|8,3:2|0:0,0:0:0:0:
256,192,172054,1,10,0:0:0:0:
120,88,172289,1,8,0:0:0:0:
320,20,172523,1,10,0:0:0:0:
368,216,172757,1,8,0:0:0:0:
368,216,172875,1,8,0:0:0:0:
367,215,172992,2,0,L|376:257,1,42.5,10|8,0:0|0:3,0:0:0:0:
212,328,173226,2,0,L|227:288,1,42.5,8|4,0:3|0:3,0:0:0:0:
344,116,173461,6,0,P|405:142|446:150,1,101.999996887207,6|0,3:2|3:2,0:0:0:0:
354,34,173812,2,0,P|304:45|258:67,1,101.999996887207,2|0,0:0|0:0,0:0:0:0:
220,196,174164,2,0,P|228:164|234:115,1,50.9999984436036,2|0,0:0|0:0,0:0:0:0:
80,49,174398,6,0,P|126:71|176:83,1,101.999996887207,2|0,3:2|3:2,0:0:0:0:
100,159,174750,2,0,P|50:170|4:192,1,101.999996887207,2|0,0:0|0:0,0:0:0:0:
51,279,175101,2,0,P|84:270|118:260,1,50.9999984436036,2|0,0:0|0:0,0:0:0:0:
238,363,175336,6,0,P|241:331|238:243,1,101.999996887207,2|0,3:2|3:2,0:0:0:0:
336,188,175687,2,0,P|333:220|336:308,1,101.999996887207,2|0,0:0|0:0,0:0:0:0:
432,357,176039,2,0,P|435:331|434:306,1,50.9999984436036,2|0,0:0|0:0,0:0:0:0:
411,64,176273,5,2,3:2:0:0:
321,180,176507,1,0,3:2:0:0:
151,4,176742,1,10,0:0:0:0:
238,107,176976,1,2,0:0:0:0:
238,107,177093,1,2,0:0:0:0:
238,107,177211,6,0,P|179:95|102:91,1,101.999996887207,2|0,3:2|3:2,0:0:0:0:
61,196,177562,2,0,P|111:190|161:180,1,101.999996887207,2|0,0:0|0:0,0:0:0:0:
253,279,177914,2,0,P|240:246|233:221,1,50.9999984436036,2|0,0:0|0:0,0:0:0:0:
374,57,178148,6,0,P|366:121|352:167,1,101.999996887207,2|0,3:2|3:2,0:0:0:0:
470,197,178500,2,0,P|410:222|363:232,1,101.999996887207,2|0,0:0|0:0,0:0:0:0:
396,350,178851,2,0,P|375:335|355:319,1,50.9999984436036,2|0,0:0|0:0,0:0:0:0:
184,181,179086,5,2,3:2:0:0:
92,266,179320,1,0,3:2:0:0:
303,218,179554,1,10,0:0:0:0:
156,59,179789,2,0,P|101:82|51:94,1,101.999996887207,2|0,0:0|3:2,0:0:0:0:
262,140,180257,1,2,3:2:0:0:
52,283,180492,1,10,0:0:0:0:
140,177,180726,1,2,3:2:0:0:
298,278,180961,6,0,P|289:330|282:384,1,101.999996887207,2|0,3:2|3:2,0:0:0:0:
214,106,181429,2,0,P|223:54|230:0,1,101.999996887207,8|0,0:0|0:0,0:0:0:0:
363,225,181898,6,0,P|312:204|223:203,1,101.999996887207,2|0,3:2|3:2,0:0:0:0:
135,149,182250,2,0,P|185:142|232:122,1,101.999996887207,2|0,0:0|0:0,0:0:0:0:
337,50,182601,2,0,P|326:85|315:123,1,50.9999984436036,2|0,0:0|0:0,0:0:0:0:
164,249,182836,6,0,P|104:233|45:226,1,101.999996887207,2|0,3:2|3:2,0:0:0:0:
280,367,183304,2,0,P|330:359|379:345,1,101.999996887207,8|0,0:0|0:0,0:0:0:0:
286,113,183773,6,0,P|296:168|302:223,1,101.999996887207,2|0,3:2|3:2,0:0:0:0:
369,56,184125,2,0,P|316:37|265:14,1,101.999996887207,2|0,0:0|0:0,0:0:0:0:
376,156,184476,2,0,P|394:138|414:122,1,50.9999984436036,2|0,0:0|0:0,0:0:0:0:
180,69,184711,5,2,3:2:0:0:
290,226,184945,1,0,3:2:0:0:
58,154,185179,2,0,P|121:155|181:187,1,101.999996887207,8|0,0:0|0:0,0:0:0:0:
261,330,185648,1,0,3:2:0:0:
312,201,185882,1,0,3:2:0:0:
104,328,186117,1,8,0:0:0:0:
58,154,186351,1,2,0:0:0:0:
61,128,186468,1,2,0:0:0:0:
64,103,186586,6,0,P|72:52|75:1,1,101.999996887207,2|0,3:2|3:2,0:0:0:0:
318,83,187054,2,0,P|247:56|207:55,1,101.999996887207,12|0,0:0|3:2,0:0:0:0:
187,66,187406,1,8,0:0:0:0:
163,92,187523,1,8,3:2:0:0:
246,254,187757,1,8,3:2:0:0:
293,256,187875,1,8,0:0:0:0:
335,236,187992,1,8,3:2:0:0:
361,196,188109,1,8,0:0:0:0:
386,155,188226,1,8,3:2:0:0:
428,135,188343,1,8,0:0:0:0:
476,138,188461,6,0,L|469:266,1,101.999996887207,6|2,3:2|3:2,0:0:0:0:
448,316,188812,1,2,0:0:0:0:
448,316,188929,2,0,P|402:336|352:328,1,101.999996887207,10|2,0:0|0:0,0:0:0:0:
244,252,189398,1,2,3:2:0:0:
284,136,189632,1,2,3:2:0:0:
352,328,189867,1,10,0:0:0:0:
244,252,190101,1,2,0:0:0:0:
403,120,190336,6,0,P|456:128|504:140,2,101.999996887207,2|2|10,3:2|3:2|0:0,0:0:0:0:
244,252,191039,2,0,B|137:275|145:211|44:238,1,203.999993774414,2|2,0:0|3:2,0:0:0:0:
333,175,191742,2,0,P|271:162|208:160,1,127.500004863739,10|2,0:0|0:0,0:0:0:0:
136,208,192093,1,2,0:0:0:0:
108,192,192211,6,0,P|105:141|124:94,1,101.999996887207,2|2,3:2|3:2,0:0:0:0:
192,44,192562,1,2,0:0:0:0:
191,43,192679,2,0,P|244:48|292:40,1,101.999996887207,10|2,0:0|0:0,0:0:0:0:
452,20,193148,1,2,3:2:0:0:
333,175,193382,1,2,3:2:0:0:
291,40,193617,1,10,0:0:0:0:
468,152,193851,1,2,0:0:0:0:
220,140,194086,6,0,P|168:156|112:184,2,101.999996887207,2|2|10,3:2|3:2|0:0,0:0:0:0:
291,40,194789,1,2,0:0:0:0:
468,152,195023,2,0,P|455:215|447:271,1,114.749996498108,2|0,3:2|0:0,0:0:0:0:
432,268,195492,6,0,P|404:244|389:240,1,50.9999984436036,10|0,0:0|0:0,0:0:0:0:
216,344,195726,2,0,P|239:335|257:316,1,50.9999984436036,2|0,0:0|0:0,0:0:0:0:
300,120,195961,6,0,P|308:180|318:271,1,152.999995330811,2|0,3:2|0:0,0:0:0:0:
328,348,196429,1,10,0:0:0:0:
168,200,196664,1,2,0:0:0:0:
444,144,196898,1,2,3:2:0:0:
444,144,197132,1,0,3:2:0:0:
432,272,197367,1,10,0:0:0:0:
328,348,197601,1,2,0:0:0:0:
168,200,197836,6,0,P|120:184|66:192,1,101.999996887207,2|0,3:2|3:2,0:0:0:0:
304,232,198304,1,10,0:0:0:0:
340,108,198539,1,2,0:0:0:0:
140,24,198773,1,2,3:2:0:0:
140,24,199007,1,0,3:2:0:0:
304,232,199242,2,0,P|356:228|400:200,1,101.999996887207,8|2,0:0|0:0,0:0:0:0:
448,140,199593,1,2,0:0:0:0:
480,156,199711,6,0,P|487:206|489:257,1,101.999996887207,2|2,3:2|3:2,0:0:0:0:
296,336,200179,2,0,P|297:285|305:234,1,101.999996887207,10|2,0:0|0:0,0:0:0:0:
356,72,200648,1,2,3:2:0:0:
448,140,200882,1,2,3:2:0:0:
224,156,201117,1,10,0:0:0:0:
156,56,201351,1,10,0:0:0:0:
156,56,201468,1,10,0:0:0:0:
156,55,201586,6,0,P|227:56|244:125,1,152.999995330811,2|0,3:2|0:0,0:0:0:0:
124,240,202054,2,0,P|131:189|147:141,1,101.999996887207,10|8,0:0|0:0,0:0:0:0:
224,156,202406,1,8,0:0:0:0:
268,144,202523,1,2,3:2:0:0:
376,208,202757,1,4,0:3:0:0:
480,56,202992,1,10,0:0:0:0:
436,28,203109,1,8,0:0:0:0:
384,32,203226,1,8,0:0:0:0:
119,112,207211,5,2,0:0:0:0:
119,112,207445,2,0,P|109:96|98:85,2,25.4999992218018,2|2|2,0:0|0:0|0:0,0:0:0:0:
186,157,208148,2,0,P|222:143|250:137,1,50.9999984436036,2|2,0:0|0:0,0:0:0:0:
304,130,208851,1,2,0:0:0:0:
358,230,209086,6,0,L|359:204,2,25.4999992218018,2|2|2,0:0|0:0|0:0,0:0:0:0:
288,278,209789,2,0,P|248:267|216:262,1,50.9999984436036,2|2,0:0|0:0,0:0:0:0:
172,298,210492,1,2,0:0:0:0:
441,336,210961,5,2,0:0:0:0:
440,335,211195,2,0,P|438:323|433:311,2,25.4999992218018,2|2|2,0:0|0:0|0:0,0:0:0:0:
437,237,211898,2,0,P|444:226|454:218,1,25.4999992218018,2|0,0:0|0:0,0:0:0:0:
370,271,212367,2,0,P|358:269|346:266,1,25.4999992218018,2|2,0:0|0:0,0:0:0:0:
250,154,212836,6,0,P|255:171|260:194,1,25.4999992218018,2|2,0:0|0:0,0:0:0:0:
202,232,213304,2,0,P|160:224|129:221,1,50.9999984436036,2|2,0:0|0:0,0:0:0:0:
94,266,214007,1,2,0:0:0:0:
85,194,214242,1,2,0:0:0:0:
208,37,214711,6,0,P|248:51|269:54,1,50.9999984436036,2|2,0:0|0:0,0:0:0:0:
389,133,215648,2,0,P|364:138|340:148,1,50.9999984436036,2|2,0:0|0:0,0:0:0:0:
287,196,216351,1,2,0:0:0:0:
378,311,216586,5,2,0:0:0:0:
358,242,216820,1,2,0:0:0:0:
309,294,217054,1,2,0:0:0:0:
297,297,217523,5,2,0:0:0:0:
360,230,217757,1,2,0:0:0:0:
386,319,217992,1,2,0:0:0:0:
439,119,218461,5,2,0:0:0:0:
439,119,218695,2,0,P|446:85|454:57,2,50.9999984436036,0|2|2,0:0|0:0|0:0,0:0:0:0:
360,160,219867,2,0,P|336:154|315:149,1,25.4999992218018,2|2,0:0|0:0,0:0:0:0:
228,193,220336,6,0,P|234:215|236:233,2,38.2499988327027,2|2|2,0:0|0:0|0:0,0:0:0:0:
171,119,221273,1,2,0:0:0:0:
110,156,221507,2,0,L|101:153,4,6.37499980545045,0|0|2|0|0,0:0|0:0|0:0|0:0|0:0,0:0:0:0:
171,119,222211,6,0,L|221:113,1,50.9999984436036,2|2,0:0|0:0,0:0:0:0:
296,136,222679,1,2,0:0:0:0:
368,112,222914,1,2,0:0:0:0:
436,188,223148,2,0,L|458:287,1,101.999996887207,2|2,0:0|0:0,0:0:0:0:
400,336,223851,1,2,0:0:0:0:
324,328,224086,5,2,0:0:0:0:
180,360,224320,1,2,0:0:0:0:
132,216,224554,1,2,0:0:0:0:
132,216,225023,1,2,0:0:0:0:
132,216,225492,2,0,P|180:236|233:221,1,101.999996887207,2|2,0:0|0:0,0:0:0:0:
284,172,226195,5,2,0:0:0:0:
244,108,226429,1,2,0:0:0:0:
132,216,226664,1,2,0:0:0:0:
48,84,226898,2,0,L|28:19,2,50.9999984436036,2|2|2,0:0|0:0|0:0,0:0:0:0:
108,132,227601,1,2,0:0:0:0:
176,92,227836,6,0,P|203:86|226:86,1,50.9999984436036,2|2,0:0|0:0,0:0:0:0:
292,128,228304,2,0,P|319:133|342:133,1,50.9999984436036,2|2,0:0|0:0,0:0:0:0:
412,104,228773,2,0,P|438:146|435:196,1,101.999996887207,2|0,0:0|0:0,0:0:0:0:
435,196,229711,6,0,P|423:245|439:293,1,101.999996887207,2|0,0:0|0:0,0:0:0:0:
372,332,230414,2,0,P|297:322|230:358,1,152.999995330811,2|2,0:0|0:0,0:0:0:0:
120,252,231586,6,0,P|116:227|108:202,1,50.9999984436036,2|0,0:0|0:0,0:0:0:0:
56,144,232054,2,0,P|59:119|67:94,1,50.9999984436036,2|0,0:0|0:0,0:0:0:0:
132,56,232523,2,0,P|155:46|180:43,1,50.9999984436036,2|0,0:0|0:0,0:0:0:0:
248,84,232992,2,0,P|271:93|296:96,1,50.9999984436036,2|0,0:0|0:0,0:0:0:0:
372,76,233461,5,2,0:0:0:0:
256,192,233578,12,0,235336,3:2:0:0:
372,76,235570,5,10,0:2:0:0:
352,120,235804,2,0,B|336:192|400:188|404:256|352:292|284:284|274:225,1,255,10|2,0:0|0:0,0:0:0:0:
275,226,236742,2,0,P|308:201|350:197,1,85,2|2,0:0|0:0,0:0:0:0:
468,360,237211,5,6,3:2:0:0:
440,132,237445,1,2,3:2:0:0:
367,371,237679,1,10,0:0:0:0:
178,230,237914,1,2,0:0:0:0:
401,292,238148,2,0,P|459:279|517:274,1,101.999996887207,2|0,3:2|3:2,0:0:0:0:
271,146,238617,5,10,0:0:0:0:
404,78,238851,1,2,0:0:0:0:
216,65,239086,1,2,3:2:0:0:
459,159,239320,1,2,3:2:0:0:
284,262,239554,2,0,P|277:209|261:148,1,101.999996887207,10|0,0:0|0:0,0:0:0:0:
51,60,240023,1,2,3:2:0:0:
215,13,240257,1,2,3:2:0:0:
260,178,240492,1,10,0:0:0:0:
96,224,240726,1,2,0:0:0:0:
212,291,240961,5,2,3:2:0:0:
276,130,241195,1,2,3:2:0:0:
447,339,241429,1,10,0:0:0:0:
383,178,241664,1,2,0:0:0:0:
192,320,241898,2,0,P|128:305|70:298,1,101.999996887207,2|0,3:2|3:2,0:0:0:0:
221,67,242367,5,10,0:0:0:0:
293,139,242601,1,2,0:0:0:0:
384,92,242836,1,2,3:2:0:0:
157,149,243070,1,2,3:2:0:0:
320,318,243304,2,0,P|379:295|426:283,1,101.999996887207,10|0,0:0|0:0,0:0:0:0:
421,33,243773,2,0,P|398:91|374:142,1,101.999996887207,2|0,3:2|3:2,0:0:0:0:
112,4,244242,1,10,0:0:0:0:
128,38,244359,1,2,0:0:0:0:
142,74,244476,1,2,0:0:0:0:
151,111,244593,1,2,0:0:0:0:
157,149,244711,6,0,P|151:215|146:258,1,101.999996887207,2|0,3:2|3:2,0:0:0:0:
311,383,245179,2,0,P|305:332|300:281,1,101.999996887207,10|0,0:2|0:2,0:0:0:0:
335,44,245648,1,2,3:2:0:0:
335,44,245882,1,0,3:2:0:0:
187,125,246117,1,10,0:0:0:0:
385,205,246351,6,0,P|438:189|489:179,1,101.999996887207,2|0,0:0|3:2,0:0:0:0:
297,127,246820,1,2,3:2:0:0:
218,215,247054,1,10,0:0:0:0:
307,294,247289,1,2,0:0:0:0:
401,98,247523,5,2,3:2:0:0:
413,309,247757,1,2,3:2:0:0:
202,322,247992,1,10,0:0:0:0:
189,110,248226,1,2,0:0:0:0:
33,232,248461,6,0,B|114:220|114:220|154:232|154:232|258:214,1,203.999993774414,2|8,3:2|0:0,0:0:0:0:
360,52,249164,1,2,0:0:0:0:
333,78,249281,1,2,0:0:0:0:
320,114,249398,1,2,3:2:0:0:
324,151,249515,1,2,0:0:0:0:
345,184,249632,1,2,3:2:0:0:
365,216,249750,1,2,0:0:0:0:
369,254,249867,1,10,0:0:0:0:
356,290,249984,1,2,0:0:0:0:
329,316,250101,1,2,0:0:0:0:
293,328,250218,1,2,0:0:0:0:
256,323,250336,6,0,P|200:308|124:311,1,101.999996887207,2|0,3:2|3:2,0:0:0:0:
59,232,250687,2,0,P|109:229|158:215,1,101.999996887207,2|0,0:2|0:2,0:0:0:0:
228,87,251039,5,10,0:0:0:0:
193,102,251156,1,8,0:0:0:0:
166,129,251273,1,10,3:2:0:0:
381,113,251507,1,10,0:0:0:0:
384,75,251624,1,10,0:0:0:0:
374,38,251741,1,10,3:2:0:0:
281,232,251976,1,10,0:0:0:0:
312,253,252093,1,10,0:0:0:0:
348,262,252211,6,0,P|399:256|440:226,1,101.999996887207,6|2,3:2|3:2,0:0:0:0:
292,144,252679,1,10,0:2:0:0:
192,216,252914,1,2,0:0:0:0:
295,355,253148,2,0,P|226:327|154:347,1,152.999995330811,2|0,3:2|0:0,0:0:0:0:
117,362,253617,5,10,0:0:0:0:
32,270,253851,1,2,0:0:0:0:
95,163,254086,1,2,3:2:0:0:
217,185,254320,1,2,3:2:0:0:
208,309,254554,6,0,P|193:261|205:212,1,101.999996887207,10|0,0:0|0:0,0:0:0:0:
392,112,255023,1,2,3:2:0:0:
360,240,255257,1,2,3:2:0:0:
183,100,255492,2,0,P|223:68|272:58,1,101.999996887207,10|2,0:0|0:0,0:0:0:0:
303,79,255843,1,2,0:0:0:0:
303,79,255961,6,0,P|343:111|393:112,1,101.999996887207,2|2,3:2|3:2,0:0:0:0:
512,16,256429,1,10,0:0:0:0:
492,188,256664,1,2,0:0:0:0:
252,154,256898,2,0,P|176:146|100:144,1,152.999995330811,2|0,3:2|0:0,0:0:0:0:
76,180,257367,1,10,0:0:0:0:
112,320,257601,1,2,0:0:0:0:
348,232,257836,5,2,3:2:0:0:
252,154,258070,1,2,3:2:0:0:
162,240,258304,1,10,0:0:0:0:
199,355,258539,1,2,0:0:0:0:
319,346,258773,1,2,3:2:0:0:
162,240,259007,1,0,3:2:0:0:
162,240,259125,1,0,3:2:0:0:
162,240,259242,1,10,0:0:0:0:
372,136,259476,1,2,0:0:0:0:
412,120,259593,1,2,0:0:0:0:
452,140,259711,6,0,P|459:190|465:241,1,101.999996887207,2|0,3:2|3:2,0:0:0:0:
452,364,260179,1,8,0:0:0:0:
199,355,260414,2,0,B|155:259|231:259|188:156,1,203.999993774414,2|0,0:2|3:2,0:0:0:0:
40,88,261117,1,10,0:0:0:0:
40,88,261351,1,0,0:0:0:0:
224,40,261586,6,0,P|174:51|133:81,1,101.999996887207,2|0,3:2|3:2,0:0:0:0:
348,140,262054,2,0,P|299:124|248:130,1,101.999996887207,10|0,0:0|0:0,0:0:0:0:
412,284,262523,2,0,P|377:246|330:225,1,101.999996887207,2|8,3:2|0:3,0:0:0:0:
120,168,262992,1,10,0:0:0:0:
348,140,263226,1,4,0:3:0:0:
188,308,263461,6,0,P|149:340|99:349,2,101.999996887207,6|0|0,3:2|0:0|0:0,0:0:0:0:
324,240,264164,1,0,3:2:0:0:
120,168,264398,2,0,P|68:156|19:151,1,101.999996887207,8|4,0:0|0:3,0:0:0:0:
348,140,264867,1,4,0:3:0:0:
188,308,265101,6,0,B|286:280|286:352|386:320,1,203.999993774414,14|8,0:0|0:3,0:0:0:0:
496,200,265804,1,2,0:0:0:0:
348,140,266039,1,4,0:3:0:0:
348,140,266156,1,4,0:3:0:0:
348,140,266273,1,4,0:3:0:0:
464,360,266507,1,4,0:3:0:0:
484,324,266625,1,4,0:3:0:0:
476,284,266742,1,4,0:3:0:0:
268,228,266976,1,4,0:3:0:0:
228,264,267093,1,4,0:3:0:0:
176,276,267211,1,6,3:2:0:0:
256,192,267328,12,0,269086,0:0:0:0:
44,259,270961,6,0,B|164:225|109:329|237:300,1,203.999993774414,6|8,3:2|0:0,0:0:0:0:
340,232,271664,1,2,0:0:0:0:
178,64,271898,2,0,P|198:126|209:173,1,101.999996887207,2|0,3:2|3:2,0:0:0:0:
427,67,272367,2,0,P|378:83|329:95,1,101.999996887207,8|0,0:0|0:0,0:0:0:0:
108,216,272836,5,2,3:2:0:0:
161,51,273070,1,0,3:2:0:0:
255,289,273304,1,8,0:0:0:0:
73,209,273539,1,2,0:0:0:0:
276,314,273773,2,0,B|300:164|300:164|253:199,1,203.999993774414,2|10,3:2|0:0,0:0:0:0:
168,288,274476,1,0,0:0:0:0:
392,208,274711,6,0,P|446:227|505:236,1,101.999996887207,2|0,3:2|3:2,0:0:0:0:
309,35,275179,2,0,P|311:82|304:147,1,101.999996887207,8|0,0:0|0:0,0:0:0:0:
120,208,275648,2,0,P|66:227|7:236,1,101.999996887207,2|0,3:2|3:2,0:0:0:0:
203,35,276117,2,0,P|201:82|208:147,1,101.999996887207,8|0,0:0|0:0,0:0:0:0:
332,311,276586,5,2,3:2:0:0:
387,210,276820,1,0,3:2:0:0:
287,155,277054,1,10,0:0:0:0:
231,255,277289,1,2,0:0:0:0:
427,297,277523,5,0,3:2:0:0:
244,351,277757,1,2,3:2:0:0:
191,166,277991,1,10,0:0:0:0:
374,115,278226,1,2,0:0:0:0:
264,41,278461,6,0,P|192:73|163:81,1,101.999996887207,2|0,3:2|3:2,0:0:0:0:
6,177,278929,2,0,P|54:192|100:215,1,101.999996887207,8|0,0:0|0:0,0:0:0:0:
231,363,279398,6,0,P|222:304|221:258,1,101.999996887207,2|0,3:2|3:2,0:0:0:0:
333,173,279750,2,0,P|331:223|322:274,1,101.999996887207,2|0,0:0|0:0,0:0:0:0:
187,168,280101,2,0,P|231:181|239:182,1,50.9999984436036,2|0,0:0|0:0,0:0:0:0:
433,59,280336,6,0,P|366:74|322:90,1,101.999996887207,2|0,3:2|3:2,0:0:0:0:
158,163,280804,2,0,P|173:114|183:64,1,101.999996887207,8|0,0:2|0:2,0:0:0:0:
337,242,281273,6,0,P|401:228|433:213,1,101.999996887207,2|0,3:2|3:2,0:0:0:0:
512,340,281625,2,0,P|465:319|415:310,1,101.999996887207,2|0,0:2|0:2,0:0:0:0:
284,380,281976,2,0,P|299:351|304:328,1,50.9999984436036,2|0,0:0|0:0,0:0:0:0:
249,110,282211,5,2,3:2:0:0:
349,221,282445,1,0,3:2:0:0:
142,359,282679,2,0,P|141:305|129:236,1,101.999996887207,8|0,0:0|0:0,0:0:0:0:
39,126,283148,1,0,3:2:0:0:
145,234,283382,1,0,3:2:0:0:
252,17,283617,1,8,0:0:0:0:
341,104,283851,1,2,0:0:0:0:
366,106,283968,1,2,0:0:0:0:
391,102,284086,6,0,P|451:87|506:85,1,101.999996887207,2|0,3:2|3:2,0:0:0:0:
396,255,284554,2,0,P|345:250|296:237,1,101.999996887207,8|8,0:2|0:0,0:0:0:0:
265,219,284906,1,8,0:0:0:0:
242,191,285023,1,0,3:2:0:0:
197,3,285257,1,8,0:0:0:0:
197,38,285375,1,8,0:0:0:0:
184,73,285492,1,8,0:2:0:0:
43,205,285726,1,8,0:0:0:0:
73,188,285843,1,8,0:0:0:0:
109,181,285961,6,0,P|147:215|167:262,1,101.999996887207,6|0,3:2|3:2,0:0:0:0:
35,336,286312,2,0,P|84:323|134:333,1,101.999996887207,2|0,0:0|0:0,0:0:0:0:
204,367,286664,2,0,P|228:361|251:350,1,50.9999984436036,2|0,0:0|0:0,0:0:0:0:
400,204,286898,2,0,P|395:257|391:305,1,101.999996887207,2|0,3:2|3:2,0:0:0:0:
280,196,287250,2,0,P|275:145|270:94,1,101.999996887207,2|0,0:0|0:0,0:0:0:0:
396,103,287601,2,0,P|376:119|353:128,1,50.9999984436036,2|0,0:0|0:0,0:0:0:0:
109,181,287836,6,0,L|-3:157,1,101.999996887207,2|0,3:2|3:2,0:0:0:0:
280,196,288304,1,8,0:0:0:0:
184,276,288539,1,2,0:0:0:0:
379,351,288773,2,0,P|450:338|462:267,1,152.999995330811,2|0,3:2|0:0,0:0:0:0:
444,252,289242,6,0,P|383:184|416:99,1,191.250007295609,10|0,0:0|0:0,0:0:0:0:
416,99,289711,6,0,P|387:141|340:157,1,101.999996887207,2|0,3:2|3:2,0:0:0:0:
180,140,290062,2,0,P|223:115|272:124,1,101.999996887207,2|0,0:0|0:0,0:0:0:0:
340,156,290414,2,0,P|343:182|339:207,1,50.9999984436036,2|0,0:0|0:0,0:0:0:0:
108,284,290648,2,0,P|89:237|104:189,1,101.999996887207,2|0,3:2|3:2,0:0:0:0:
183,45,291000,2,0,P|197:92|179:139,1,101.999996887207,2|0,0:0|0:0,0:0:0:0:
102,188,291351,2,0,P|122:207|145:217,1,50.9999984436036,2|0,0:0|0:0,0:0:0:0:
321,98,291586,6,0,P|369:80|418:67,1,101.999996887207,2|0,3:2|3:2,0:0:0:0:
484,112,291937,1,0,3:2:0:0:
484,112,292054,1,10,0:0:0:0:
296,244,292289,1,2,0:0:0:0:
460,204,292523,2,0,L|410:192,1,50.9999984436036,0|0,3:2|0:0,0:0:0:0:
208,176,292757,2,0,L|222:127,1,50.9999984436036,2|0,3:2|0:0,0:0:0:0:
336,56,292992,1,10,0:0:0:0:
312,280,293226,1,2,0:0:0:0:
131,107,293461,6,0,P|59:96|16:156,1,152.999995330811,2|0,3:2|0:0,0:0:0:0:
32,176,293929,2,0,P|56:216|56:275,1,101.999996887207,8|0,0:0|0:0,0:0:0:0:
240,360,294398,2,0,P|273:332|333:320,1,101.999996887207,2|0,3:2|3:2,0:0:0:0:
488,352,294750,2,0,P|441:331|408:293,1,101.999996887207,2|0,0:0|0:0,0:0:0:0:
349,239,295101,2,0,P|339:215|339:190,1,50.9999984436036,2|0,0:0|0:0,0:0:0:0:
504,108,295336,5,2,3:2:0:0:
504,108,295570,1,0,3:2:0:0:
256,56,295804,1,8,0:0:0:0:
232,176,296039,1,0,0:0:0:0:
408,293,296273,2,0,L|508:275,1,101.999996887207,2|0,3:2|3:2,0:0:0:0:
448,200,296625,2,0,L|340:188,1,101.999996887207,2|0,0:0|0:0,0:0:0:0:
240,125,296976,2,0,L|231:178,1,50.9999984436036,2|0,0:0|0:0,0:0:0:0:
204,316,297211,5,2,3:2:0:0:
204,316,297445,1,0,3:2:0:0:
408,293,297679,1,8,0:0:0:0:
346,188,297914,1,0,0:0:0:0:
104,140,298148,5,0,3:2:0:0:
104,140,298382,1,0,3:2:0:0:
372,52,298617,1,8,0:0:0:0:
504,224,298851,1,10,0:0:0:0:
500,240,298968,1,10,0:0:0:0:
496,256,299086,5,2,3:2:0:0:
346,188,299320,1,0,3:2:0:0:
200,364,299554,1,8,0:0:0:0:
346,188,299789,1,8,0:0:0:0:
320,152,299906,1,8,0:0:0:0:
284,128,300023,1,0,3:2:0:0:
164,248,300257,1,4,0:3:0:0:
444,120,300492,1,8,0:0:0:0:
406,71,300609,1,8,0:0:0:0:
353,39,300726,1,8,0:0:0:0:
292,29,300843,1,8,0:0:0:0:
231,39,300961,6,0,P|222:66|214:106,1,63.7500024318696,2|0,0:0|0:0,0:0:0:0:
252,323,301433,2,0,P|261:296|269:256,1,63.7500024318696,2|0,0:0|0:0,0:0:0:0:
452,219,301905,6,0,P|424:225|386:238,1,63.7500024318696,2|0,0:0|0:0,0:0:0:0:
192,207,302378,2,0,P|220:201|258:188,1,63.7500024318696,2|0,0:0|0:0,0:0:0:0:
382,329,302850,6,0,P|363:308|332:281,1,63.7500024318696,2|0,0:0|0:0,0:0:0:0:
262,97,303323,2,0,P|281:118|312:145,1,63.7500024318696,2|0,0:0|0:0,0:0:0:0:
252,323,303795,5,2,0:0:0:0:
192,207,304031,1,0,0:0:0:0:
122,317,304268,1,2,0:0:0:0:
189,283,304504,1,2,0:0:0:0:
88,168,304740,6,0,P|98:141|108:89,1,63.7500024318696,2|0,0:0|0:0,0:0:0:0:
187,28,305212,2,0,P|193:59|204:89,1,63.7500024318696,2|0,0:0|0:0,0:0:0:0:
307,89,305685,6,0,P|318:59|325:28,1,63.7500024318696,2|0,0:0|0:0,0:0:0:0:
406,106,306157,2,0,P|413:138|424:168,1,63.7500024318696,2|0,0:0|0:0,0:0:0:0:
305,261,306630,6,0,P|315:229|312:175,1,63.7500024318696,2|0,0:0|0:0,0:0:0:0:
195,198,307102,2,0,P|197:230|207:261,1,63.7500024318696,2|0,0:0|0:0,0:0:0:0:
256,357,307575,5,2,0:0:0:0:
305,261,307811,1,0,0:0:0:0:
256,357,308047,1,2,0:0:0:0:
207,261,308283,1,2,0:0:0:0:
