osu file format v14

[General]
AudioFilename: audio.mp3
AudioLeadIn: 0
PreviewTime: 236015
Countdown: 0
SampleSet: Soft
StackLeniency: 0.2
Mode: 0
LetterboxInBreaks: 0
WidescreenStoryboard: 0

[Editor]
Bookmarks: 681,15623,17594,30937,45937,60937,75937,90937,109687,124687,139687,154687,173437,188437,203202,207187,222187,237187,252187,270937,285937,308002
DistanceSpacing: 1.2
BeatDivisor: 4
GridSize: 4
TimelineZoom: 1.4

[Metadata]
Title:Koi Yuki
TitleUnicode:恋い雪
Artist:Silent Siren
ArtistUnicode:Silent Siren
Creator:Andrea
Version:Blissful Love
Source:
Tags:osuplayer111 Sekai Sekaii Sekai-nyan xmas christmas winter Snow in Love
BeatmapID:1483099
BeatmapSetID:700540

[Difficulty]
HPDrainRate:7
CircleSize:4.5
OverallDifficulty:7
ApproachRate:8.5
SliderMultiplier:1.6
SliderTickRate:1

[Events]
//Background and Video events
0,0,"bg.jpg",0,0
//Break Periods
2,15817,16927
2,203443,206518
//Storyboard Layer 0 (Background)
//Storyboard Layer 1 (Fail)
//Storyboard Layer 2 (Pass)
//Storyboard Layer 3 (Foreground)
//Storyboard Sound Samples

[TimingPoints]
681,545.454545454546,4,2,1,40,1,0
2045,545.454545454546,4,2,1,40,1,0
12954,645.161290322581,4,2,1,40,1,0
14244,674.157303370787,4,2,1,40,1,0
14912,705.882352941176,4,2,1,40,1,0
15623,563.168762905951,4,2,1,40,1,0
17602,468.75,4,2,1,40,1,0
17830,468.75,4,2,1,60,1,0
19693,468.75,4,2,1,60,1,0
75943,-100,4,2,1,80,0,1
90825,-100,4,2,1,80,0,0
90943,-100,4,2,1,80,0,1
105005,-100,4,2,1,60,0,1
105943,-100,4,2,1,60,0,0
139693,-100,4,2,1,80,0,1
154575,-100,4,2,1,80,0,0
154693,-100,4,2,1,80,0,1
168755,-100,4,2,1,60,0,1
169693,-100,4,2,1,60,0,0
171568,-100,4,2,1,80,0,0
173443,-100,4,2,1,80,0,0
207193,-133.333333333333,4,2,1,40,0,0
230161,-133.333333333333,4,2,1,30,0,0
230396,-133.333333333333,4,2,1,40,0,0
230630,-133.333333333333,4,2,1,30,0,0
230864,-133.333333333333,4,2,1,40,0,0
233911,-133.333333333333,4,2,1,30,0,0
234614,-133.333333333333,4,2,1,20,0,0
235318,-133.333333333333,4,2,1,40,0,0
235552,-100,4,2,1,60,0,0
237193,-100,4,2,1,80,0,1
252075,-100,4,2,1,80,0,0
252193,-100,4,2,1,80,0,1
266255,-100,4,2,1,60,0,1
267193,-100,4,2,1,60,0,0
269068,-100,4,2,1,40,0,0
270943,-100,4,2,1,80,0,0
300971,468.75,4,2,1,40,1,0

[Colours]
Combo1 : 252,225,171
Combo2 : 153,190,253
Combo3 : 255,128,128
Combo4 : 168,253,219

[HitObjects]
100,128,681,5,2,0:0:0:0:
164,60,953,1,0,0:0:0:0:
256,32,1226,1,0,0:0:0:0:
348,60,1499,1,2,0:0:0:0:
412,128,1771,1,2,0:0:0:0:
412,224,2045,6,0,L|368:292,1,80,2|0,0:0|0:0,0:0:0:0:
100,224,2590,2,0,L|144:292,1,80,0|2,0:0|0:0,0:0:0:0:
256,328,3135,1,2,0:0:0:0:
200,144,3681,2,0,B|176:108|176:108|176:72,1,80,2|0,0:0|0:0,0:0:0:0:
312,144,4226,2,0,B|336:108|336:108|336:72,1,80,2|0,0:0|0:0,0:0:0:0:
256,16,4772,1,2,0:0:0:0:
256,16,5317,1,2,0:0:0:0:
112,340,6408,6,0,P|160:340|184:316,1,80,2|0,0:0|0:0,0:0:0:0:
256,256,6954,1,0,0:0:0:0:
331,319,7226,1,2,0:0:0:0:
331,319,7499,2,0,L|460:216,1,160,2|2,0:0|0:0,0:0:0:0:
384,156,8317,1,0,0:0:0:0:
308,96,8590,1,2,0:0:0:0:
204,96,8863,1,0,0:0:0:0:
128,156,9135,1,2,0:0:0:0:
128,156,9681,1,2,0:0:0:0:
256,340,10499,5,2,0:0:0:0:
256,340,10635,1,0,0:0:0:0:
256,340,10772,2,0,P|304:340|332:320,1,80,2|0,0:0|0:0,0:0:0:0:
456,168,11317,2,0,P|408:168|380:188,1,80,2|0,0:0|0:0,0:0:0:0:
396,280,11863,2,0,L|320:140,1,160,2|2,0:0|0:0,0:0:0:0:
272,56,12681,1,0,0:0:0:0:
184,56,12954,1,2,0:0:0:0:
116,116,13276,6,0,P|94:191|116:268,1,160,2|2,0:0|0:0,0:0:0:0:
184,328,14244,1,2,0:0:0:0:
452,192,14912,1,2,0:0:0:0:
184,56,15617,1,2,0:0:0:0:
372,312,17602,5,0,0:0:0:0:
372,312,17719,1,0,0:0:0:0:
372,312,17830,2,0,B|328:312|328:312|296:280,1,80,4|0,0:0|0:0,0:0:0:0:
208,192,18298,1,8,0:0:0:0:
304,192,18533,1,4,2:3:0:0:
209,286,18767,2,0,B|184:312|184:312|140:312,2,80,2|0|8,0:0|0:0|0:0,0:0:0:0:
304,192,19470,5,0,0:0:0:0:
304,192,19587,1,0,0:0:0:0:
304,192,19693,2,0,P|316:152|308:108,1,80,4|0,0:0|0:0,0:0:0:0:
192,48,20161,2,0,P|186:87|198:125,1,80,8|0,0:0|0:0,0:0:0:0:
328,208,20630,2,0,P|340:168|332:124,1,80,2|4,0:0|2:3,0:0:0:0:
168,40,21099,2,0,P|162:79|174:117,1,80,8|0,0:0|0:0,0:0:0:0:
84,244,21568,6,0,P|136:244|200:332,1,160,4|8,0:0|0:0,0:0:0:0:
92,336,22271,1,4,2:3:0:0:
84,244,22505,2,0,P|72:192|92:140,1,80,2|4,0:0|2:3,0:0:0:0:
92,72,22974,1,8,0:0:0:0:
256,112,23208,5,0,0:0:0:0:
256,112,23325,1,0,0:0:0:0:
256,112,23443,2,0,L|356:104,1,80,4|0,0:0|0:0,0:0:0:0:
400,196,23911,2,0,L|320:202,1,80,8|0,0:0|0:0,0:0:0:0:
280,304,24380,2,0,L|380:296,2,80,2|4|8,0:0|2:3|0:0,0:0:0:0:
96,240,25083,5,0,0:0:0:0:
96,240,25200,1,0,0:0:0:0:
96,240,25318,2,0,P|88:284|104:324,1,80,4|0,0:0|0:0,0:0:0:0:
156,176,25786,2,0,P|108:156|68:156,1,80,8|4,0:0|2:3,0:0:0:0:
204,248,26255,2,0,P|232:216|240:168,1,80,2|4,0:0|2:3,0:0:0:0:
256,84,26724,1,8,0:0:0:0:
388,144,26958,5,0,0:0:0:0:
388,144,27075,1,0,0:0:0:0:
388,144,27193,2,0,B|428:144|428:144|468:108,1,80,4|0,0:0|0:0,0:0:0:0:
388,240,27661,2,0,B|428:240|428:240|468:276,1,80,8|4,0:0|2:3,0:0:0:0:
304,192,28130,1,2,0:0:0:0:
208,192,28364,1,4,2:3:0:0:
300,280,28599,1,8,0:0:0:0:
212,280,28833,1,8,0:0:0:0:
304,192,29068,6,0,L|324:108,1,80,2|0,0:0|0:0,0:0:0:0:
208,192,29536,1,2,0:0:0:0:
328,200,29771,6,0,L|348:116,1,80,2|0,0:0|0:0,0:0:0:0:
188,192,30239,1,2,0:0:0:0:
352,208,30474,6,0,L|372:124,1,80,2|0,0:0|0:0,0:0:0:0:
256,40,30943,6,0,B|204:40|204:40|148:64|148:64|92:64,1,160,4|8,0:0|0:0,0:0:0:0:
40,216,31646,1,0,0:0:0:0:
40,216,31880,2,0,B|92:216|92:216|148:192|148:192|204:192,1,160,2|8,0:0|0:0,0:0:0:0:
196,288,32583,1,0,0:0:0:0:
280,240,32818,1,2,0:0:0:0:
280,144,33052,1,0,0:0:0:0:
196,96,33286,2,0,B|240:60|280:60|280:60|352:60,1,160,8|2,0:0|0:0,0:0:0:0:
416,128,33989,2,0,L|380:212,1,80,0|8,0:0|0:0,0:0:0:0:
480,192,34458,1,8,0:0:0:0:
372,172,34693,6,0,L|336:256,1,80,10|0,0:0|0:0,0:0:0:0:
256,292,35161,1,8,0:0:0:0:
172,245,35396,2,0,B|196:184|144:144|172:88,1,160,2|0,0:0|0:0,0:0:0:0:
256,40,36099,1,8,0:0:0:0:
341,88,36333,1,0,0:0:0:0:
428,132,36568,2,0,B|472:132|472:132|504:152,1,80,2|0,0:0|0:0,0:0:0:0:
428,252,37036,2,0,B|472:252|472:252|504:232,1,80,8|0,0:0|0:0,0:0:0:0:
360,192,37505,2,0,L|192:192,1,160,2|8,0:0|0:0,0:0:0:0:
123,252,38208,1,8,0:0:0:0:
124,132,38443,6,0,P|168:190|124:252,1,160,10|8,0:0|0:0,0:0:0:0:
40,208,39146,1,0,0:0:0:0:
40,208,39380,2,0,L|164:308,1,160,2|8,0:0|0:0,0:0:0:0:
256,276,40083,1,0,0:0:0:0:
348,308,40318,1,2,0:0:0:0:
348,212,40552,1,0,0:0:0:0:
436,248,40786,2,0,B|466:170|466:170|436:100,1,160,8|2,0:0|0:0,0:0:0:0:
380,24,41489,2,0,P|344:9|308:24,1,80,0|8,0:0|0:0,0:0:0:0:
256,104,41958,1,8,0:0:0:0:
380,52,42193,6,0,P|344:37|308:52,1,80,10|0,0:0|0:0,0:0:0:0:
256,128,42661,1,8,0:0:0:0:
256,128,42896,2,0,B|196:128|168:104|168:104|96:104,1,160,2|0,0:0|0:0,0:0:0:0:
60,192,43599,1,8,0:0:0:0:
101,280,43833,1,0,0:0:0:0:
196,280,44068,6,0,L|260:336,1,80,2|0,0:0|0:0,0:0:0:0:
256,168,44536,2,0,L|192:112,1,80,8|0,0:0|0:0,0:0:0:0:
256,40,45005,1,2,0:0:0:0:
332,104,45239,1,2,0:0:0:0:
332,104,45357,1,0,0:0:0:0:
332,104,45474,1,10,0:0:0:0:
256,168,45708,1,2,0:0:0:0:
448,292,45943,6,0,P|380:328|304:292,1,160,4|8,0:0|0:0,0:0:0:0:
204,297,46646,1,8,0:0:0:0:
204,297,46880,2,0,L|196:381,1,80,2|0,0:0|0:0,0:0:0:0:
144,164,47349,2,0,L|136:248,1,80,8|0,0:0|0:0,0:0:0:0:
140,72,47818,6,0,B|192:72|192:72|232:56|232:56|308:56,1,160,2|8,0:0|0:0,0:0:0:0:
404,112,48521,2,0,P|424:184|388:260,1,160,8|0,0:0|0:0,0:0:0:0:
309,327,49224,1,8,0:0:0:0:
203,327,49458,1,0,0:0:0:0:
122,258,49693,2,0,P|88:187|108:112,1,160,2|8,0:0|0:0,0:0:0:0:
256,56,50396,2,0,L|256:216,1,160,8|0,0:0|0:0,0:0:0:0:
256,328,51099,1,8,0:0:0:0:
344,236,51333,1,0,0:0:0:0:
256,328,51568,6,0,P|220:340|164:324,1,80,2|0,0:0|0:0,0:0:0:0:
344,236,52036,2,0,P|380:224|436:240,1,80,8|8,0:0|0:0,0:0:0:0:
256,344,52505,2,0,P|220:356|164:340,1,80,2|0,0:0|0:0,0:0:0:0:
344,220,52974,2,0,P|380:208|436:224,1,80,8|0,0:0|0:0,0:0:0:0:
340,304,53443,6,0,L|312:136,1,160,2|8,0:0|0:0,0:0:0:0:
300,48,54146,1,8,0:0:0:0:
204,76,54380,2,0,B|164:76|164:76|128:93,1,80,2|0,0:0|0:0,0:0:0:0:
28,192,54849,1,8,0:0:0:0:
28,96,55083,1,0,0:0:0:0:
128,192,55318,6,0,P|132:232|112:288,1,80,2|0,0:0|0:0,0:0:0:0:
208,316,55786,2,0,P|172:356|136:368,2,80,8|8|2,0:0|0:0|0:0,0:0:0:0:
256,216,56489,1,0,0:0:0:0:
320,288,56724,2,0,P|372:292|404:268,1,80,8|0,0:0|0:0,0:0:0:0:
256,216,57193,5,2,0:0:0:0:
328,316,57427,1,0,0:0:0:0:
328,316,57661,2,0,P|380:320|412:296,1,80,0|8,0:0|0:0,0:0:0:0:
256,216,58130,1,2,0:0:0:0:
256,63,58364,1,0,0:0:0:0:
332,139,58599,1,8,0:0:0:0:
179,139,58833,5,0,0:0:0:0:
179,139,58950,1,0,0:0:0:0:
179,139,59068,2,0,B|140:128|140:128|99:139,1,80,2|0,0:0|0:0,0:0:0:0:
16,248,59536,1,8,0:0:0:0:
16,144,59771,1,8,0:0:0:0:
101,245,60005,2,0,B|140:256|140:256|179:245,1,80,2|0,0:0|0:0,0:0:0:0:
333,245,60474,1,8,0:0:0:0:
257,328,60708,1,0,0:0:0:0:
256,160,60943,6,0,B|304:112|356:112|356:112|408:112,1,160,4|2,0:0|0:0,0:0:0:0:
404,280,61646,2,0,B|356:328|304:328|304:328|252:328,1,160,8|0,0:0|0:0,0:0:0:0:
188,264,62349,1,8,0:0:0:0:
124,192,62583,1,0,0:0:0:0:
188,120,62818,2,0,P|268:120|324:56,1,160,2|0,0:0|0:0,0:0:0:0:
240,12,63521,2,0,L|396:68,1,160,8|0,0:0|0:0,0:0:0:0:
480,100,64224,1,8,0:0:0:0:
452,192,64458,1,0,0:0:0:0:
424,284,64693,6,0,P|380:344|300:328,1,160,2|0,0:0|0:0,0:0:0:0:
88,284,65396,2,0,P|132:344|212:328,1,160,8|0,0:0|0:0,0:0:0:0:
256,248,66099,1,8,0:0:0:0:
308,168,66333,1,0,0:0:0:0:
204,168,66568,2,0,P|172:92|204:24,1,160,2|0,0:0|0:0,0:0:0:0:
309,25,67271,2,0,P|340:97|308:168,1,160,8|0,0:0|0:0,0:0:0:0:
256,248,67974,1,8,0:0:0:0:
185,312,68208,1,0,0:0:0:0:
185,312,68325,1,0,0:0:0:0:
185,312,68443,6,0,P|100:312|48:256,1,160,4|8,0:0|0:0,0:0:0:0:
50,122,69146,2,0,P|107:69|185:72,1,160,2|0,0:0|0:0,0:0:0:0:
256,136,69849,1,8,0:0:0:0:
336,192,70083,1,0,0:0:0:0:
256,248,70318,2,0,B|200:248|172:276|172:276|100:276,1,160,2|8,0:0|0:0,0:0:0:0:
52,192,71021,1,0,0:0:0:0:
102,108,71255,2,0,P|148:108|176:88,1,80,2|0,0:0|0:0,0:0:0:0:
52,192,71724,1,8,0:0:0:0:
102,108,71958,1,0,0:0:0:0:
102,276,72193,6,0,B|176:312|176:312|248:276,1,160,4|8,0:0|0:0,0:0:0:0:
332,316,72896,2,0,L|260:356,1,80,0|2,0:0|0:0,0:0:0:0:
416,268,73364,1,0,0:0:0:0:
416,268,73482,1,0,0:0:0:0:
416,268,73599,1,8,0:0:0:0:
412,360,73833,1,10,0:0:0:0:
256,36,74302,1,10,0:0:0:0:
172,308,74771,6,0,P|132:308|96:280,1,80,10|0,0:0|0:0,0:0:0:0:
340,308,75239,2,0,P|380:308|416:280,1,80,0|2,0:0|0:0,0:0:0:0:
256,232,75708,1,0,0:0:0:0:
340,308,75943,6,0,L|360:224,1,80,4|0,0:0|0:0,0:0:0:0:
256,152,76411,2,0,L|256:236,1,80,8|0,0:0|0:0,0:0:0:0:
172,308,76880,2,0,L|152:224,1,80,2|0,0:0|0:0,0:0:0:0:
124,108,77349,1,8,0:0:0:0:
72,192,77583,1,0,0:0:0:0:
256,152,77818,6,0,P|296:152|328:128,1,80,2|0,0:0|0:0,0:0:0:0:
396,64,78286,2,0,P|364:40|324:41,2,80,8|0|2,0:0|0:0|0:0,0:0:0:0:
480,188,78989,1,0,0:0:0:0:
496,96,79224,1,8,0:0:0:0:
376,168,79458,5,0,0:0:0:0:
376,168,79575,1,0,0:0:0:0:
376,168,79693,2,0,B|376:207|376:207|351:239,1,80,2|0,0:0|0:0,0:0:0:0:
304,320,80161,1,8,0:0:0:0:
208,320,80396,1,0,0:0:0:0:
160,239,80630,2,0,B|136:207|136:207|136:168,1,80,2|0,0:0|0:0,0:0:0:0:
144,48,81099,1,8,0:0:0:0:
76,112,81333,1,0,0:0:0:0:
216,100,81568,6,0,P|256:112|296:96,1,80,2|0,0:0|0:0,0:0:0:0:
384,40,82036,1,8,0:0:0:0:
280,16,82271,1,0,0:0:0:0:
384,136,82505,2,0,P|420:164|432:200,1,80,2|0,0:0|0:0,0:0:0:0:
436,300,82974,1,8,0:0:0:0:
256,284,83208,5,0,0:0:0:0:
256,284,83325,1,0,0:0:0:0:
256,284,83443,2,0,P|218:295|179:286,1,80,2|0,0:0|0:0,0:0:0:0:
88,320,83911,2,0,P|76:282|85:243,1,80,8|0,0:0|0:0,0:0:0:0:
48,152,84380,2,0,P|85:140|124:149,1,80,2|0,0:0|0:0,0:0:0:0:
256,304,84849,2,0,P|218:315|179:306,1,80,8|0,0:0|0:0,0:0:0:0:
308,148,85318,5,2,0:0:0:0:
204,148,85552,1,0,0:0:0:0:
300,48,85786,1,8,0:0:0:0:
204,48,86021,1,0,0:0:0:0:
308,148,86255,2,0,B|348:148|348:148|380:116,1,80,2|0,0:0|0:0,0:0:0:0:
204,148,86724,2,0,B|164:148|164:148|132:116,1,80,8|0,0:0|0:0,0:0:0:0:
192,344,87193,5,2,0:0:0:0:
258,229,87427,1,0,0:0:0:0:
320,343,87661,2,0,P|357:331|395:341,1,80,8|0,0:0|0:0,0:0:0:0:
192,344,88130,2,0,P|156:332|112:344,1,80,2|0,0:0|0:0,0:0:0:0:
24,244,88598,1,8,0:0:0:0:
20,352,88833,1,0,0:0:0:0:
124,228,89068,6,0,L|156:136,1,80,4|0,0:0|0:0,0:0:0:0:
209,54,89536,1,8,0:0:0:0:
312,108,89771,1,8,0:0:0:0:
345,97,89888,1,0,0:0:0:0:
381,96,90005,1,8,0:0:0:0:
415,106,90122,1,0,0:0:0:0:
445,125,90239,1,8,0:0:0:0:
468,152,90356,1,0,0:0:0:0:
482,184,90474,1,8,0:0:0:0:
487,219,90591,1,0,0:0:0:0:
482,254,90708,1,8,0:0:0:0:
469,285,90825,1,0,0:0:0:0:
444,308,90943,6,0,P|400:308|368:284,1,80,4|0,0:0|0:0,0:0:0:0:
208,220,91411,1,8,0:0:0:0:
304,220,91646,1,0,0:0:0:0:
208,220,91880,2,0,P|128:220|68:164,1,160,2|8,0:0|0:0,0:0:0:0:
160,24,92583,1,0,0:0:0:0:
160,24,92818,2,0,P|204:24|236:44,1,80,2|0,0:0|0:0,0:0:0:0:
308,100,93286,2,0,B|364:100|364:100|424:128|424:128|468:128,1,160,8|2,0:0|0:0,0:0:0:0:
460,224,93989,1,0,0:0:0:0:
357,204,94224,1,8,0:0:0:0:
256,180,94458,1,0,0:0:0:0:
256,180,94575,1,0,0:0:0:0:
256,180,94693,6,0,P|272:216|256:252,1,80,2|0,0:0|0:0,0:0:0:0:
120,328,95161,2,0,P|104:292|120:256,1,80,8|0,0:0|0:0,0:0:0:0:
256,251,95630,2,0,P|328:288|392:252,1,160,2|8,0:0|0:0,0:0:0:0:
324,124,96333,1,0,0:0:0:0:
324,124,96568,2,0,L|324:204,1,80,2|0,0:0|0:0,0:0:0:0:
188,204,97036,2,0,L|188:124,1,80,8|0,0:0|0:0,0:0:0:0:
256,44,97505,2,0,L|256:204,1,160,2|8,0:0|0:0,0:0:0:0:
252,300,98208,1,0,0:0:0:0:
252,300,98325,1,0,0:0:0:0:
252,300,98443,6,0,P|296:300|328:320,1,80,2|0,0:0|0:0,0:0:0:0:
404,260,98911,1,8,0:0:0:0:
480,200,99146,2,0,B|512:148|512:100|512:100|512:44,1,160,2|0,0:0|0:0,0:0:0:0:
512,46,99849,1,8,0:0:0:0:
424,88,100083,1,0,0:0:0:0:
256,48,100318,6,0,B|208:48|208:48|144:76|144:76|100:76,1,160,2|8,0:0|0:0,0:0:0:0:
36,148,101021,1,0,0:0:0:0:
36,148,101255,2,0,L|104:208,1,80,2|0,0:0|0:0,0:0:0:0:
88,336,101724,2,0,L|20:276,1,80,8|0,0:0|0:0,0:0:0:0:
28,283,102075,1,0,0:0:0:0:
28,283,102193,5,4,0:0:0:0:
156,268,102427,1,0,0:0:0:0:
208,348,102661,1,0,0:0:0:0:
304,348,102896,1,0,0:0:0:0:
356,268,103130,2,0,B|328:224|380:148|356:108,1,160,8|0,0:0|0:0,0:0:0:0:
154,111,103833,6,0,B|132:148|184:224|156:268,1,160,12|0,0:0|0:0,0:0:0:0:
208,348,104536,1,0,0:0:0:0:
304,348,104771,1,0,0:0:0:0:
304,348,104888,1,0,0:0:0:0:
304,348,105005,2,0,P|368:348|408:312,2,120,2|2|2,0:0|0:0|0:0,0:0:0:0:
256,264,105943,1,4,0:0:0:0:
256,44,107583,5,2,0:0:0:0:
184,110,107818,2,0,P|256:140|328:110,1,160,4|2,0:0|0:0,0:0:0:0:
471,110,108755,2,0,P|399:80|327:110,1,160,0|2,0:0|0:0,0:0:0:0:
440,284,109693,6,0,P|368:320|296:276,1,160,4|8,0:0|0:0,0:0:0:0:
209,286,110396,2,0,P|140:320|72:284,1,160,8|0,0:0|0:0,0:0:0:0:
148,160,111099,2,0,L|140:252,1,80,8|0,0:0|0:0,0:0:0:0:
168,76,111568,2,0,P|116:80|80:104,1,80,2|0,0:0|0:0,0:0:0:0:
240,132,112036,2,0,P|264:80|256:44,1,80,8|8,0:0|0:0,0:0:0:0:
148,160,112505,2,0,P|172:200|236:216,1,80,2|0,0:0|0:0,0:0:0:0:
344,248,112974,1,8,0:0:0:0:
292,160,113208,1,0,0:0:0:0:
256,284,113443,6,0,P|256:328|292:380,1,80,2|0,0:0|0:0,0:0:0:0:
344,248,113911,1,8,0:0:0:0:
228,284,114146,2,0,P|228:328|264:380,1,80,8|2,0:0|0:0,0:0:0:0:
344,248,114614,1,0,0:0:0:0:
267,171,114849,1,8,0:0:0:0:
344,95,115083,1,0,0:0:0:0:
420,171,115318,6,0,L|456:88,1,80,2|0,0:0|0:0,0:0:0:0:
344,95,115786,2,0,L|344:8,1,80,8|8,0:0|0:0,0:0:0:0:
267,171,116255,2,0,L|231:88,1,80,2|0,0:0|0:0,0:0:0:0:
436,176,116724,2,0,L|472:93,1,80,8|0,0:0|0:0,0:0:0:0:
344,248,117193,6,0,P|276:284|196:244,1,160,2|8,0:0|0:0,0:0:0:0:
120,192,117896,1,8,0:0:0:0:
204,254,118130,2,0,L|140:320,1,80,2|0,0:0|0:0,0:0:0:0:
204,129,118599,2,0,L|140:64,1,80,8|0,0:0|0:0,0:0:0:0:
320,128,119068,6,0,B|360:128|360:128|396:92,1,80,2|0,0:0|0:0,0:0:0:0:
492,192,119536,1,8,0:0:0:0:
492,192,119771,1,8,0:0:0:0:
388,284,120005,2,0,B|360:256|360:256|320:256,1,80,2|0,0:0|0:0,0:0:0:0:
192,256,120474,1,8,0:0:0:0:
256,352,120708,1,0,0:0:0:0:
192,256,120943,6,0,P|176:212|188:160,1,80,2|0,0:0|0:0,0:0:0:0:
180,80,121411,1,8,0:0:0:0:
288,192,121646,1,8,0:0:0:0:
180,80,121880,2,0,P|140:68|88:76,1,80,2|0,0:0|0:0,0:0:0:0:
272,112,122349,2,0,P|276:72|256:20,1,80,8|0,0:0|0:0,0:0:0:0:
200,244,122818,5,2,0:0:0:0:
312,244,123052,1,0,0:0:0:0:
204,348,123286,1,8,0:0:0:0:
308,348,123521,1,8,0:0:0:0:
204,348,123755,2,0,B|168:348|168:348|132:312,1,80,2|0,0:0|0:0,0:0:0:0:
308,348,124224,2,0,B|344:348|344:348|380:312,1,80,8|0,0:0|0:0,0:0:0:0:
200,232,124693,6,0,L|148:76,1,160,4|2,0:0|0:0,0:0:0:0:
362,80,125396,2,0,L|312:232,1,160,8|0,0:0|0:0,0:0:0:0:
256,312,126099,1,8,0:0:0:0:
200,231,126333,1,0,0:0:0:0:
312,231,126568,2,0,B|352:160|352:160|352:76,1,160,2|0,0:0|0:0,0:0:0:0:
160,81,127271,2,0,B|160:160|160:160|200:231,1,160,8|0,0:0|0:0,0:0:0:0:
312,231,127974,1,8,0:0:0:0:
256,156,128208,1,0,0:0:0:0:
256,312,128443,6,0,P|176:312|120:252,1,160,2|0,0:0|0:0,0:0:0:0:
122,125,129146,2,0,P|178:71|256:72,1,160,8|0,0:0|0:0,0:0:0:0:
340,116,129849,1,8,0:0:0:0:
400,192,130083,1,0,0:0:0:0:
340,268,130318,2,0,B|292:268|292:268|228:244|228:244|180:244,1,160,2|0,0:0|0:0,0:0:0:0:
184,140,131021,2,0,B|228:140|228:140|292:116|292:116|340:116,1,160,8|0,0:0|0:0,0:0:0:0:
432,240,131724,1,8,0:0:0:0:
432,144,131958,1,0,0:0:0:0:
340,268,132193,6,0,B|292:268|256:248|256:248|176:248,1,160,4|8,0:0|0:0,0:0:0:0:
183,136,132896,2,0,B|256:136|256:136|292:116|340:116,1,160,2|0,0:0|0:0,0:0:0:0:
420,64,133599,1,8,0:0:0:0:
500,116,133833,1,0,0:0:0:0:
420,168,134068,2,0,P|384:236|420:308,1,160,2|8,0:0|0:0,0:0:0:0:
484,236,134771,1,0,0:0:0:0:
417,305,135005,2,0,L|352:360,1,80,2|0,0:0|0:0,0:0:0:0:
304,276,135474,1,8,0:0:0:0:
208,276,135708,1,0,0:0:0:0:
156,356,135943,6,0,L|16:276,1,160,4|8,0:0|0:0,0:0:0:0:
48,188,136646,1,2,0:0:0:0:
128,236,136880,1,2,0:0:0:0:
156,216,136997,1,0,0:0:0:0:
176,188,137114,1,2,0:0:0:0:
188,156,137231,1,0,0:0:0:0:
176,124,137349,1,2,0:0:0:0:
156,96,137466,1,0,0:0:0:0:
128,76,137583,5,10,0:0:0:0:
384,76,138052,1,10,0:0:0:0:
256,332,138521,5,10,0:0:0:0:
332,276,138755,1,0,0:0:0:0:
408,220,138989,1,8,0:0:0:0:
404,196,139107,1,8,0:0:0:0:
400,172,139224,1,8,0:0:0:0:
396,148,139341,1,8,0:0:0:0:
392,124,139458,1,8,0:0:0:0:
388,100,139575,1,8,0:0:0:0:
384,76,139693,6,0,B|344:76|344:76|312:104,1,80,4|0,0:0|0:0,0:0:0:0:
204,192,140161,1,8,0:0:0:0:
308,192,140396,1,0,0:0:0:0:
198,102,140630,2,0,B|168:76|168:76|128:76,2,80,2|0|8,0:0|0:0|0:0,0:0:0:0:
308,192,141333,5,0,0:0:0:0:
308,192,141450,1,0,0:0:0:0:
308,192,141568,2,0,B|320:232|320:232|300:272,1,80,2|0,0:0|0:0,0:0:0:0:
209,266,142036,2,0,B|192:232|192:232|204:192,1,80,8|0,0:0|0:0,0:0:0:0:
328,192,142505,2,0,B|340:232|340:232|320:272,1,80,2|0,0:0|0:0,0:0:0:0:
189,266,142974,2,0,B|172:232|172:232|184:192,1,80,8|0,0:0|0:0,0:0:0:0:
320,96,143443,5,2,0:0:0:0:
204,116,143677,1,0,0:0:0:0:
320,96,143911,2,0,P|316:56|296:16,1,80,8|0,0:0|0:0,0:0:0:0:
204,116,144380,2,0,P|187:152|183:191,1,80,2|0,0:0|0:0,0:0:0:0:
180,320,144849,1,8,0:0:0:0:
41,256,145083,5,0,0:0:0:0:
41,256,145200,1,0,0:0:0:0:
41,256,145318,2,0,L|125:240,1,80,2|0,0:0|0:0,0:0:0:0:
261,217,145786,1,8,0:0:0:0:
404,192,146021,1,0,0:0:0:0:
352,276,146255,1,2,0:0:0:0:
320,136,146489,1,0,0:0:0:0:
352,276,146724,2,0,L|264:304,1,80,8|0,0:0|0:0,0:0:0:0:
320,136,147193,6,0,B|320:92|320:92|348:60,1,80,2|0,0:0|0:0,0:0:0:0:
192,136,147661,2,0,B|192:92|192:92|164:60,1,80,8|0,0:0|0:0,0:0:0:0:
218,232,148130,2,0,B|242:232|256:218|256:218|270:232|290:232,1,80,2|0,0:0|0:0,0:0:0:0:
392,328,148599,1,8,0:0:0:0:
424,204,148833,1,0,0:0:0:0:
392,328,149068,6,0,P|348:344|304:320,1,80,2|0,0:0|0:0,0:0:0:0:
193,333,149536,1,8,0:0:0:0:
256,256,149771,1,0,0:0:0:0:
193,333,150005,2,0,P|155:343|120:328,1,80,2|0,0:0|0:0,0:0:0:0:
256,256,150474,2,0,L|256:168,1,80,8|0,0:0|0:0,0:0:0:0:
256,17,150943,5,2,0:0:0:0:
176,96,151177,1,0,0:0:0:0:
256,176,151411,1,8,0:0:0:0:
335,96,151646,1,0,0:0:0:0:
176,96,151880,2,0,B|132:96|132:96|100:120,1,80,2|0,0:0|0:0,0:0:0:0:
12,192,152349,1,8,0:0:0:0:
12,88,152583,1,0,0:0:0:0:
120,240,152818,6,0,P|172:240|208:264,1,80,4|0,0:0|0:0,0:0:0:0:
268,348,153286,1,8,0:0:0:0:
376,296,153521,1,8,0:0:0:0:
398,275,153638,1,0,0:0:0:0:
417,249,153755,1,8,0:0:0:0:
429,221,153872,1,0,0:0:0:0:
435,190,153989,1,8,0:0:0:0:
434,159,154106,1,0,0:0:0:0:
427,129,154224,1,8,0:0:0:0:
414,101,154341,1,0,0:0:0:0:
395,76,154458,1,8,0:0:0:0:
371,56,154575,1,0,0:0:0:0:
340,44,154693,6,0,L|296:112,1,80,4|0,0:0|0:0,0:0:0:0:
172,44,155161,2,0,L|216:112,1,80,8|0,0:0|0:0,0:0:0:0:
256,200,155630,2,0,B|200:200|200:200|148:232|148:232|104:232,1,160,2|8,0:0|0:0,0:0:0:0:
48,156,156333,2,0,L|128:156,1,80,0|2,0:0|0:0,0:0:0:0:
220,276,156802,1,0,0:0:0:0:
220,276,157036,2,0,B|272:308|320:308|320:308|380:308,1,160,8|2,0:0|0:0,0:0:0:0:
440,240,157739,1,0,0:0:0:0:
440,144,157974,1,8,0:0:0:0:
373,76,158208,1,0,0:0:0:0:
373,76,158325,1,0,0:0:0:0:
373,76,158443,6,0,P|328:76|300:56,1,80,2|0,0:0|0:0,0:0:0:0:
139,76,158911,2,0,P|184:76|212:56,1,80,8|0,0:0|0:0,0:0:0:0:
256,140,159380,2,0,L|256:300,1,160,2|8,0:0|0:0,0:0:0:0:
256,300,160083,1,0,0:0:0:0:
336,248,160318,2,0,B|380:248|380:248|416:224,1,80,2|0,0:0|0:0,0:0:0:0:
176,248,160786,2,0,B|132:248|132:248|96:224,1,80,8|0,0:0|0:0,0:0:0:0:
256,300,161255,2,0,L|256:128,1,160,2|8,0:0|0:0,0:0:0:0:
256,44,161958,1,0,0:0:0:0:
256,44,162075,1,0,0:0:0:0:
256,44,162193,6,0,P|304:44|332:64,1,80,2|0,0:0|0:0,0:0:0:0:
400,128,162661,1,8,0:0:0:0:
400,128,162896,2,0,L|308:272,1,160,2|0,0:0|0:0,0:0:0:0:
256,340,163599,1,8,0:0:0:0:
313,262,163833,1,0,0:0:0:0:
198,262,164068,2,0,L|112:128,1,160,2|8,0:0|0:0,0:0:0:0:
196,80,164771,2,0,L|152:8,1,80,0|2,0:0|0:0,0:0:0:0:
316,80,165239,2,0,L|360:8,1,80,0|8,0:0|0:0,0:0:0:0:
256,140,165708,1,0,0:0:0:0:
256,140,165825,1,0,0:0:0:0:
256,140,165943,6,0,L|256:228,1,80,4|0,0:0|0:0,0:0:0:0:
164,340,166411,1,0,0:0:0:0:
348,244,166646,1,0,0:0:0:0:
164,244,166880,1,8,0:0:0:0:
348,340,167114,1,0,0:0:0:0:
256,220,167349,1,0,0:0:0:0:
256,380,167583,6,0,L|256:220,1,160,12|0,0:0|0:0,0:0:0:0:
256,124,168286,1,0,0:0:0:0:
200,44,168521,1,0,0:0:0:0:
200,44,168638,1,0,0:0:0:0:
200,44,168755,2,0,P|256:26|312:44,2,120,2|2|2,0:0|0:0|0:0,0:0:0:0:
256,124,169693,1,4,0:0:0:0:
256,336,171333,5,0,0:0:0:0:
316,264,171568,2,0,L|360:340,1,80,4|8,0:0|0:0,0:0:0:0:
155,333,172036,2,0,L|196:264,1,80,8|8,0:0|0:0,0:0:0:0:
256,188,172505,1,8,0:0:0:0:
172,140,172739,1,0,0:0:0:0:
148,144,172857,1,8,0:0:0:0:
124,148,172974,1,8,0:0:0:0:
100,152,173091,1,8,0:0:0:0:
76,156,173208,1,0,0:0:0:0:
72,296,173443,6,0,P|116:296|148:320,1,80,4|0,0:0|0:0,0:0:0:0:
256,336,173911,2,0,P|300:336|332:312,1,80,8|0,0:0|0:0,0:0:0:0:
424,240,174380,1,2,0:0:0:0:
420,348,174614,1,0,0:0:0:0:
328,232,174849,2,0,L|336:132,1,80,8|0,0:0|0:0,0:0:0:0:
208,88,175318,5,2,0:0:0:0:
104,52,175552,1,0,0:0:0:0:
208,88,175786,2,0,P|208:128|180:172,1,80,8|0,0:0|0:0,0:0:0:0:
104,256,176255,1,2,0:0:0:0:
68,148,176489,1,0,0:0:0:0:
104,256,176724,2,0,P|100:300|112:336,1,80,8|0,0:0|0:0,0:0:0:0:
320,256,177193,6,0,B|364:256|364:256|396:280,1,80,2|0,0:0|0:0,0:0:0:0:
476,240,177661,1,8,0:0:0:0:
476,144,177896,1,0,0:0:0:0:
392,106,178130,2,0,B|364:128|364:128|320:128,1,80,2|0,0:0|0:0,0:0:0:0:
256,56,178599,1,8,0:0:0:0:
192,128,178833,1,0,0:0:0:0:
256,304,179068,5,2,0:0:0:0:
320,232,179302,1,0,0:0:0:0:
256,304,179536,2,0,B|216:304|216:304|172:340,1,80,8|0,0:0|0:0,0:0:0:0:
104,248,180005,1,2,0:0:0:0:
148,132,180239,1,0,0:0:0:0:
104,248,180474,2,0,L|12:248,1,80,8|0,0:0|0:0,0:0:0:0:
148,132,180943,6,0,B|208:132|208:132|240:116|240:116|312:116,1,160,2|8,0:0|0:0,0:0:0:0:
416,80,181646,1,0,0:0:0:0:
416,80,181880,2,0,L|440:160,1,80,2|0,0:0|0:0,0:0:0:0:
368,268,182349,2,0,L|345:191,1,80,8|0,0:0|0:0,0:0:0:0:
204,264,182818,2,0,P|128:304|64:264,1,160,2|8,0:0|0:0,0:0:0:0:
132,144,183521,1,0,0:0:0:0:
132,144,183755,2,0,L|132:244,1,80,2|0,0:0|0:0,0:0:0:0:
256,148,184224,2,0,L|256:68,1,80,8|0,0:0|0:0,0:0:0:0:
480,192,184693,6,0,P|428:192|356:264,1,160,2|8,0:0|0:0,0:0:0:0:
256,344,185396,1,0,0:0:0:0:
156,264,185630,2,0,P|109:202|32:192,1,160,2|8,0:0|0:0,0:0:0:0:
256,344,186333,1,0,0:0:0:0:
256,344,186450,1,0,0:0:0:0:
256,344,186568,2,0,L|256:256,1,80,2|0,0:0|0:0,0:0:0:0:
256,146,187036,1,12,0:0:0:0:
332,56,187271,5,8,0:0:0:0:
358,52,187388,1,0,0:0:0:0:
384,56,187505,1,8,0:0:0:0:
408,67,187622,1,0,0:0:0:0:
429,84,187739,1,8,0:0:0:0:
443,106,187856,1,0,0:0:0:0:
451,132,187974,1,8,0:0:0:0:
452,158,188091,1,0,0:0:0:0:
445,184,188208,1,8,0:0:0:0:
432,207,188325,1,0,0:0:0:0:
412,228,188443,6,0,P|368:228|332:248,1,80,4|0,0:0|0:0,0:0:0:0:
336,244,188794,1,0,0:0:0:0:
336,244,188911,2,0,L|360:328,1,80,8|0,0:0|0:0,0:0:0:0:
154,320,189380,2,0,L|176:244,1,80,2|0,0:0|0:0,0:0:0:0:
256,300,189849,1,8,0:0:0:0:
208,156,190083,1,0,0:0:0:0:
337,244,190318,1,2,0:0:0:0:
175,244,190552,1,0,0:0:0:0:
304,156,190786,1,8,0:0:0:0:
304,156,191021,2,0,P|338:87|304:16,1,160,2|2,0:0|0:0,0:0:0:0:
240,88,191724,2,0,L|420:88,1,160,8|2,0:0|0:0,0:0:0:0:
464,160,192427,5,0,0:0:0:0:
464,160,192544,1,0,0:0:0:0:
464,160,192661,2,0,B|464:204|464:204|440:240,1,80,8|0,0:0|0:0,0:0:0:0:
220,161,193130,2,0,B|220:117|220:117|244:81,1,80,2|0,0:0|0:0,0:0:0:0:
304,16,193599,1,8,0:0:0:0:
368,84,193833,2,0,P|412:84|440:64,1,80,0|2,0:0|0:0,0:0:0:0:
220,161,194302,2,0,P|176:161|148:181,1,80,0|8,0:0|0:0,0:0:0:0:
196,264,194771,1,0,0:0:0:0:
196,264,195005,2,0,L|88:128,1,160,2|8,0:0|0:0,0:0:0:0:
316,120,195708,5,0,0:0:0:0:
316,120,195942,2,0,L|424:256,1,160,2|8,0:0|0:0,0:0:0:0:
476,320,196646,1,0,0:0:0:0:
415,245,196880,2,0,P|338:245|307:314,1,160,2|8,0:0|0:0,0:0:0:0:
256,192,197583,1,0,0:0:0:0:
97,244,197818,2,0,P|172:244|205:312,1,160,2|8,0:0|0:0,0:0:0:0:
256,192,198521,1,0,0:0:0:0:
184,128,198755,2,0,B|257:93|257:93|328:128,1,160,2|8,0:0|0:0,0:0:0:0:
372,44,199458,5,0,0:0:0:0:
372,44,199575,1,0,0:0:0:0:
372,44,199693,2,0,L|288:4,1,80,2|0,0:0|0:0,0:0:0:0:
140,44,200161,2,0,L|224:4,1,80,8|0,0:0|0:0,0:0:0:0:
256,96,200630,2,0,L|256:176,1,80,2|0,0:0|0:0,0:0:0:0:
256,272,201099,1,8,0:0:0:0:
172,224,201333,5,0,0:0:0:0:
172,224,201450,1,8,0:0:0:0:
172,224,201568,2,0,P|128:224|96:200,1,80,2|0,0:0|0:0,0:0:0:0:
256,96,202036,1,8,0:0:0:0:
340,224,202271,1,0,0:0:0:0:
340,224,202388,1,8,0:0:0:0:
340,224,202505,2,0,P|384:224|416:200,1,80,2|0,0:0|0:0,0:0:0:0:
256,272,202974,1,8,0:0:0:0:
256,272,203091,1,0,0:0:0:0:
256,272,203208,1,8,0:0:0:0:
96,280,207193,6,0,P|156:276|208:308,1,120.000004577637,2|2,0:0|0:0,0:0:0:0:
306,305,207896,1,0,0:0:0:0:
306,305,208130,2,0,P|357:275|416:280,1,120.000004577637,2|2,0:0|0:0,0:0:0:0:
464,192,208833,1,0,0:0:0:0:
384,136,209068,6,0,P|352:136|320:116,1,60.0000022888184,2|0,0:0|0:0,0:0:0:0:
300,40,209536,1,2,0:0:0:0:
212,40,209771,1,0,0:0:0:0:
184,123,210005,2,0,P|157:136|128:136,1,60.0000022888184,2|0,0:0|0:0,0:0:0:0:
48,192,210474,1,2,0:0:0:0:
48,192,210943,6,0,L|32:264,1,60.0000022888184,2|0,0:0|0:0,0:0:0:0:
116,284,211411,2,0,L|100:356,1,60.0000022888184,2|0,0:0|0:0,0:0:0:0:
200,316,211880,2,0,L|213:257,1,60.0000022888184,2|0,0:0|0:0,0:0:0:0:
304,168,212349,1,2,0:0:0:0:
208,168,212583,1,0,0:0:0:0:
299,257,212818,2,0,L|312:316,1,60.0000022888184,2|0,0:0|0:0,0:0:0:0:
396,284,213286,2,0,L|412:356,1,60.0000022888184,2|0,0:0|0:0,0:0:0:0:
477,250,213755,2,0,L|464:192,1,60.0000022888184,2|0,0:0|0:0,0:0:0:0:
448,104,214224,1,2,0:0:0:0:
448,104,214693,6,0,B|396:116|380:76|320:92,1,120.000004577637,2|2,0:0|0:0,0:0:0:0:
256,20,215396,1,0,0:0:0:0:
181,89,215630,2,0,B|132:76|116:116|64:104,1,120.000004577637,2|2,0:0|0:0,0:0:0:0:
36,208,216333,1,0,0:0:0:0:
36,208,216568,2,0,P|28:256|40:288,1,60.0000022888184,2|0,0:0|0:0,0:0:0:0:
48,360,217036,2,0,P|80:344|104:316,1,60.0000022888184,2|0,0:0|0:0,0:0:0:0:
180,264,217505,2,0,P|148:244|124:236,1,60.0000022888184,2|0,0:0|0:0,0:0:0:0:
24,208,217974,2,0,P|16:256|28:288,1,60.0000022888184,2|0,0:0|0:0,0:0:0:0:
128,136,218443,6,0,L|192:124,1,60.0000022888184,2|0,0:0|0:0,0:0:0:0:
288,200,218911,2,0,L|229:211,1,60.0000022888184,2|0,0:0|0:0,0:0:0:0:
320,296,219380,2,0,L|378:284,1,60.0000022888184,2|0,0:0|0:0,0:0:0:0:
508,256,219849,1,2,0:0:0:0:
464,348,220083,1,0,0:0:0:0:
428,192,220318,6,0,P|436:144|420:100,2,90.0000034332277,2|2|2,0:0|0:0|0:0,0:0:0:0:
320,172,221255,2,0,L|224:164,2,90.0000034332277,2|2|0,0:0|0:0|0:0,0:0:0:0:
264,264,222193,6,0,L|200:260,1,60.0000022888184,2|0,0:0|0:0,0:0:0:0:
120,212,222661,2,0,L|124:148,1,60.0000022888184,2|0,0:0|0:0,0:0:0:0:
128,56,223130,2,0,B|176:56|176:56|208:72|208:72|248:72,1,120.000004577637,2|2,0:0|0:0,0:0:0:0:
340,92,223833,1,0,0:0:0:0:
436,112,224068,2,0,P|445:139|436:168,1,60.0000022888184,2|0,0:0|0:0,0:0:0:0:
340,192,224536,2,0,B|324:252|356:252|340:312,2,120.000004577637,2|2|2,0:0|0:0|0:0,0:0:0:0:
84,128,225943,6,0,L|28:148,1,60.0000022888184,2|0,0:0|0:0,0:0:0:0:
28,236,226411,2,0,L|84:256,1,60.0000022888184,2|0,0:0|0:0,0:0:0:0:
176,280,226880,1,2,0:0:0:0:
216,192,227114,1,0,0:0:0:0:
176,104,227349,2,0,L|212:40,1,60.0000022888184,2|0,0:0|0:0,0:0:0:0:
306,51,227818,2,0,L|336:104,1,60.0000022888184,2|0,0:0|0:0,0:0:0:0:
296,192,228286,1,2,0:0:0:0:
336,280,228521,1,0,0:0:0:0:
256,332,228755,1,2,0:0:0:0:
188,32,229693,6,0,P|280:32|352:88,2,180.000006866455,2|2|2,0:0|0:0|0:0,0:0:0:0:
24,136,231568,1,2,0:0:0:0:
84,316,232036,1,2,0:0:0:0:
256,232,232505,1,2,0:0:0:0:
428,316,232974,1,2,0:0:0:0:
488,136,233443,2,0,P|413:241|256:232,1,300.000011444092,2|0,0:0|0:0,0:0:0:0:
256,40,235318,5,0,0:0:0:0:
180,96,235552,1,12,0:0:0:0:
332,96,235786,1,12,0:0:0:0:
180,96,236021,6,0,L|108:40,1,80,2|0,0:0|0:0,0:0:0:0:
28,160,236489,2,0,L|100:216,1,80,0|2,0:0|0:0,0:0:0:0:
136,312,236958,1,0,0:0:0:0:
136,312,237193,6,0,P|180:312|208:284,1,80,4|0,0:0|0:0,0:0:0:0:
300,192,237661,1,8,0:0:0:0:
212,192,237896,1,0,0:0:0:0:
306,289,238130,2,0,P|336:313|376:312,1,80,2|0,0:0|0:0,0:0:0:0:
484,252,238599,1,8,0:0:0:0:
460,348,238833,1,0,0:0:0:0:
384,192,239068,2,0,L|400:108,1,80,2|0,0:0|0:0,0:0:0:0:
256,32,239536,2,0,L|256:112,1,80,8|0,0:0|0:0,0:0:0:0:
128,192,240005,2,0,L|112:108,2,80,2|0|8,0:0|0:0|0:0,0:0:0:0:
196,360,240708,5,0,0:0:0:0:
196,360,240825,1,0,0:0:0:0:
196,360,240943,1,2,0:0:0:0:
164,252,241177,1,0,0:0:0:0:
257,188,241411,1,8,0:0:0:0:
348,252,241646,1,0,0:0:0:0:
316,360,241880,1,2,0:0:0:0:
196,360,242114,1,0,0:0:0:0:
348,252,242349,2,0,B|375:223|375:223|375:167,1,80,8|0,0:0|0:0,0:0:0:0:
256,28,242818,6,0,L|256:116,1,80,2|0,0:0|0:0,0:0:0:0:
160,156,243286,2,0,L|140:68,1,80,8|0,0:0|0:0,0:0:0:0:
352,156,243755,2,0,L|372:68,2,80,2|0|8,0:0|0:0|0:0,0:0:0:0:
320,260,244458,1,0,0:0:0:0:
320,260,244575,1,0,0:0:0:0:
320,260,244693,5,2,0:0:0:0:
192,260,244927,1,0,0:0:0:0:
304,360,245161,1,8,0:0:0:0:
208,360,245396,1,0,0:0:0:0:
320,260,245630,2,0,B|356:260|356:260|392:224,1,80,2|0,0:0|0:0,0:0:0:0:
192,260,246099,2,0,B|156:260|156:260|120:224,1,80,8|0,0:0|0:0,0:0:0:0:
256,160,246568,5,2,0:0:0:0:
182,86,246802,1,0,0:0:0:0:
256,12,247036,1,8,0:0:0:0:
329,86,247271,1,0,0:0:0:0:
182,86,247505,1,2,0:0:0:0:
256,12,247739,1,0,0:0:0:0:
256,160,247974,1,8,0:0:0:0:
432,288,248208,5,0,0:0:0:0:
432,288,248325,1,0,0:0:0:0:
432,288,248443,2,0,P|360:288|304:352,1,160,2|8,0:0|0:0,0:0:0:0:
207,348,249146,2,0,P|157:288|80:287,1,160,2|0,0:0|0:0,0:0:0:0:
20,104,249849,1,8,0:0:0:0:
48,196,250083,1,0,0:0:0:0:
155,129,250318,6,0,P|203:121|223:81,1,80,4|0,0:0|0:0,0:0:0:0:
313,15,250786,1,8,0:0:0:0:
416,88,251021,1,8,0:0:0:0:
436,104,251138,1,0,0:0:0:0:
453,125,251255,1,8,0:0:0:0:
465,148,251372,1,0,0:0:0:0:
472,174,251489,1,8,0:0:0:0:
473,201,251606,1,0,0:0:0:0:
468,227,251724,1,8,0:0:0:0:
457,251,251841,1,0,0:0:0:0:
442,273,251958,1,8,0:0:0:0:
422,291,252075,1,0,0:0:0:0:
400,308,252193,6,0,P|352:308|324:284,1,80,4|0,0:0|0:0,0:0:0:0:
112,308,252661,2,0,P|160:308|188:284,1,80,8|0,0:0|0:0,0:0:0:0:
256,212,253130,2,0,L|256:40,1,160,2|8,0:0|0:0,0:0:0:0:
152,56,253833,2,0,L|108:124,1,80,0|2,0:0|0:0,0:0:0:0:
360,56,254302,1,0,0:0:0:0:
360,56,254536,2,0,L|444:196,1,160,8|2,0:0|0:0,0:0:0:0:
496,284,255239,1,0,0:0:0:0:
416,348,255474,1,8,0:0:0:0:
336,284,255708,1,0,0:0:0:0:
336,284,255825,1,0,0:0:0:0:
336,284,255943,6,0,P|296:284|264:260,1,80,2|0,0:0|0:0,0:0:0:0:
176,100,256411,2,0,P|216:100|248:124,1,80,8|0,0:0|0:0,0:0:0:0:
194,211,256880,2,0,L|298:75,1,160,2|8,0:0|0:0,0:0:0:0:
384,136,257583,2,0,L|336:208,1,80,0|2,0:0|0:0,0:0:0:0:
160,96,258052,2,0,L|208:24,1,80,0|8,0:0|0:0,0:0:0:0:
292,84,258521,1,0,0:0:0:0:
384,136,258755,2,0,B|384:184|384:184|356:244|356:244|356:292,1,160,2|8,0:0|0:0,0:0:0:0:
256,316,259458,1,0,0:0:0:0:
256,316,259575,1,0,0:0:0:0:
256,316,259693,6,0,P|216:316|180:292,1,80,2|0,0:0|0:0,0:0:0:0:
92,244,260161,1,8,0:0:0:0:
92,244,260396,2,0,L|172:104,1,160,2|0,0:0|0:0,0:0:0:0:
341,105,261099,1,8,0:0:0:0:
256,44,261333,1,0,0:0:0:0:
255,168,261568,2,0,P|223:238|254:310,1,160,2|8,0:0|0:0,0:0:0:0:
332,240,262271,1,0,0:0:0:0:
408,312,262505,1,2,0:0:0:0:
480,240,262739,1,0,0:0:0:0:
480,240,262857,1,0,0:0:0:0:
480,240,262974,2,0,P|496:204|480:164,1,80,8|0,0:0|0:0,0:0:0:0:
333,97,263443,6,0,P|300:167|331:239,1,160,4|0,0:0|0:0,0:0:0:0:
256,312,264146,1,0,0:0:0:0:
108,312,264380,1,8,0:0:0:0:
181,239,264614,1,0,0:0:0:0:
181,239,264732,1,0,0:0:0:0:
181,239,264849,1,0,0:0:0:0:
32,240,265083,6,0,B|32:160|32:160|72:88,1,160,12|0,0:0|0:0,0:0:0:0:
140,12,265786,1,0,0:0:0:0:
216,84,266021,1,0,0:0:0:0:
216,84,266138,1,0,0:0:0:0:
216,84,266255,2,0,P|280:84|324:48,2,120,2|2|2,0:0|0:0|0:0,0:0:0:0:
140,12,267193,1,4,0:0:0:0:
308,36,269068,5,2,0:0:0:0:
204,348,269536,1,2,0:0:0:0:
204,36,270005,1,2,0:0:0:0:
308,348,270474,1,2,0:0:0:0:
308,348,270943,6,0,P|324:304|316:264,1,80,4|0,0:0|0:0,0:0:0:0:
256,144,271411,1,8,0:0:0:0:
360,192,271646,1,0,0:0:0:0:
220,240,271880,2,0,B|176:240|176:240|140:276,1,80,2|0,0:0|0:0,0:0:0:0:
64,348,272349,1,8,0:0:0:0:
160,360,272583,1,0,0:0:0:0:
64,244,272818,6,0,P|44:200|52:156,1,80,2|0,0:0|0:0,0:0:0:0:
196,112,273286,1,8,0:0:0:0:
96,68,273521,1,0,0:0:0:0:
196,112,273755,2,0,P|197:151|178:186,2,80,2|0|8,0:0|0:0|0:0,0:0:0:0:
332,124,274458,5,0,0:0:0:0:
332,124,274575,1,0,0:0:0:0:
332,124,274693,2,0,P|412:112|472:176,1,160,4|8,0:0|0:0,0:0:0:0:
368,260,275396,1,0,0:0:0:0:
368,260,275630,2,0,L|388:180,1,80,2|0,0:0|0:0,0:0:0:0:
272,232,276099,2,0,L|252:309,1,80,8|0,0:0|0:0,0:0:0:0:
120,140,276568,6,0,B|80:140|80:140|44:104,1,80,2|0,0:0|0:0,0:0:0:0:
120,244,277036,2,0,B|80:244|80:244|44:280,1,80,8|0,0:0|0:0,0:0:0:0:
120,120,277505,2,0,B|80:120|80:120|44:84,1,80,2|0,0:0|0:0,0:0:0:0:
120,264,277974,2,0,B|80:264|80:264|44:300,1,80,8|0,0:0|0:0,0:0:0:0:
208,192,278443,5,2,0:0:0:0:
304,192,278677,1,0,0:0:0:0:
208,292,278911,1,8,0:0:0:0:
304,292,279146,1,0,0:0:0:0:
208,192,279380,2,0,P|200:148|208:112,1,80,2|0,0:0|0:0,0:0:0:0:
304,292,279849,2,0,P|311:331|303:370,1,80,8|0,0:0|0:0,0:0:0:0:
304,192,280318,5,2,0:0:0:0:
208,292,280552,1,0,0:0:0:0:
304,192,280786,2,0,B|344:192|344:192|380:216,1,80,8|0,0:0|0:0,0:0:0:0:
208,192,281255,2,0,B|168:192|168:192|132:216,1,80,2|0,0:0|0:0,0:0:0:0:
52,308,281724,1,8,0:0:0:0:
152,308,281958,1,0,0:0:0:0:
48,192,282193,6,0,P|36:148|44:112,1,80,2|0,0:0|0:0,0:0:0:0:
152,116,282661,1,8,0:0:0:0:
100,20,282896,1,0,0:0:0:0:
152,116,283130,2,0,P|191:122|228:110,1,80,2|0,0:0|0:0,0:0:0:0:
328,44,283599,1,8,0:0:0:0:
412,144,283833,5,2,0:0:0:0:
412,144,283950,1,0,0:0:0:0:
412,144,284068,2,0,L|426:222,1,80,2|0,0:0|0:0,0:0:0:0:
368,344,284536,1,8,0:0:0:0:
288,264,284771,5,8,0:0:0:0:
271,238,284888,1,0,0:0:0:0:
249,217,285005,1,8,0:0:0:0:
222,201,285122,1,0,0:0:0:0:
192,194,285239,1,8,0:0:0:0:
161,193,285356,1,0,0:0:0:0:
131,201,285474,1,8,0:0:0:0:
103,216,285591,1,0,0:0:0:0:
81,237,285708,1,8,0:0:0:0:
64,263,285825,1,0,0:0:0:0:
48,292,285943,6,0,P|32:328|48:364,1,80,4|0,0:0|0:0,0:0:0:0:
131,201,286411,2,0,P|147:165|131:129,1,80,8|0,0:0|0:0,0:0:0:0:
204,56,286880,1,2,0:0:0:0:
308,56,287114,1,0,0:0:0:0:
380,129,287349,2,0,P|365:165|381:201,1,80,8|0,0:0|0:0,0:0:0:0:
464,363,287818,2,0,P|479:327|464:292,1,80,2|0,0:0|0:0,0:0:0:0:
368,332,288286,1,8,0:0:0:0:
464,292,288521,2,0,L|500:204,1,80,0|2,0:0|0:0,0:0:0:0:
384,56,288989,2,0,L|348:144,1,80,0|8,0:0|0:0,0:0:0:0:
256,92,289458,1,0,0:0:0:0:
256,92,289575,1,0,0:0:0:0:
256,92,289693,6,0,P|208:92|180:116,1,80,2|0,0:0|0:0,0:0:0:0:
256,292,290161,2,0,P|304:292|332:268,1,80,8|0,0:0|0:0,0:0:0:0:
336,168,290630,2,0,L|412:132,1,80,2|0,0:0|0:0,0:0:0:0:
176,216,291099,2,0,L|100:252,1,80,8|0,0:0|0:0,0:0:0:0:
88,352,291568,1,2,0:0:0:0:
8,284,291802,1,0,0:0:0:0:
16,180,292036,2,0,P|56:180|92:156,1,80,8|0,0:0|0:0,0:0:0:0:
0,32,292505,2,0,L|32:112,1,80,2|0,0:0|0:0,0:0:0:0:
224,188,292974,2,0,L|192:108,1,80,8|0,0:0|0:0,0:0:0:0:
134,60,293325,1,0,0:0:0:0:
134,60,293443,6,0,P|168:39|208:40,1,80,2|0,0:0|0:0,0:0:0:0:
377,60,293911,2,0,P|343:39|304:40,1,80,8|0,0:0|0:0,0:0:0:0:
288,188,294380,2,0,L|320:108,1,80,2|0,0:0|0:0,0:0:0:0:
256,272,294849,1,8,0:0:0:0:
152,272,295083,1,0,0:0:0:0:
152,272,295200,1,0,0:0:0:0:
152,272,295318,6,0,B|135:236|135:236|152:200,1,80,2|0,0:0|0:0,0:0:0:0:
292,344,295786,2,0,B|256:361|256:361|220:344,1,80,8|0,0:0|0:0,0:0:0:0:
360,200,296255,2,0,B|377:236|377:236|360:272,1,80,2|0,0:0|0:0,0:0:0:0:
220,136,296724,2,0,B|256:119|256:119|292:136,1,80,8|0,0:0|0:0,0:0:0:0:
292,136,297075,1,0,0:0:0:0:
292,136,297193,6,0,L|332:64,1,80,2|0,0:0|0:0,0:0:0:0:
219,136,297661,2,0,L|180:64,1,80,8|0,0:0|0:0,0:0:0:0:
144,164,298130,1,2,0:0:0:0:
256,224,298364,1,0,0:0:0:0:
368,164,298599,1,8,0:0:0:0:
256,104,298833,1,0,0:0:0:0:
256,104,298950,1,8,0:0:0:0:
256,104,299068,2,0,L|256:20,1,80,2|0,0:0|0:0,0:0:0:0:
144,164,299536,1,8,0:0:0:0:
192,256,299771,5,0,0:0:0:0:
192,256,299888,1,8,0:0:0:0:
192,256,300005,2,0,L|144:332,1,80,2|0,0:0|0:0,0:0:0:0:
320,256,300474,2,0,L|344:220,1,40,8|8,0:0|0:0,0:0:0:0:
412,224,300708,2,0,L|436:188,1,40,8|8,0:0|0:0,0:0:0:0:
472,100,300971,6,0,L|396:56,1,80,2|0,0:0|0:0,0:0:0:0:
324,128,301439,1,0,0:0:0:0:
256,48,301674,1,0,0:0:0:0:
188,128,301908,2,0,B|188:172|188:172|168:208,1,80,2|0,0:0|0:0,0:0:0:0:
324,128,302377,2,0,B|324:172|324:172|344:208,1,80
256,264,302846,5,2,0:0:0:0:
164,308,303080,1,0,0:0:0:0:
256,360,303314,1,0,0:0:0:0:
348,308,303549,1,0,0:0:0:0:
364,204,303783,2,0,L|380:124,1,80,2|0,0:0|0:0,0:0:0:0:
148,204,304252,2,0,L|132:124,1,80
344,136,304721,6,0,L|360:56,1,80,2|0,0:0|0:0,0:0:0:0:
168,136,305189,2,0,L|152:56,1,80
256,76,305658,1,2,0:0:0:0:
256,180,305892,1,0,0:0:0:0:
188,260,306127,2,0,P|172:300|188:336,1,80
327,332,306596,6,0,P|339:295|324:260,1,80,2|0,0:0|0:0,0:0:0:0:
191,99,307064,2,0,P|169:67|166:28,1,80
344,27,307533,2,0,P|340:67|319:100,1,80,2|0,0:0|0:0,0:0:0:0:
256,37,308001,1,2,0:0:0:0:
