osu file format v14

[General]
AudioFilename: Hachigatsu no Yoru.mp3
AudioLeadIn: 0
PreviewTime: 62673
Countdown: 0
SampleSet: Normal
StackLeniency: 0.7
Mode: 1
LetterboxInBreaks: 0
WidescreenStoryboard: 1

[Editor]
Bookmarks: 22061
DistanceSpacing: 0.7
BeatDivisor: 4
GridSize: 4
TimelineZoom: 2.2

[Metadata]
Title:Hachigatsu no Yoru
TitleUnicode:八月の夜
Artist:Silent Siren
ArtistUnicode:Silent Siren
Creator:suni
Version:August
Source:
Tags:サイレント サイレン サイサイ jpop yoshida sumire umemura hinako yamauchi aina kurosaka yukako 吉田菫 梅村妃奈子 山内あいな 黒坂優香子
BeatmapID:890966
BeatmapSetID:410556

[Difficulty]
HPDrainRate:6
CircleSize:4
OverallDifficulty:5
ApproachRate:5
SliderMultiplier:1.4
SliderTickRate:1

[Events]
//Background and Video events
0,0,"BG.jpg",0,0
//Break Periods
2,83538,92350
2,169070,177882
2,192048,193201
2,197155,198308
//Storyboard Layer 0 (Background)
//Storyboard Layer 1 (Fail)
//Storyboard Layer 2 (Pass)
//Storyboard Layer 3 (Foreground)
//Storyboard Sound Samples

[TimingPoints]
1636,319.148936170213,4,1,0,100,1,0
62912,-100,4,1,0,100,0,1
83338,-100,4,1,0,100,0,0
134401,-100,4,1,0,100,0,1
168870,-100,4,1,0,100,0,0
189295,-111.111111111111,4,1,0,100,0,0
199508,-100,4,1,0,100,0,0
219933,-100,4,1,0,100,0,1
240359,-100,4,1,0,100,0,0

[Colours]
Combo1 : 0,0,160
Combo2 : 0,128,255
Combo3 : 247,247,0

[HitObjects]
256,192,1636,5,4,0:0:0:0:
256,192,1955,1,2,0:0:0:0:
256,192,2114,1,0,0:0:0:0:
256,192,2194,1,0,0:0:0:0:
256,192,2274,1,0,0:0:0:0:
256,192,2433,1,0,0:0:0:0:
256,192,2593,1,2,0:0:0:0:
256,192,2753,1,0,0:0:0:0:
256,192,2912,1,0,0:0:0:0:
256,192,3072,1,0,0:0:0:0:
256,192,3231,1,2,0:0:0:0:
256,192,3391,1,0,0:0:0:0:
256,192,3471,1,0,0:0:0:0:
256,192,3550,1,2,0:0:0:0:
256,192,3710,1,0,0:0:0:0:
256,192,3870,1,2,0:0:0:0:
256,192,4029,1,0,0:0:0:0:
256,192,4189,1,0,0:0:0:0:
256,192,4348,1,0,0:0:0:0:
256,192,4508,1,2,0:0:0:0:
256,192,4667,1,0,0:0:0:0:
256,192,4747,1,0,0:0:0:0:
256,192,4827,1,0,0:0:0:0:
256,192,4987,1,0,0:0:0:0:
256,192,5146,1,2,0:0:0:0:
256,192,5306,1,0,0:0:0:0:
256,192,5465,1,0,0:0:0:0:
256,192,5625,1,0,0:0:0:0:
256,192,5784,1,2,0:0:0:0:
256,192,5944,1,0,0:0:0:0:
256,192,6024,1,0,0:0:0:0:
256,192,6104,1,2,0:0:0:0:
256,192,6263,1,0,0:0:0:0:
256,192,6423,1,2,0:0:0:0:
256,192,6582,1,0,0:0:0:0:
256,192,6742,1,0,0:0:0:0:
256,192,6901,1,0,0:0:0:0:
256,192,7061,1,2,0:0:0:0:
256,192,7220,1,0,0:0:0:0:
256,192,7300,1,0,0:0:0:0:
256,192,7380,1,0,0:0:0:0:
256,192,7539,1,0,0:0:0:0:
256,192,7699,1,2,0:0:0:0:
256,192,7859,1,0,0:0:0:0:
256,192,8018,1,0,0:0:0:0:
256,192,8178,1,0,0:0:0:0:
256,192,8337,1,2,0:0:0:0:
256,192,8497,1,0,0:0:0:0:
256,192,8577,1,0,0:0:0:0:
256,192,8656,1,2,0:0:0:0:
256,192,8816,1,0,0:0:0:0:
256,192,8976,1,2,0:0:0:0:
256,192,9135,1,0,0:0:0:0:
256,192,9295,1,0,0:0:0:0:
256,192,9454,1,0,0:0:0:0:
256,192,9614,1,2,0:0:0:0:
256,192,9773,1,2,0:0:0:0:
256,192,9853,1,2,0:0:0:0:
256,192,9933,1,0,0:0:0:0:
256,192,10013,1,0,0:0:0:0:
256,192,10093,1,0,0:0:0:0:
256,192,10252,1,2,0:0:0:0:
256,192,10412,1,0,0:0:0:0:
256,192,10571,1,0,0:0:0:0:
256,192,10731,1,0,0:0:0:0:
256,192,10890,1,2,0:0:0:0:
256,192,11050,1,2,0:0:0:0:
256,192,11210,1,0,0:0:0:0:
256,192,11290,1,0,0:0:0:0:
256,192,11369,1,0,0:0:0:0:
256,192,11449,1,0,0:0:0:0:
256,192,11529,1,2,0:0:0:0:
256,192,11609,1,2,0:0:0:0:
256,192,11689,1,2,0:0:0:0:
256,192,11768,1,2,0:0:0:0:
256,192,11848,1,0,0:0:0:0:
256,192,12008,1,0,0:0:0:0:
256,192,12167,1,2,0:0:0:0:
256,192,12327,1,0,0:0:0:0:
256,192,12407,1,0,0:0:0:0:
256,192,12487,1,0,0:0:0:0:
256,192,12646,1,0,0:0:0:0:
256,192,12806,1,2,0:0:0:0:
256,192,12965,1,0,0:0:0:0:
256,192,13125,1,0,0:0:0:0:
256,192,13284,1,0,0:0:0:0:
256,192,13444,1,2,0:0:0:0:
256,192,13604,1,0,0:0:0:0:
256,192,13683,1,0,0:0:0:0:
256,192,13763,1,2,0:0:0:0:
256,192,13923,1,0,0:0:0:0:
256,192,14082,1,2,0:0:0:0:
256,192,14242,1,0,0:0:0:0:
256,192,14401,1,0,0:0:0:0:
256,192,14561,1,0,0:0:0:0:
256,192,14721,1,2,0:0:0:0:
256,192,14880,1,0,0:0:0:0:
256,192,14960,1,0,0:0:0:0:
256,192,15040,1,0,0:0:0:0:
256,192,15199,1,0,0:0:0:0:
256,192,15359,1,2,0:0:0:0:
256,192,15518,1,0,0:0:0:0:
256,192,15678,1,0,0:0:0:0:
256,192,15838,1,0,0:0:0:0:
256,192,15997,1,2,0:0:0:0:
256,192,16157,1,0,0:0:0:0:
256,192,16237,1,0,0:0:0:0:
256,192,16316,1,2,0:0:0:0:
256,192,16476,1,0,0:0:0:0:
256,192,16636,1,2,0:0:0:0:
256,192,16795,1,0,0:0:0:0:
256,192,16955,1,0,0:0:0:0:
256,192,17114,1,0,0:0:0:0:
256,192,17274,1,2,0:0:0:0:
256,192,17433,1,2,0:0:0:0:
256,192,17513,1,2,0:0:0:0:
256,192,17593,1,0,0:0:0:0:
256,192,17673,1,0,0:0:0:0:
256,192,17753,1,0,0:0:0:0:
256,192,17912,1,2,0:0:0:0:
256,192,18072,1,0,0:0:0:0:
256,192,18231,1,0,0:0:0:0:
256,192,18391,1,0,0:0:0:0:
256,192,18550,1,2,0:0:0:0:
256,192,18710,1,0,0:0:0:0:
256,192,18790,1,0,0:0:0:0:
256,192,18870,1,0,0:0:0:0:
256,192,18949,1,0,0:0:0:0:
256,192,19029,1,0,0:0:0:0:
256,192,19189,1,2,0:0:0:0:
256,192,19348,1,0,0:0:0:0:
256,192,19508,1,0,0:0:0:0:
256,192,19667,1,0,0:0:0:0:
256,192,19827,1,2,0:0:0:0:
256,192,19987,1,0,0:0:0:0:
256,192,20066,1,0,0:0:0:0:
256,192,20146,1,2,0:0:0:0:
256,192,20306,1,0,0:0:0:0:
256,192,20465,1,2,0:0:0:0:
256,192,20625,1,2,0:0:0:0:
256,192,20784,1,0,0:0:0:0:
256,192,20864,1,0,0:0:0:0:
256,192,20944,1,0,0:0:0:0:
256,192,21104,1,2,0:0:0:0:
256,192,21263,1,2,0:0:0:0:
256,192,21423,1,0,0:0:0:0:
256,192,21503,1,0,0:0:0:0:
256,192,21582,1,0,0:0:0:0:
256,192,21662,1,0,0:0:0:0:
256,192,21742,1,2,0:0:0:0:
256,192,22061,1,4,0:0:0:0:
256,192,22380,1,2,0:0:0:0:
256,192,22540,1,0,0:0:0:0:
256,192,22699,1,2,0:0:0:0:
256,192,23018,1,0,0:0:0:0:
256,192,23178,1,2,0:0:0:0:
256,192,23338,1,0,0:0:0:0:
256,192,23497,1,0,0:0:0:0:
256,192,23657,1,2,0:0:0:0:
256,192,23976,1,0,0:0:0:0:
256,192,24295,1,0,0:0:0:0:
256,192,24455,1,0,0:0:0:0:
256,192,24614,1,2,0:0:0:0:
256,192,24933,1,0,0:0:0:0:
256,192,25093,1,0,0:0:0:0:
256,192,25253,1,2,0:0:0:0:
256,192,25572,1,0,0:0:0:0:
256,192,25731,1,2,0:0:0:0:
256,192,25891,1,0,0:0:0:0:
256,192,26050,1,0,0:0:0:0:
256,192,26210,1,2,0:0:0:0:
256,192,26370,1,2,0:0:0:0:
256,192,26529,1,0,0:0:0:0:
256,192,26848,1,0,0:0:0:0:
256,192,27008,1,0,0:0:0:0:
256,192,27167,1,2,0:0:0:0:
256,192,27486,1,0,0:0:0:0:
256,192,27646,1,2,0:0:0:0:
256,192,27806,1,0,0:0:0:0:
256,192,27965,1,0,0:0:0:0:
256,192,28125,1,2,0:0:0:0:
256,192,28444,1,0,0:0:0:0:
256,192,28763,1,2,0:0:0:0:
256,192,29082,1,0,0:0:0:0:
256,192,29401,1,0,0:0:0:0:
256,192,29561,1,0,0:0:0:0:
256,192,29721,1,2,0:0:0:0:
256,192,30040,1,0,0:0:0:0:
256,192,30199,1,2,0:0:0:0:
256,192,30359,1,0,0:0:0:0:
256,192,30518,1,0,0:0:0:0:
256,192,30678,1,0,0:0:0:0:
256,192,30838,1,2,0:0:0:0:
256,192,30997,1,0,0:0:0:0:
256,192,31795,1,0,0:0:0:0:
256,192,31955,1,12,0:0:0:0:
256,192,32114,1,0,0:0:0:0:
256,192,32194,1,0,0:0:0:0:
256,192,32274,1,2,0:0:0:0:
256,192,32433,1,2,0:0:0:0:
256,192,32513,1,2,0:0:0:0:
256,192,32593,1,0,0:0:0:0:
256,192,32753,1,0,0:0:0:0:
256,192,32912,1,2,0:0:0:0:
256,192,32992,1,2,0:0:0:0:
256,192,33072,1,0,0:0:0:0:
256,192,33151,1,0,0:0:0:0:
256,192,33231,1,0,0:0:0:0:
256,192,33391,1,0,0:0:0:0:
256,192,33550,1,0,0:0:0:0:
256,192,33710,1,0,0:0:0:0:
256,192,33790,1,0,0:0:0:0:
256,192,33870,1,2,0:0:0:0:
256,192,34029,1,0,0:0:0:0:
256,192,34189,1,2,0:0:0:0:
256,192,34268,1,2,0:0:0:0:
256,192,34348,1,0,0:0:0:0:
256,192,34428,1,0,0:0:0:0:
256,192,34508,1,2,0:0:0:0:
256,192,34667,1,0,0:0:0:0:
256,192,34827,1,0,0:0:0:0:
256,192,34907,1,0,0:0:0:0:
256,192,34987,1,0,0:0:0:0:
256,192,35066,1,0,0:0:0:0:
256,192,35146,1,2,0:0:0:0:
256,192,35306,1,0,0:0:0:0:
256,192,35465,1,2,0:0:0:0:
256,192,35545,1,0,0:0:0:0:
256,192,35625,1,0,0:0:0:0:
256,192,35705,1,0,0:0:0:0:
256,192,35784,1,2,0:0:0:0:
256,192,35944,1,0,0:0:0:0:
256,192,36104,1,2,0:0:0:0:
256,192,36183,1,2,0:0:0:0:
256,192,36263,1,0,0:0:0:0:
256,192,36423,1,2,0:0:0:0:
256,192,36582,1,0,0:0:0:0:
256,192,36662,1,0,0:0:0:0:
256,192,36742,1,2,0:0:0:0:
256,192,36901,1,0,0:0:0:0:
256,192,37061,1,2,0:0:0:0:
256,192,37221,1,0,0:0:0:0:
256,192,37380,1,2,0:0:0:0:
256,192,37460,1,2,0:0:0:0:
256,192,37540,1,2,0:0:0:0:
256,192,37699,1,0,0:0:0:0:
256,192,37779,1,0,0:0:0:0:
256,192,37859,1,2,0:0:0:0:
256,192,37939,1,0,0:0:0:0:
256,192,38019,1,2,0:0:0:0:
256,192,38098,1,2,0:0:0:0:
256,192,38178,1,0,0:0:0:0:
256,192,38258,1,0,0:0:0:0:
256,192,38338,1,2,0:0:0:0:
256,192,38497,1,0,0:0:0:0:
256,192,38657,1,2,0:0:0:0:
256,192,38737,1,2,0:0:0:0:
256,192,38816,1,0,0:0:0:0:
256,192,38976,1,2,0:0:0:0:
256,192,39136,1,0,0:0:0:0:
256,192,39215,1,0,0:0:0:0:
256,192,39295,1,2,0:0:0:0:
256,192,39455,1,0,0:0:0:0:
256,192,39614,1,2,0:0:0:0:
256,192,39774,1,0,0:0:0:0:
256,192,39933,1,2,0:0:0:0:
256,192,40253,1,2,0:0:0:0:
256,192,40412,1,2,0:0:0:0:
256,192,40572,1,0,0:0:0:0:
256,192,40651,1,0,0:0:0:0:
256,192,40731,1,2,0:0:0:0:
256,192,40891,1,0,0:0:0:0:
256,192,41050,1,2,0:0:0:0:
256,192,41210,1,0,0:0:0:0:
256,192,41529,1,0,0:0:0:0:
256,192,41848,1,0,0:0:0:0:
256,192,42487,1,4,0:0:0:0:
256,192,42646,1,4,0:0:0:0:
256,192,42965,1,0,0:0:0:0:
256,192,43284,1,0,0:0:0:0:
256,192,43444,1,0,0:0:0:0:
256,192,43604,1,0,0:0:0:0:
256,192,43683,1,0,0:0:0:0:
256,192,43763,1,0,0:0:0:0:
256,192,43923,1,0,0:0:0:0:
256,192,44242,1,0,0:0:0:0:
256,192,44401,1,2,0:0:0:0:
256,192,44561,1,0,0:0:0:0:
256,192,44721,1,2,0:0:0:0:
256,192,44880,1,0,0:0:0:0:
256,192,45040,1,2,0:0:0:0:
256,192,45199,1,0,0:0:0:0:
256,192,45359,1,2,0:0:0:0:
256,192,45518,1,2,0:0:0:0:
256,192,45678,1,0,0:0:0:0:
256,192,45758,1,0,0:0:0:0:
256,192,45838,1,0,0:0:0:0:
256,192,45997,1,2,0:0:0:0:
256,192,46157,1,0,0:0:0:0:
256,192,46316,1,2,0:0:0:0:
256,192,46476,1,2,0:0:0:0:
256,192,46636,1,2,0:0:0:0:
256,192,47114,1,2,0:0:0:0:
256,192,47274,1,2,0:0:0:0:
256,192,47433,1,2,0:0:0:0:
256,192,47593,1,4,0:0:0:0:
256,192,47753,1,4,0:0:0:0:
256,192,48072,1,0,0:0:0:0:
256,192,48391,1,0,0:0:0:0:
256,192,48550,1,0,0:0:0:0:
256,192,48710,1,0,0:0:0:0:
256,192,48790,1,0,0:0:0:0:
256,192,48870,1,0,0:0:0:0:
256,192,49029,1,0,0:0:0:0:
256,192,49348,1,0,0:0:0:0:
256,192,49508,1,2,0:0:0:0:
256,192,49667,1,0,0:0:0:0:
256,192,49827,1,2,0:0:0:0:
256,192,49987,1,0,0:0:0:0:
256,192,50146,1,2,0:0:0:0:
256,192,50306,1,0,0:0:0:0:
256,192,50465,1,2,0:0:0:0:
256,192,50625,1,0,0:0:0:0:
256,192,50784,1,0,0:0:0:0:
256,192,50944,1,0,0:0:0:0:
256,192,51104,1,2,0:0:0:0:
256,192,51263,1,0,0:0:0:0:
256,192,51423,1,0,0:0:0:0:
256,192,51582,1,2,0:0:0:0:
256,192,51742,1,0,0:0:0:0:
256,192,52380,1,0,0:0:0:0:
256,192,52699,1,4,0:0:0:0:
256,192,52859,1,4,0:0:0:0:
256,192,53178,1,0,0:0:0:0:
256,192,53497,1,0,0:0:0:0:
256,192,53657,1,0,0:0:0:0:
256,192,53816,1,0,0:0:0:0:
256,192,53896,1,0,0:0:0:0:
256,192,53976,1,0,0:0:0:0:
256,192,54136,1,0,0:0:0:0:
256,192,54455,1,0,0:0:0:0:
256,192,54614,1,2,0:0:0:0:
256,192,54774,1,0,0:0:0:0:
256,192,54933,1,2,0:0:0:0:
256,192,55093,1,0,0:0:0:0:
256,192,55253,1,2,0:0:0:0:
256,192,55412,1,0,0:0:0:0:
256,192,55572,1,2,0:0:0:0:
256,192,55731,1,2,0:0:0:0:
256,192,55891,1,0,0:0:0:0:
256,192,55971,1,0,0:0:0:0:
256,192,56050,1,0,0:0:0:0:
256,192,56210,1,2,0:0:0:0:
256,192,56370,1,0,0:0:0:0:
256,192,56529,1,2,0:0:0:0:
256,192,56689,1,2,0:0:0:0:
256,192,56848,1,2,0:0:0:0:
256,192,57327,1,2,0:0:0:0:
256,192,57487,1,2,0:0:0:0:
256,192,57806,1,0,0:0:0:0:
256,192,57965,1,0,0:0:0:0:
256,192,58125,1,2,0:0:0:0:
256,192,58284,1,0,0:0:0:0:
256,192,58364,1,0,0:0:0:0:
256,192,58444,1,0,0:0:0:0:
256,192,58604,1,0,0:0:0:0:
256,192,58763,1,2,0:0:0:0:
256,192,58923,1,0,0:0:0:0:
256,192,59082,1,0,0:0:0:0:
256,192,59162,1,0,0:0:0:0:
256,192,59242,1,2,0:0:0:0:
256,192,59401,1,2,0:0:0:0:
256,192,59561,1,2,0:0:0:0:
256,192,59641,1,2,0:0:0:0:
256,192,59721,1,0,0:0:0:0:
256,192,59880,1,0,0:0:0:0:
256,192,60040,1,2,0:0:0:0:
256,192,60359,1,4,0:0:0:0:
256,192,62912,1,4,0:0:0:0:
256,192,63072,1,0,0:0:0:0:
256,192,63231,1,2,0:0:0:0:
256,192,63391,1,0,0:0:0:0:
256,192,63471,1,0,0:0:0:0:
256,192,63550,1,0,0:0:0:0:
256,192,63710,1,0,0:0:0:0:
256,192,63870,1,2,0:0:0:0:
256,192,64029,1,0,0:0:0:0:
256,192,64189,1,0,0:0:0:0:
256,192,64268,1,0,0:0:0:0:
256,192,64348,1,2,0:0:0:0:
256,192,64508,1,2,0:0:0:0:
256,192,64667,1,2,0:0:0:0:
256,192,64747,1,2,0:0:0:0:
256,192,64827,1,0,0:0:0:0:
256,192,64987,1,2,0:0:0:0:
256,192,65146,1,0,0:0:0:0:
256,192,65306,1,0,0:0:0:0:
256,192,65465,1,0,0:0:0:0:
256,192,65545,1,0,0:0:0:0:
256,192,65625,1,2,0:0:0:0:
256,192,65784,1,2,0:0:0:0:
256,192,65944,1,0,0:0:0:0:
256,192,66024,1,0,0:0:0:0:
256,192,66104,1,2,0:0:0:0:
256,192,66263,1,2,0:0:0:0:
256,192,66423,1,0,0:0:0:0:
256,192,66582,1,2,0:0:0:0:
256,192,66742,1,0,0:0:0:0:
256,192,66822,1,0,0:0:0:0:
256,192,66901,1,2,0:0:0:0:
256,192,67061,1,0,0:0:0:0:
256,192,67141,1,0,0:0:0:0:
256,192,67221,1,2,0:0:0:0:
256,192,67380,1,0,0:0:0:0:
256,192,67460,1,0,0:0:0:0:
256,192,67540,1,0,0:0:0:0:
256,192,67620,1,0,0:0:0:0:
256,192,67699,1,2,0:0:0:0:
256,192,68018,1,0,0:0:0:0:
256,192,68178,1,2,0:0:0:0:
256,192,68337,1,0,0:0:0:0:
256,192,68417,1,0,0:0:0:0:
256,192,68497,1,0,0:0:0:0:
256,192,68656,1,2,0:0:0:0:
256,192,68816,1,0,0:0:0:0:
256,192,68896,1,0,0:0:0:0:
256,192,68976,1,0,0:0:0:0:
256,192,69135,1,2,0:0:0:0:
256,192,69295,1,0,0:0:0:0:
256,192,69374,1,0,0:0:0:0:
256,192,69454,1,0,0:0:0:0:
256,192,69614,1,2,0:0:0:0:
256,192,69774,1,0,0:0:0:0:
256,192,69854,1,0,0:0:0:0:
256,192,69934,1,0,0:0:0:0:
256,192,70094,1,0,0:0:0:0:
256,192,70253,1,2,0:0:0:0:
256,192,70412,1,0,0:0:0:0:
256,192,70572,1,0,0:0:0:0:
256,192,70651,1,0,0:0:0:0:
256,192,70731,1,0,0:0:0:0:
256,192,70891,1,2,0:0:0:0:
256,192,71050,1,0,0:0:0:0:
256,192,71130,1,0,0:0:0:0:
256,192,71210,1,2,0:0:0:0:
256,192,71290,1,2,0:0:0:0:
256,192,71370,1,0,0:0:0:0:
256,192,71529,1,2,0:0:0:0:
256,192,71689,1,2,0:0:0:0:
256,192,71848,1,0,0:0:0:0:
256,192,72008,1,2,0:0:0:0:
256,192,72327,1,2,0:0:0:0:
256,192,72487,1,0,0:0:0:0:
256,192,72566,1,0,0:0:0:0:
256,192,72646,1,0,0:0:0:0:
256,192,72726,1,0,0:0:0:0:
256,192,72806,1,2,0:0:0:0:
256,192,72886,1,2,0:0:0:0:
256,192,72965,1,2,0:0:0:0:
256,192,73125,1,4,0:0:0:0:
256,192,73285,1,0,0:0:0:0:
256,192,73444,1,2,0:0:0:0:
256,192,73604,1,0,0:0:0:0:
256,192,73684,1,0,0:0:0:0:
256,192,73763,1,0,0:0:0:0:
256,192,73923,1,0,0:0:0:0:
256,192,74083,1,2,0:0:0:0:
256,192,74242,1,0,0:0:0:0:
256,192,74402,1,0,0:0:0:0:
256,192,74481,1,0,0:0:0:0:
256,192,74561,1,2,0:0:0:0:
256,192,74721,1,2,0:0:0:0:
256,192,74880,1,2,0:0:0:0:
256,192,74960,1,2,0:0:0:0:
256,192,75040,1,0,0:0:0:0:
256,192,75200,1,2,0:0:0:0:
256,192,75359,1,0,0:0:0:0:
256,192,75519,1,2,0:0:0:0:
256,192,75678,1,0,0:0:0:0:
256,192,75758,1,0,0:0:0:0:
256,192,75838,1,0,0:0:0:0:
256,192,75997,1,2,0:0:0:0:
256,192,76157,1,0,0:0:0:0:
256,192,76237,1,0,0:0:0:0:
256,192,76317,1,2,0:0:0:0:
256,192,76476,1,0,0:0:0:0:
256,192,76636,1,2,0:0:0:0:
256,192,76795,1,0,0:0:0:0:
256,192,76955,1,0,0:0:0:0:
256,192,77034,1,0,0:0:0:0:
256,192,77114,1,2,0:0:0:0:
256,192,77274,1,0,0:0:0:0:
256,192,77354,1,0,0:0:0:0:
256,192,77434,1,2,0:0:0:0:
256,192,77593,1,0,0:0:0:0:
256,192,77673,1,0,0:0:0:0:
256,192,77753,1,0,0:0:0:0:
256,192,77832,1,0,0:0:0:0:
256,192,77912,1,2,0:0:0:0:
256,192,78231,1,0,0:0:0:0:
256,192,78391,1,2,0:0:0:0:
256,192,78550,1,0,0:0:0:0:
256,192,78630,1,0,0:0:0:0:
256,192,78710,1,0,0:0:0:0:
256,192,78869,1,2,0:0:0:0:
256,192,79029,1,0,0:0:0:0:
256,192,79109,1,0,0:0:0:0:
256,192,79189,1,0,0:0:0:0:
256,192,79348,1,2,0:0:0:0:
256,192,79508,1,0,0:0:0:0:
256,192,79587,1,0,0:0:0:0:
256,192,79667,1,0,0:0:0:0:
256,192,79827,1,2,0:0:0:0:
256,192,79987,1,0,0:0:0:0:
256,192,80067,1,0,0:0:0:0:
256,192,80147,1,0,0:0:0:0:
256,192,80307,1,0,0:0:0:0:
256,192,80466,1,2,0:0:0:0:
256,192,80625,1,0,0:0:0:0:
256,192,80785,1,0,0:0:0:0:
256,192,80864,1,0,0:0:0:0:
256,192,80944,1,0,0:0:0:0:
256,192,81104,1,2,0:0:0:0:
256,192,81263,1,2,0:0:0:0:
256,192,81343,1,2,0:0:0:0:
256,192,81423,1,0,0:0:0:0:
256,192,81503,1,0,0:0:0:0:
256,192,81583,1,2,0:0:0:0:
256,192,81742,1,0,0:0:0:0:
256,192,81902,1,2,0:0:0:0:
256,192,82061,1,0,0:0:0:0:
256,192,82221,1,0,0:0:0:0:
256,192,82380,1,2,0:0:0:0:
256,192,82540,1,2,0:0:0:0:
256,192,82700,1,0,0:0:0:0:
256,192,82779,1,0,0:0:0:0:
256,192,82859,1,0,0:0:0:0:
256,192,82939,1,0,0:0:0:0:
256,192,83019,1,2,0:0:0:0:
256,192,83099,1,2,0:0:0:0:
256,192,83178,1,2,0:0:0:0:
256,192,83258,1,2,0:0:0:0:
256,192,83338,1,0,0:0:0:0:
256,192,93550,5,4,0:0:0:0:
256,192,93870,1,2,0:0:0:0:
256,192,94030,1,0,0:0:0:0:
256,192,94189,1,2,0:0:0:0:
256,192,94508,1,0,0:0:0:0:
256,192,94668,1,2,0:0:0:0:
256,192,94828,1,0,0:0:0:0:
256,192,94987,1,0,0:0:0:0:
256,192,95147,1,2,0:0:0:0:
256,192,95466,1,0,0:0:0:0:
256,192,95785,1,0,0:0:0:0:
256,192,95945,1,0,0:0:0:0:
256,192,96104,1,2,0:0:0:0:
256,192,96423,1,0,0:0:0:0:
256,192,96583,1,0,0:0:0:0:
256,192,96743,1,2,0:0:0:0:
256,192,97062,1,0,0:0:0:0:
256,192,97221,1,2,0:0:0:0:
256,192,97381,1,0,0:0:0:0:
256,192,97540,1,0,0:0:0:0:
256,192,97700,1,2,0:0:0:0:
256,192,97860,1,2,0:0:0:0:
256,192,98019,1,0,0:0:0:0:
256,192,98338,1,0,0:0:0:0:
256,192,98498,1,0,0:0:0:0:
256,192,98657,1,2,0:0:0:0:
256,192,98976,1,0,0:0:0:0:
256,192,99136,1,2,0:0:0:0:
256,192,99296,1,0,0:0:0:0:
256,192,99455,1,0,0:0:0:0:
256,192,99615,1,2,0:0:0:0:
256,192,99934,1,0,0:0:0:0:
256,192,100253,1,2,0:0:0:0:
256,192,100572,1,0,0:0:0:0:
256,192,100891,1,0,0:0:0:0:
256,192,101051,1,0,0:0:0:0:
256,192,101211,1,2,0:0:0:0:
256,192,101530,1,0,0:0:0:0:
256,192,101689,1,2,0:0:0:0:
256,192,101849,1,0,0:0:0:0:
256,192,102008,1,0,0:0:0:0:
256,192,102168,1,0,0:0:0:0:
256,192,102328,1,2,0:0:0:0:
256,192,102487,1,0,0:0:0:0:
256,192,103284,1,0,0:0:0:0:
256,192,103444,1,12,0:0:0:0:
256,192,103604,1,0,0:0:0:0:
256,192,103683,1,0,0:0:0:0:
256,192,103763,1,2,0:0:0:0:
256,192,103843,1,0,0:0:0:0:
256,192,103923,1,0,0:0:0:0:
256,192,104003,1,0,0:0:0:0:
256,192,104082,1,2,0:0:0:0:
256,192,104162,1,2,0:0:0:0:
256,192,104242,1,0,0:0:0:0:
256,192,104322,1,0,0:0:0:0:
256,192,104401,1,2,0:0:0:0:
256,192,104481,1,2,0:0:0:0:
256,192,104561,1,2,0:0:0:0:
256,192,104641,1,2,0:0:0:0:
256,192,104721,1,0,0:0:0:0:
256,192,104800,1,0,0:0:0:0:
256,192,104880,1,0,0:0:0:0:
256,192,104960,1,0,0:0:0:0:
256,192,105040,1,2,0:0:0:0:
256,192,105120,1,0,0:0:0:0:
256,192,105199,1,0,0:0:0:0:
256,192,105279,1,0,0:0:0:0:
256,192,105359,1,2,0:0:0:0:
256,192,105439,1,0,0:0:0:0:
256,192,105518,1,0,0:0:0:0:
256,192,105598,1,0,0:0:0:0:
256,192,105678,1,2,0:0:0:0:
256,192,105758,1,2,0:0:0:0:
256,192,105838,1,0,0:0:0:0:
256,192,105917,1,0,0:0:0:0:
256,192,105997,1,2,0:0:0:0:
256,192,106077,1,2,0:0:0:0:
256,192,106157,1,2,0:0:0:0:
256,192,106237,1,2,0:0:0:0:
256,192,106316,1,0,0:0:0:0:
256,192,106396,1,0,0:0:0:0:
256,192,106476,1,2,0:0:0:0:
256,192,106556,1,0,0:0:0:0:
256,192,106636,1,2,0:0:0:0:
256,192,106715,1,2,0:0:0:0:
256,192,106795,1,0,0:0:0:0:
256,192,106875,1,2,0:0:0:0:
256,192,106955,1,0,0:0:0:0:
256,192,107034,1,0,0:0:0:0:
256,192,107114,1,2,0:0:0:0:
256,192,107194,1,0,0:0:0:0:
256,192,107274,1,2,0:0:0:0:
256,192,107354,1,2,0:0:0:0:
256,192,107433,1,0,0:0:0:0:
256,192,107513,1,2,0:0:0:0:
256,192,107593,1,0,0:0:0:0:
256,192,107673,1,0,0:0:0:0:
256,192,107753,1,2,0:0:0:0:
256,192,107832,1,2,0:0:0:0:
256,192,107912,1,0,0:0:0:0:
256,192,107992,1,0,0:0:0:0:
256,192,108072,1,0,0:0:0:0:
256,192,108151,1,0,0:0:0:0:
256,192,108231,1,2,0:0:0:0:
256,192,108311,1,2,0:0:0:0:
256,192,108391,1,0,0:0:0:0:
256,192,108471,1,0,0:0:0:0:
256,192,108550,1,2,0:0:0:0:
256,192,108630,1,2,0:0:0:0:
256,192,108710,1,2,0:0:0:0:
256,192,108790,1,2,0:0:0:0:
256,192,108870,1,0,0:0:0:0:
256,192,108949,1,0,0:0:0:0:
256,192,109029,1,0,0:0:0:0:
256,192,109109,1,0,0:0:0:0:
256,192,109189,1,2,0:0:0:0:
256,192,109268,1,0,0:0:0:0:
256,192,109348,1,0,0:0:0:0:
256,192,109428,1,0,0:0:0:0:
256,192,109508,1,2,0:0:0:0:
256,192,109588,1,2,0:0:0:0:
256,192,109667,1,0,0:0:0:0:
256,192,109747,1,0,0:0:0:0:
256,192,109827,1,2,0:0:0:0:
256,192,109907,1,0,0:0:0:0:
256,192,109987,1,2,0:0:0:0:
256,192,110066,1,2,0:0:0:0:
256,192,110146,1,0,0:0:0:0:
256,192,110226,1,0,0:0:0:0:
256,192,110306,1,2,0:0:0:0:
256,192,110386,1,0,0:0:0:0:
256,192,110465,1,0,0:0:0:0:
256,192,110545,1,0,0:0:0:0:
256,192,110625,1,2,0:0:0:0:
256,192,110705,1,2,0:0:0:0:
256,192,110784,1,0,0:0:0:0:
256,192,110864,1,0,0:0:0:0:
256,192,110944,1,2,0:0:0:0:
256,192,111024,1,2,0:0:0:0:
256,192,111104,1,0,0:0:0:0:
256,192,111183,1,0,0:0:0:0:
256,192,111263,1,2,0:0:0:0:
256,192,111343,1,0,0:0:0:0:
256,192,111423,1,2,0:0:0:0:
256,192,111503,1,0,0:0:0:0:
256,192,111582,1,0,0:0:0:0:
256,192,111662,1,0,0:0:0:0:
256,192,111742,1,2,0:0:0:0:
256,192,111822,1,0,0:0:0:0:
256,192,111901,1,2,0:0:0:0:
256,192,111981,1,2,0:0:0:0:
256,192,112061,1,2,0:0:0:0:
256,192,112141,1,2,0:0:0:0:
256,192,112221,1,0,0:0:0:0:
256,192,112300,1,0,0:0:0:0:
256,192,112380,1,2,0:0:0:0:
256,192,112460,1,2,0:0:0:0:
256,192,112540,1,2,0:0:0:0:
256,192,112620,1,2,0:0:0:0:
256,192,112699,1,0,0:0:0:0:
256,192,112779,1,0,0:0:0:0:
256,192,112859,1,0,0:0:0:0:
256,192,112939,1,0,0:0:0:0:
256,192,113018,1,2,0:0:0:0:
256,192,113098,1,2,0:0:0:0:
256,192,113178,1,2,0:0:0:0:
256,192,113258,1,2,0:0:0:0:
256,192,113338,1,0,0:0:0:0:
256,192,113417,1,0,0:0:0:0:
256,192,113497,1,0,0:0:0:0:
256,192,113577,1,0,0:0:0:0:
256,192,113657,1,2,0:0:0:0:
256,192,113737,1,2,0:0:0:0:
256,192,113816,1,2,0:0:0:0:
256,192,113976,1,4,0:0:0:0:
256,192,114136,1,4,0:0:0:0:
256,192,114455,1,0,0:0:0:0:
256,192,114614,1,0,0:0:0:0:
256,192,114774,1,0,0:0:0:0:
256,192,114854,1,0,0:0:0:0:
256,192,114933,1,0,0:0:0:0:
256,192,115093,1,0,0:0:0:0:
256,192,115253,1,0,0:0:0:0:
256,192,115412,1,0,0:0:0:0:
256,192,115731,1,0,0:0:0:0:
256,192,115891,1,2,0:0:0:0:
256,192,116050,1,0,0:0:0:0:
256,192,116210,1,2,0:0:0:0:
256,192,116370,1,0,0:0:0:0:
256,192,116529,1,2,0:0:0:0:
256,192,116689,1,0,0:0:0:0:
256,192,116848,1,2,0:0:0:0:
256,192,117008,1,2,0:0:0:0:
256,192,117167,1,0,0:0:0:0:
256,192,117247,1,0,0:0:0:0:
256,192,117327,1,0,0:0:0:0:
256,192,117487,1,2,0:0:0:0:
256,192,117646,1,0,0:0:0:0:
256,192,117806,1,2,0:0:0:0:
256,192,117965,1,2,0:0:0:0:
256,192,118125,1,2,0:0:0:0:
256,192,118604,1,2,0:0:0:0:
256,192,118763,1,2,0:0:0:0:
256,192,118923,1,2,0:0:0:0:
256,192,119082,1,4,0:0:0:0:
256,192,119242,1,4,0:0:0:0:
256,192,119561,1,0,0:0:0:0:
256,192,119721,1,0,0:0:0:0:
256,192,119880,1,0,0:0:0:0:
256,192,119960,1,0,0:0:0:0:
256,192,120040,1,0,0:0:0:0:
256,192,120199,1,0,0:0:0:0:
256,192,120359,1,0,0:0:0:0:
256,192,120518,1,0,0:0:0:0:
256,192,120838,1,0,0:0:0:0:
256,192,120997,1,2,0:0:0:0:
256,192,121157,1,0,0:0:0:0:
256,192,121316,1,2,0:0:0:0:
256,192,121476,1,0,0:0:0:0:
256,192,121636,1,2,0:0:0:0:
256,192,121795,1,0,0:0:0:0:
256,192,121955,1,2,0:0:0:0:
256,192,122114,1,0,0:0:0:0:
256,192,122274,1,0,0:0:0:0:
256,192,122433,1,0,0:0:0:0:
256,192,122593,1,2,0:0:0:0:
256,192,122753,1,0,0:0:0:0:
256,192,122912,1,0,0:0:0:0:
256,192,123072,1,2,0:0:0:0:
256,192,123231,1,0,0:0:0:0:
256,192,123870,1,0,0:0:0:0:
256,192,124189,1,4,0:0:0:0:
256,192,124348,1,4,0:0:0:0:
256,192,124667,1,0,0:0:0:0:
256,192,124827,1,0,0:0:0:0:
256,192,124987,1,0,0:0:0:0:
256,192,125066,1,0,0:0:0:0:
256,192,125146,1,0,0:0:0:0:
256,192,125306,1,0,0:0:0:0:
256,192,125465,1,0,0:0:0:0:
256,192,125625,1,0,0:0:0:0:
256,192,125944,1,0,0:0:0:0:
256,192,126104,1,2,0:0:0:0:
256,192,126263,1,0,0:0:0:0:
256,192,126423,1,2,0:0:0:0:
256,192,126582,1,0,0:0:0:0:
256,192,126742,1,2,0:0:0:0:
256,192,126901,1,0,0:0:0:0:
256,192,127061,1,2,0:0:0:0:
256,192,127221,1,2,0:0:0:0:
256,192,127380,1,0,0:0:0:0:
256,192,127460,1,0,0:0:0:0:
256,192,127540,1,0,0:0:0:0:
256,192,127699,1,2,0:0:0:0:
256,192,127859,1,0,0:0:0:0:
256,192,128018,1,2,0:0:0:0:
256,192,128178,1,2,0:0:0:0:
256,192,128338,1,2,0:0:0:0:
256,192,128816,1,2,0:0:0:0:
256,192,128976,1,2,0:0:0:0:
256,192,129295,1,0,0:0:0:0:
256,192,129455,1,0,0:0:0:0:
256,192,129614,1,2,0:0:0:0:
256,192,129774,1,0,0:0:0:0:
256,192,129854,1,0,0:0:0:0:
256,192,129933,1,0,0:0:0:0:
256,192,130093,1,0,0:0:0:0:
256,192,130253,1,2,0:0:0:0:
256,192,130412,1,0,0:0:0:0:
256,192,130572,1,0,0:0:0:0:
256,192,130651,1,0,0:0:0:0:
256,192,130731,1,2,0:0:0:0:
256,192,130891,1,2,0:0:0:0:
256,192,131050,1,2,0:0:0:0:
256,192,131130,1,2,0:0:0:0:
256,192,131210,1,0,0:0:0:0:
256,192,131370,1,0,0:0:0:0:
256,192,131529,1,2,0:0:0:0:
256,192,131848,1,4,0:0:0:0:
256,192,133125,1,0,0:0:0:0:
256,192,133284,1,2,0:0:0:0:
256,192,133604,1,2,0:0:0:0:
256,192,133763,1,2,0:0:0:0:
256,192,133843,1,0,0:0:0:0:
256,192,133923,1,0,0:0:0:0:
256,192,134003,1,0,0:0:0:0:
256,192,134082,1,2,0:0:0:0:
256,192,134162,1,2,0:0:0:0:
256,192,134242,1,2,0:0:0:0:
256,192,134401,1,4,0:0:0:0:
256,192,134561,1,0,0:0:0:0:
256,192,134720,1,2,0:0:0:0:
256,192,134880,1,0,0:0:0:0:
256,192,134960,1,0,0:0:0:0:
256,192,135039,1,0,0:0:0:0:
256,192,135199,1,0,0:0:0:0:
256,192,135359,1,2,0:0:0:0:
256,192,135518,1,0,0:0:0:0:
256,192,135678,1,0,0:0:0:0:
256,192,135757,1,0,0:0:0:0:
256,192,135837,1,2,0:0:0:0:
256,192,135997,1,2,0:0:0:0:
256,192,136156,1,2,0:0:0:0:
256,192,136236,1,2,0:0:0:0:
256,192,136316,1,0,0:0:0:0:
256,192,136476,1,2,0:0:0:0:
256,192,136635,1,0,0:0:0:0:
256,192,136795,1,2,0:0:0:0:
256,192,136954,1,0,0:0:0:0:
256,192,137034,1,0,0:0:0:0:
256,192,137114,1,2,0:0:0:0:
256,192,137273,1,2,0:0:0:0:
256,192,137433,1,0,0:0:0:0:
256,192,137513,1,0,0:0:0:0:
256,192,137593,1,2,0:0:0:0:
256,192,137752,1,0,0:0:0:0:
256,192,137912,1,2,0:0:0:0:
256,192,138072,1,0,0:0:0:0:
256,192,138231,1,0,0:0:0:0:
256,192,138311,1,0,0:0:0:0:
256,192,138390,1,2,0:0:0:0:
256,192,138550,1,0,0:0:0:0:
256,192,138630,1,0,0:0:0:0:
256,192,138710,1,2,0:0:0:0:
256,192,138869,1,0,0:0:0:0:
256,192,138949,1,0,0:0:0:0:
256,192,139029,1,0,0:0:0:0:
256,192,139109,1,0,0:0:0:0:
256,192,139188,1,2,0:0:0:0:
256,192,139507,1,0,0:0:0:0:
256,192,139667,1,2,0:0:0:0:
256,192,139826,1,0,0:0:0:0:
256,192,139906,1,0,0:0:0:0:
256,192,139986,1,0,0:0:0:0:
256,192,140145,1,2,0:0:0:0:
256,192,140305,1,0,0:0:0:0:
256,192,140385,1,0,0:0:0:0:
256,192,140465,1,0,0:0:0:0:
256,192,140624,1,2,0:0:0:0:
256,192,140784,1,0,0:0:0:0:
256,192,140863,1,0,0:0:0:0:
256,192,140943,1,0,0:0:0:0:
256,192,141103,1,2,0:0:0:0:
256,192,141263,1,0,0:0:0:0:
256,192,141343,1,0,0:0:0:0:
256,192,141423,1,0,0:0:0:0:
256,192,141583,1,0,0:0:0:0:
256,192,141742,1,2,0:0:0:0:
256,192,141901,1,0,0:0:0:0:
256,192,142061,1,0,0:0:0:0:
256,192,142140,1,0,0:0:0:0:
256,192,142220,1,0,0:0:0:0:
256,192,142380,1,2,0:0:0:0:
256,192,142539,1,0,0:0:0:0:
256,192,142619,1,0,0:0:0:0:
256,192,142699,1,2,0:0:0:0:
256,192,142779,1,2,0:0:0:0:
256,192,142859,1,0,0:0:0:0:
256,192,143018,1,2,0:0:0:0:
256,192,143178,1,2,0:0:0:0:
256,192,143337,1,0,0:0:0:0:
256,192,143497,1,2,0:0:0:0:
256,192,143816,1,2,0:0:0:0:
256,192,143976,1,0,0:0:0:0:
256,192,144055,1,0,0:0:0:0:
256,192,144135,1,0,0:0:0:0:
256,192,144215,1,0,0:0:0:0:
256,192,144295,1,2,0:0:0:0:
256,192,144375,1,2,0:0:0:0:
256,192,144454,1,2,0:0:0:0:
256,192,144614,1,4,0:0:0:0:
256,192,144774,1,0,0:0:0:0:
256,192,144933,1,2,0:0:0:0:
256,192,145093,1,0,0:0:0:0:
256,192,145173,1,0,0:0:0:0:
256,192,145252,1,0,0:0:0:0:
256,192,145412,1,0,0:0:0:0:
256,192,145572,1,2,0:0:0:0:
256,192,145731,1,0,0:0:0:0:
256,192,145891,1,0,0:0:0:0:
256,192,145970,1,0,0:0:0:0:
256,192,146050,1,2,0:0:0:0:
256,192,146210,1,2,0:0:0:0:
256,192,146369,1,2,0:0:0:0:
256,192,146449,1,2,0:0:0:0:
256,192,146529,1,0,0:0:0:0:
256,192,146689,1,2,0:0:0:0:
256,192,146848,1,0,0:0:0:0:
256,192,147008,1,2,0:0:0:0:
256,192,147167,1,2,0:0:0:0:
256,192,147247,1,2,0:0:0:0:
256,192,147327,1,2,0:0:0:0:
256,192,147486,1,0,0:0:0:0:
256,192,147646,1,2,0:0:0:0:
256,192,147726,1,2,0:0:0:0:
256,192,147806,1,0,0:0:0:0:
256,192,147965,1,2,0:0:0:0:
256,192,148125,1,0,0:0:0:0:
256,192,148284,1,2,0:0:0:0:
256,192,148444,1,0,0:0:0:0:
256,192,148524,1,0,0:0:0:0:
256,192,148603,1,2,0:0:0:0:
256,192,148763,1,0,0:0:0:0:
256,192,148843,1,0,0:0:0:0:
256,192,148923,1,2,0:0:0:0:
256,192,149082,1,0,0:0:0:0:
256,192,149162,1,0,0:0:0:0:
256,192,149242,1,0,0:0:0:0:
256,192,149322,1,0,0:0:0:0:
256,192,149401,1,2,0:0:0:0:
256,192,149720,1,0,0:0:0:0:
256,192,149880,1,2,0:0:0:0:
256,192,150039,1,0,0:0:0:0:
256,192,150119,1,0,0:0:0:0:
256,192,150199,1,0,0:0:0:0:
256,192,150358,1,2,0:0:0:0:
256,192,150518,1,0,0:0:0:0:
256,192,150598,1,0,0:0:0:0:
256,192,150678,1,0,0:0:0:0:
256,192,150837,1,2,0:0:0:0:
256,192,150997,1,0,0:0:0:0:
256,192,151076,1,0,0:0:0:0:
256,192,151156,1,0,0:0:0:0:
256,192,151316,1,2,0:0:0:0:
256,192,151476,1,0,0:0:0:0:
256,192,151556,1,0,0:0:0:0:
256,192,151636,1,0,0:0:0:0:
256,192,151796,1,0,0:0:0:0:
256,192,151955,1,2,0:0:0:0:
256,192,152114,1,0,0:0:0:0:
256,192,152274,1,0,0:0:0:0:
256,192,152353,1,0,0:0:0:0:
256,192,152433,1,0,0:0:0:0:
256,192,152593,1,2,0:0:0:0:
256,192,152752,1,2,0:0:0:0:
256,192,152832,1,2,0:0:0:0:
256,192,152912,1,0,0:0:0:0:
256,192,152992,1,0,0:0:0:0:
256,192,153072,1,2,0:0:0:0:
256,192,153231,1,0,0:0:0:0:
256,192,153391,1,2,0:0:0:0:
256,192,153550,1,0,0:0:0:0:
256,192,153710,1,0,0:0:0:0:
256,192,153869,1,2,0:0:0:0:
256,192,154029,1,2,0:0:0:0:
256,192,154189,1,0,0:0:0:0:
256,192,154268,1,0,0:0:0:0:
256,192,154348,1,0,0:0:0:0:
256,192,154428,1,0,0:0:0:0:
256,192,154508,1,2,0:0:0:0:
256,192,154588,1,2,0:0:0:0:
256,192,154667,1,2,0:0:0:0:
256,192,154827,1,4,0:0:0:0:
256,192,154987,1,0,0:0:0:0:
256,192,155146,1,2,0:0:0:0:
256,192,155306,1,0,0:0:0:0:
256,192,155465,1,4,0:0:0:0:
256,192,155625,1,0,0:0:0:0:
256,192,155784,1,2,0:0:0:0:
256,192,155944,1,0,0:0:0:0:
256,192,156104,1,4,0:0:0:0:
256,192,156263,1,0,0:0:0:0:
256,192,156423,1,2,0:0:0:0:
256,192,156582,1,0,0:0:0:0:
256,192,156742,1,12,0:0:0:0:
256,192,156901,1,0,0:0:0:0:
256,192,157061,1,0,0:0:0:0:
256,192,157221,1,0,0:0:0:0:
256,192,157380,1,4,0:0:0:0:
256,192,157540,1,0,0:0:0:0:
256,192,157699,1,2,0:0:0:0:
256,192,157859,1,0,0:0:0:0:
256,192,158018,1,4,0:0:0:0:
256,192,158178,1,0,0:0:0:0:
256,192,158338,1,2,0:0:0:0:
256,192,158497,1,0,0:0:0:0:
256,192,158657,1,4,0:0:0:0:
256,192,158816,1,0,0:0:0:0:
256,192,158976,1,2,0:0:0:0:
256,192,159136,1,0,0:0:0:0:
256,192,159295,1,12,0:0:0:0:
256,192,159455,1,0,0:0:0:0:
256,192,159614,1,0,0:0:0:0:
256,192,159774,1,0,0:0:0:0:
256,192,159933,1,2,0:0:0:0:
256,192,160013,1,2,0:0:0:0:
256,192,160093,1,0,0:0:0:0:
256,192,160253,1,2,0:0:0:0:
256,192,160332,1,2,0:0:0:0:
256,192,160412,1,0,0:0:0:0:
256,192,160572,1,0,0:0:0:0:
256,192,160651,1,0,0:0:0:0:
256,192,160731,1,0,0:0:0:0:
256,192,160891,1,2,0:0:0:0:
256,192,161050,1,0,0:0:0:0:
256,192,161210,1,4,0:0:0:0:
256,192,161370,1,0,0:0:0:0:
256,192,161529,1,2,0:0:0:0:
256,192,161689,1,0,0:0:0:0:
256,192,161848,1,12,0:0:0:0:
256,192,162008,1,0,0:0:0:0:
256,192,162167,1,0,0:0:0:0:
256,192,162327,1,0,0:0:0:0:
256,192,162487,1,0,0:0:0:0:
256,192,162566,1,0,0:0:0:0:
256,192,162646,1,0,0:0:0:0:
256,192,162806,1,2,0:0:0:0:
256,192,162965,1,0,0:0:0:0:
256,192,163125,1,0,0:0:0:0:
256,192,163284,1,0,0:0:0:0:
256,192,163444,1,2,0:0:0:0:
256,192,163604,1,0,0:0:0:0:
256,192,163763,1,0,0:0:0:0:
256,192,163923,1,0,0:0:0:0:
256,192,164082,1,2,0:0:0:0:
256,192,164242,1,0,0:0:0:0:
256,192,164401,1,0,0:0:0:0:
256,192,164561,1,0,0:0:0:0:
256,192,164721,1,2,0:0:0:0:
256,192,164880,1,0,0:0:0:0:
256,192,165040,1,0,0:0:0:0:
256,192,165120,1,0,0:0:0:0:
256,192,165199,1,0,0:0:0:0:
256,192,165359,1,0,0:0:0:0:
256,192,165518,1,0,0:0:0:0:
256,192,165598,1,0,0:0:0:0:
256,192,165678,1,0,0:0:0:0:
256,192,165838,1,2,0:0:0:0:
256,192,165997,1,2,0:0:0:0:
256,192,166157,1,0,0:0:0:0:
256,192,166316,1,0,0:0:0:0:
256,192,166396,1,0,0:0:0:0:
256,192,166476,1,2,0:0:0:0:
256,192,166636,1,2,0:0:0:0:
256,192,166795,1,0,0:0:0:0:
256,192,166875,1,0,0:0:0:0:
256,192,166955,1,2,0:0:0:0:
256,192,167114,1,2,0:0:0:0:
256,192,167274,1,2,0:0:0:0:
256,192,167433,1,2,0:0:0:0:
256,192,167593,1,2,0:0:0:0:
256,192,167673,1,2,0:0:0:0:
256,192,167753,1,0,0:0:0:0:
256,192,167832,1,0,0:0:0:0:
256,192,167912,1,0,0:0:0:0:
256,192,168072,1,2,0:0:0:0:
256,192,168151,1,2,0:0:0:0:
256,192,168231,1,0,0:0:0:0:
256,192,168311,1,0,0:0:0:0:
256,192,168391,1,0,0:0:0:0:
256,192,168550,1,0,0:0:0:0:
256,192,168630,1,0,0:0:0:0:
256,192,168710,1,0,0:0:0:0:
256,192,168790,1,0,0:0:0:0:
256,192,168870,1,2,0:0:0:0:
256,192,179082,5,4,0:0:0:0:
256,192,179242,1,0,0:0:0:0:
256,192,179401,1,2,0:0:0:0:
256,192,179561,1,0,0:0:0:0:
256,192,179721,1,0,0:0:0:0:
256,192,179800,1,0,0:0:0:0:
256,192,179880,1,0,0:0:0:0:
256,192,180040,1,2,0:0:0:0:
256,192,180199,1,0,0:0:0:0:
256,192,180359,1,0,0:0:0:0:
256,192,180518,1,0,0:0:0:0:
256,192,180678,1,2,0:0:0:0:
256,192,180838,1,0,0:0:0:0:
256,192,180997,1,2,0:0:0:0:
256,192,181077,1,2,0:0:0:0:
256,192,181157,1,0,0:0:0:0:
256,192,181316,1,2,0:0:0:0:
256,192,181476,1,0,0:0:0:0:
256,192,181636,1,0,0:0:0:0:
256,192,181795,1,0,0:0:0:0:
256,192,181955,1,2,0:0:0:0:
256,192,182114,1,0,0:0:0:0:
256,192,182274,1,0,0:0:0:0:
256,192,182354,1,0,0:0:0:0:
256,192,182433,1,0,0:0:0:0:
256,192,182593,1,2,0:0:0:0:
256,192,182753,1,0,0:0:0:0:
256,192,182912,1,2,0:0:0:0:
256,192,182992,1,2,0:0:0:0:
256,192,183072,1,0,0:0:0:0:
256,192,183231,1,2,0:0:0:0:
256,192,183391,1,0,0:0:0:0:
256,192,183550,1,2,0:0:0:0:
256,192,183630,1,2,0:0:0:0:
256,192,183710,1,0,0:0:0:0:
256,192,183790,1,0,0:0:0:0:
256,192,183870,1,2,0:0:0:0:
256,192,184029,1,0,0:0:0:0:
256,192,184189,1,0,0:0:0:0:
256,192,184348,1,0,0:0:0:0:
256,192,184508,1,2,0:0:0:0:
256,192,184667,1,0,0:0:0:0:
256,192,184747,1,0,0:0:0:0:
256,192,184827,1,2,0:0:0:0:
256,192,184987,1,0,0:0:0:0:
256,192,185146,1,2,0:0:0:0:
256,192,185306,1,0,0:0:0:0:
256,192,185465,1,2,0:0:0:0:
256,192,185545,1,2,0:0:0:0:
256,192,185625,1,0,0:0:0:0:
256,192,185784,1,2,0:0:0:0:
256,192,185944,1,0,0:0:0:0:
256,192,186024,1,0,0:0:0:0:
256,192,186104,1,2,0:0:0:0:
256,192,186263,1,0,0:0:0:0:
256,192,186423,1,0,0:0:0:0:
256,192,186582,1,0,0:0:0:0:
256,192,186742,1,4,0:0:0:0:
256,192,187061,1,0,0:0:0:0:
256,192,187221,1,0,0:0:0:0:
256,192,187380,1,2,0:0:0:0:
256,192,187699,1,0,0:0:0:0:
256,192,187779,1,0,0:0:0:0:
256,192,187859,1,2,0:0:0:0:
256,192,188178,1,0,0:0:0:0:
256,192,188497,1,0,0:0:0:0:
256,192,188657,1,2,0:0:0:0:
256,192,188816,1,2,0:0:0:0:
256,192,188976,1,2,0:0:0:0:
256,192,189136,1,2,0:0:0:0:
256,192,189295,1,4,0:0:0:0:
256,192,190572,1,4,0:0:0:0:
256,192,191848,1,4,0:0:0:0:
256,192,194401,5,4,0:0:0:0:
256,192,195678,1,4,0:0:0:0:
256,192,196955,1,4,0:0:0:0:
256,192,199508,5,0,0:0:0:0:
256,192,199827,1,2,0:0:0:0:
256,192,199987,1,0,0:0:0:0:
256,192,200306,1,2,0:0:0:0:
256,192,200784,1,0,0:0:0:0:
256,192,201104,1,0,0:0:0:0:
256,192,201263,1,0,0:0:0:0:
256,192,201423,1,2,0:0:0:0:
256,192,201582,1,0,0:0:0:0:
256,192,201742,1,2,0:0:0:0:
256,192,201902,1,0,0:0:0:0:
256,192,202061,1,2,0:0:0:0:
256,192,202221,1,0,0:0:0:0:
256,192,202380,1,2,0:0:0:0:
256,192,202540,1,2,0:0:0:0:
256,192,202699,1,0,0:0:0:0:
256,192,202859,1,0,0:0:0:0:
256,192,203019,1,2,0:0:0:0:
256,192,203178,1,0,0:0:0:0:
256,192,203338,1,0,0:0:0:0:
256,192,203497,1,2,0:0:0:0:
256,192,203657,1,0,0:0:0:0:
256,192,204295,1,2,0:0:0:0:
256,192,204614,1,0,0:0:0:0:
256,192,204933,1,2,0:0:0:0:
256,192,205093,1,0,0:0:0:0:
256,192,205412,1,2,0:0:0:0:
256,192,205890,1,0,0:0:0:0:
256,192,206210,1,0,0:0:0:0:
256,192,206369,1,0,0:0:0:0:
256,192,206529,1,2,0:0:0:0:
256,192,206688,1,0,0:0:0:0:
256,192,206848,1,2,0:0:0:0:
256,192,207008,1,0,0:0:0:0:
256,192,207167,1,2,0:0:0:0:
256,192,207327,1,0,0:0:0:0:
256,192,207486,1,2,0:0:0:0:
256,192,207646,1,2,0:0:0:0:
256,192,207805,1,0,0:0:0:0:
256,192,207965,1,0,0:0:0:0:
256,192,208125,1,2,0:0:0:0:
256,192,208284,1,0,0:0:0:0:
256,192,208444,1,0,0:0:0:0:
256,192,208603,1,2,0:0:0:0:
256,192,208763,1,0,0:0:0:0:
256,192,209401,1,0,0:0:0:0:
256,192,209721,1,0,0:0:0:0:
256,192,209800,1,0,0:0:0:0:
256,192,209880,1,0,0:0:0:0:
256,192,210040,1,0,0:0:0:0:
256,192,210199,1,0,0:0:0:0:
256,192,210518,1,0,0:0:0:0:
256,192,210598,1,0,0:0:0:0:
256,192,210678,1,0,0:0:0:0:
256,192,210838,1,0,0:0:0:0:
256,192,210997,1,0,0:0:0:0:
256,192,211077,1,0,0:0:0:0:
256,192,211157,1,0,0:0:0:0:
256,192,211316,1,0,0:0:0:0:
256,192,211476,1,0,0:0:0:0:
256,192,211636,1,2,0:0:0:0:
256,192,211795,1,0,0:0:0:0:
256,192,211955,1,2,0:0:0:0:
256,192,212114,1,0,0:0:0:0:
256,192,212274,1,2,0:0:0:0:
256,192,212433,1,0,0:0:0:0:
256,192,212593,1,2,0:0:0:0:
256,192,212753,1,2,0:0:0:0:
256,192,212912,1,0,0:0:0:0:
256,192,212992,1,0,0:0:0:0:
256,192,213072,1,0,0:0:0:0:
256,192,213231,1,2,0:0:0:0:
256,192,213391,1,0,0:0:0:0:
256,192,213550,1,2,0:0:0:0:
256,192,213710,1,2,0:0:0:0:
256,192,213870,1,2,0:0:0:0:
256,192,214348,1,0,0:0:0:0:
256,192,214508,1,2,0:0:0:0:
256,192,214827,1,0,0:0:0:0:
256,192,214987,1,0,0:0:0:0:
256,192,215146,1,2,0:0:0:0:
256,192,215306,1,0,0:0:0:0:
256,192,215386,1,0,0:0:0:0:
256,192,215465,1,0,0:0:0:0:
256,192,215625,1,0,0:0:0:0:
256,192,215784,1,2,0:0:0:0:
256,192,215944,1,0,0:0:0:0:
256,192,216104,1,2,0:0:0:0:
256,192,216183,1,2,0:0:0:0:
256,192,216263,1,0,0:0:0:0:
256,192,216423,1,2,0:0:0:0:
256,192,216582,1,0,0:0:0:0:
256,192,216662,1,0,0:0:0:0:
256,192,216742,1,2,0:0:0:0:
256,192,216901,1,0,0:0:0:0:
256,192,217061,1,2,0:0:0:0:
256,192,217380,1,4,0:0:0:0:
256,192,219295,1,2,0:0:0:0:
256,192,219375,1,2,0:0:0:0:
256,192,219455,1,2,0:0:0:0:
256,192,219534,1,2,0:0:0:0:
256,192,219614,1,2,0:0:0:0:
256,192,219694,1,2,0:0:0:0:
256,192,219774,1,2,0:0:0:0:
256,192,219933,1,4,0:0:0:0:
256,192,220252,1,12,0:0:0:0:
256,192,220412,1,0,0:0:0:0:
256,192,220492,1,0,0:0:0:0:
256,192,220571,1,0,0:0:0:0:
256,192,220731,1,0,0:0:0:0:
256,192,220891,1,2,0:0:0:0:
256,192,221050,1,0,0:0:0:0:
256,192,221210,1,0,0:0:0:0:
256,192,221289,1,0,0:0:0:0:
256,192,221369,1,2,0:0:0:0:
256,192,221529,1,2,0:0:0:0:
256,192,221688,1,2,0:0:0:0:
256,192,221768,1,2,0:0:0:0:
256,192,221848,1,0,0:0:0:0:
256,192,222008,1,2,0:0:0:0:
256,192,222167,1,0,0:0:0:0:
256,192,222327,1,2,0:0:0:0:
256,192,222486,1,0,0:0:0:0:
256,192,222566,1,0,0:0:0:0:
256,192,222646,1,2,0:0:0:0:
256,192,222805,1,2,0:0:0:0:
256,192,222965,1,0,0:0:0:0:
256,192,223045,1,0,0:0:0:0:
256,192,223125,1,2,0:0:0:0:
256,192,223284,1,2,0:0:0:0:
256,192,223444,1,0,0:0:0:0:
256,192,223603,1,2,0:0:0:0:
256,192,223763,1,0,0:0:0:0:
256,192,223843,1,0,0:0:0:0:
256,192,223922,1,2,0:0:0:0:
256,192,224082,1,0,0:0:0:0:
256,192,224162,1,0,0:0:0:0:
256,192,224242,1,2,0:0:0:0:
256,192,224401,1,0,0:0:0:0:
256,192,224481,1,0,0:0:0:0:
256,192,224561,1,0,0:0:0:0:
256,192,224641,1,0,0:0:0:0:
256,192,224720,1,2,0:0:0:0:
256,192,225039,1,0,0:0:0:0:
256,192,225199,1,2,0:0:0:0:
256,192,225358,1,0,0:0:0:0:
256,192,225438,1,0,0:0:0:0:
256,192,225518,1,2,0:0:0:0:
256,192,225677,1,2,0:0:0:0:
256,192,225837,1,0,0:0:0:0:
256,192,225917,1,0,0:0:0:0:
256,192,225997,1,2,0:0:0:0:
256,192,226156,1,2,0:0:0:0:
256,192,226316,1,0,0:0:0:0:
256,192,226395,1,0,0:0:0:0:
256,192,226475,1,2,0:0:0:0:
256,192,226635,1,2,0:0:0:0:
256,192,226795,1,0,0:0:0:0:
256,192,226875,1,0,0:0:0:0:
256,192,226955,1,2,0:0:0:0:
256,192,227115,1,2,0:0:0:0:
256,192,227274,1,0,0:0:0:0:
256,192,227433,1,2,0:0:0:0:
256,192,227593,1,0,0:0:0:0:
256,192,227672,1,0,0:0:0:0:
256,192,227752,1,0,0:0:0:0:
256,192,227912,1,2,0:0:0:0:
256,192,228071,1,0,0:0:0:0:
256,192,228151,1,0,0:0:0:0:
256,192,228231,1,2,0:0:0:0:
256,192,228311,1,2,0:0:0:0:
256,192,228391,1,0,0:0:0:0:
256,192,228550,1,2,0:0:0:0:
256,192,228710,1,2,0:0:0:0:
256,192,228869,1,0,0:0:0:0:
256,192,229029,1,2,0:0:0:0:
256,192,229348,1,2,0:0:0:0:
256,192,229508,1,2,0:0:0:0:
256,192,229587,1,2,0:0:0:0:
256,192,229667,1,0,0:0:0:0:
256,192,229747,1,0,0:0:0:0:
256,192,229827,1,2,0:0:0:0:
256,192,229907,1,2,0:0:0:0:
256,192,229986,1,2,0:0:0:0:
256,192,230146,1,4,0:0:0:0:
256,192,230306,1,0,0:0:0:0:
256,192,230465,1,2,0:0:0:0:
256,192,230625,1,0,0:0:0:0:
256,192,230705,1,0,0:0:0:0:
256,192,230784,1,0,0:0:0:0:
256,192,230944,1,0,0:0:0:0:
256,192,231104,1,2,0:0:0:0:
256,192,231263,1,0,0:0:0:0:
256,192,231423,1,2,0:0:0:0:
256,192,231502,1,2,0:0:0:0:
256,192,231582,1,0,0:0:0:0:
256,192,231742,1,2,0:0:0:0:
256,192,231901,1,2,0:0:0:0:
256,192,231981,1,2,0:0:0:0:
256,192,232061,1,2,0:0:0:0:
256,192,232221,1,0,0:0:0:0:
256,192,232380,1,2,0:0:0:0:
256,192,232540,1,0,0:0:0:0:
256,192,232699,1,2,0:0:0:0:
256,192,232779,1,2,0:0:0:0:
256,192,232859,1,2,0:0:0:0:
256,192,233018,1,0,0:0:0:0:
256,192,233178,1,2,0:0:0:0:
256,192,233258,1,2,0:0:0:0:
256,192,233338,1,0,0:0:0:0:
256,192,233497,1,0,0:0:0:0:
256,192,233657,1,2,0:0:0:0:
256,192,233816,1,0,0:0:0:0:
256,192,233976,1,0,0:0:0:0:
256,192,234056,1,0,0:0:0:0:
256,192,234136,1,2,0:0:0:0:
256,192,234295,1,0,0:0:0:0:
256,192,234375,1,0,0:0:0:0:
256,192,234455,1,2,0:0:0:0:
256,192,234614,1,0,0:0:0:0:
256,192,234694,1,0,0:0:0:0:
256,192,234774,1,0,0:0:0:0:
256,192,234854,1,0,0:0:0:0:
256,192,234933,1,2,0:0:0:0:
256,192,235252,1,0,0:0:0:0:
256,192,235412,1,2,0:0:0:0:
256,192,235571,1,0,0:0:0:0:
256,192,235651,1,0,0:0:0:0:
256,192,235731,1,2,0:0:0:0:
256,192,235890,1,2,0:0:0:0:
256,192,236050,1,0,0:0:0:0:
256,192,236130,1,0,0:0:0:0:
256,192,236210,1,0,0:0:0:0:
256,192,236369,1,2,0:0:0:0:
256,192,236529,1,0,0:0:0:0:
256,192,236608,1,0,0:0:0:0:
256,192,236688,1,2,0:0:0:0:
256,192,236848,1,2,0:0:0:0:
256,192,237008,1,0,0:0:0:0:
256,192,237088,1,0,0:0:0:0:
256,192,237168,1,0,0:0:0:0:
256,192,237328,1,0,0:0:0:0:
256,192,237487,1,2,0:0:0:0:
256,192,237646,1,0,0:0:0:0:
256,192,237806,1,0,0:0:0:0:
256,192,237885,1,0,0:0:0:0:
256,192,237965,1,0,0:0:0:0:
256,192,238125,1,2,0:0:0:0:
256,192,238284,1,2,0:0:0:0:
256,192,238364,1,2,0:0:0:0:
256,192,238444,1,0,0:0:0:0:
256,192,238524,1,0,0:0:0:0:
256,192,238604,1,2,0:0:0:0:
256,192,238763,1,0,0:0:0:0:
256,192,238923,1,2,0:0:0:0:
256,192,239082,1,0,0:0:0:0:
256,192,239242,1,0,0:0:0:0:
256,192,239401,1,2,0:0:0:0:
256,192,239561,1,2,0:0:0:0:
256,192,239721,1,0,0:0:0:0:
256,192,239800,1,0,0:0:0:0:
256,192,239880,1,0,0:0:0:0:
256,192,239960,1,0,0:0:0:0:
256,192,240040,1,2,0:0:0:0:
256,192,240120,1,2,0:0:0:0:
256,192,240199,1,2,0:0:0:0:
256,192,240359,1,4,0:0:0:0:
256,192,240678,1,2,0:0:0:0:
256,192,240838,1,0,0:0:0:0:
256,192,240997,1,0,0:0:0:0:
256,192,241157,1,0,0:0:0:0:
256,192,241316,1,2,0:0:0:0:
256,192,241476,1,0,0:0:0:0:
256,192,241636,1,0,0:0:0:0:
256,192,241715,1,0,0:0:0:0:
256,192,241795,1,0,0:0:0:0:
256,192,241955,1,2,0:0:0:0:
256,192,242114,1,0,0:0:0:0:
256,192,242274,1,2,0:0:0:0:
256,192,242433,1,0,0:0:0:0:
256,192,242593,1,2,0:0:0:0:
256,192,242753,1,0,0:0:0:0:
256,192,242912,1,2,0:0:0:0:
256,192,243072,1,0,0:0:0:0:
256,192,243231,1,2,0:0:0:0:
256,192,243391,1,0,0:0:0:0:
256,192,243550,1,2,0:0:0:0:
256,192,243710,1,2,0:0:0:0:
256,192,243870,1,2,0:0:0:0:
256,192,244029,1,0,0:0:0:0:
256,192,244189,1,2,0:0:0:0:
256,192,244348,1,2,0:0:0:0:
256,192,244508,1,2,0:0:0:0:
256,192,245146,1,2,0:0:0:0:
256,192,245465,1,0,0:0:0:0:
256,192,245625,1,0,0:0:0:0:
256,192,245784,1,2,0:0:0:0:
256,192,245944,1,0,0:0:0:0:
256,192,246024,1,0,0:0:0:0:
256,192,246104,1,0,0:0:0:0:
256,192,246263,1,0,0:0:0:0:
256,192,246423,1,2,0:0:0:0:
256,192,246582,1,0,0:0:0:0:
256,192,246742,1,0,0:0:0:0:
256,192,246901,1,0,0:0:0:0:
256,192,247061,1,2,0:0:0:0:
256,192,247221,1,0,0:0:0:0:
256,192,247380,1,2,0:0:0:0:
256,192,247540,1,0,0:0:0:0:
256,192,247699,1,2,0:0:0:0:
256,192,247859,1,0,0:0:0:0:
256,192,248018,1,2,0:0:0:0:
256,192,248178,1,0,0:0:0:0:
256,192,248338,1,2,0:0:0:0:
256,192,248497,1,0,0:0:0:0:
256,192,248657,1,0,0:0:0:0:
256,192,248816,1,0,0:0:0:0:
256,192,248976,1,2,0:0:0:0:
256,192,249136,1,0,0:0:0:0:
256,192,249295,1,0,0:0:0:0:
256,192,249455,1,2,0:0:0:0:
256,192,249614,1,0,0:0:0:0:
256,192,250253,1,2,0:0:0:0:
256,192,250572,1,4,0:0:0:0:
256,192,250731,1,0,0:0:0:0:
256,192,250891,1,2,0:0:0:0:
256,192,251050,1,0,0:0:0:0:
256,192,251210,1,0,0:0:0:0:
256,192,251370,1,0,0:0:0:0:
256,192,251529,1,2,0:0:0:0:
256,192,251689,1,0,0:0:0:0:
256,192,251848,1,0,0:0:0:0:
256,192,252008,1,0,0:0:0:0:
256,192,252167,1,2,0:0:0:0:
256,192,252327,1,0,0:0:0:0:
256,192,252487,1,2,0:0:0:0:
256,192,252646,1,0,0:0:0:0:
256,192,252806,1,2,0:0:0:0:
256,192,252965,1,0,0:0:0:0:
256,192,253125,1,2,0:0:0:0:
256,192,253284,1,0,0:0:0:0:
256,192,253444,1,2,0:0:0:0:
256,192,253604,1,0,0:0:0:0:
256,192,253763,1,0,0:0:0:0:
256,192,253843,1,0,0:0:0:0:
256,192,253923,1,0,0:0:0:0:
256,192,254082,1,2,0:0:0:0:
256,192,254242,1,0,0:0:0:0:
256,192,254401,1,2,0:0:0:0:
256,192,254561,1,2,0:0:0:0:
256,192,254721,1,2,0:0:0:0:
256,192,255199,1,0,0:0:0:0:
256,192,255359,1,2,0:0:0:0:
256,192,255678,1,0,0:0:0:0:
256,192,255838,1,0,0:0:0:0:
256,192,255997,1,2,0:0:0:0:
256,192,256157,1,0,0:0:0:0:
256,192,256237,1,0,0:0:0:0:
256,192,256316,1,0,0:0:0:0:
256,192,256476,1,0,0:0:0:0:
256,192,256636,1,2,0:0:0:0:
256,192,256795,1,0,0:0:0:0:
256,192,256955,1,0,0:0:0:0:
256,192,257034,1,0,0:0:0:0:
256,192,257114,1,0,0:0:0:0:
256,192,257274,1,2,0:0:0:0:
256,192,257433,1,0,0:0:0:0:
256,192,257513,1,0,0:0:0:0:
256,192,257593,1,2,0:0:0:0:
256,192,257753,1,0,0:0:0:0:
256,192,257912,1,2,0:0:0:0:
256,192,258231,1,4,0:0:0:0:
256,192,259508,1,2,0:0:0:0:
256,192,259667,1,2,0:0:0:0:
256,192,259827,1,2,0:0:0:0:
256,192,259987,1,2,0:0:0:0:
