osu file format v14

[General]
AudioFilename: Silent Siren 8.mp3
AudioLeadIn: 0
PreviewTime: 62648
Countdown: 0
SampleSet: Soft
StackLeniency: 0.7
Mode: 0
LetterboxInBreaks: 1
WidescreenStoryboard: 1

[Editor]
Bookmarks: 67869,189270,209696,219749,240334,255334,260121
DistanceSpacing: 1
BeatDivisor: 4
GridSize: 4
TimelineZoom: 2

[Metadata]
Title:Hachigatsu no Yoru
TitleUnicode:八月の夜
Artist:Silent Siren
ArtistUnicode:Silent Siren
Creator:eLy
Version:Pursuit (AR10)
Source:八月の夜
Tags:suu vantan design Laboratory summer seminar augst night cm song
BeatmapID:900562
BeatmapSetID:379093

[Difficulty]
HPDrainRate:5
CircleSize:4
OverallDifficulty:8
ApproachRate:10
SliderMultiplier:1.8
SliderTickRate:2

[Events]
//Background and Video events
0,0,"8.png",0,0
//Break Periods
2,83513,92756
//Storyboard Layer 0 (Background)
//Storyboard Layer 1 (Fail)
//Storyboard Layer 2 (Pass)
//Storyboard Layer 3 (Foreground)
//Storyboard Sound Samples

[TimingPoints]
-304,319.148936170213,4,2,1,60,1,0
1291,-200,4,2,1,60,0,0
1610,-100,4,2,1,60,0,0
22355,-111.111111111111,4,2,1,60,0,0
25387,-111.111111111111,4,2,3,60,0,0
25467,-111.111111111111,4,2,1,60,0,0
28578,-111.111111111111,4,2,3,60,0,0
28658,-111.111111111111,4,2,1,60,0,0
29855,-111.111111111111,4,2,3,60,0,0
29935,-111.111111111111,4,2,1,60,0,0
31291,-142.857142857143,4,2,1,60,0,0
31930,-125,4,2,1,60,0,0
32249,-100,4,2,1,60,0,0
42940,-125,4,2,1,60,0,0
60493,-125,4,2,2,60,0,0
62887,-90.9090909090909,4,2,1,80,0,1
83472,-90.9090909090909,4,2,1,80,0,0
93525,-111.111111111111,4,2,1,60,0,0
96238,-111.111111111111,4,2,3,60,0,0
96318,-111.111111111111,4,2,1,60,0,0
101344,-111.111111111111,4,2,3,60,0,0
101424,-111.111111111111,4,2,1,60,0,0
102781,-142.857142857143,4,2,2,60,0,0
103419,-125,4,2,1,60,0,0
103738,-100,4,2,1,60,0,0
114430,-125,4,2,1,60,0,0
132142,-125,4,2,2,60,0,0
133100,-125,4,2,1,60,0,0
134057,-111.111111111111,4,2,1,60,0,0
134376,-90.9090909090909,4,2,1,80,0,1
154722,-90.9090909090909,4,2,1,80,0,0
154802,-90.9090909090909,4,2,1,80,0,1
168844,-100,4,2,1,60,0,0
186717,-111.111111111111,4,2,1,60,0,0
189270,-142.857142857143,4,2,1,60,0,0
199483,-125,4,2,1,60,0,0
209696,-111.111111111111,4,2,1,60,0,0
217674,-111.111111111111,4,2,2,60,0,0
219270,-111.111111111111,4,2,1,60,0,0
219908,-166.666666666667,4,2,1,80,0,1
219988,-166.666666666666,4,2,1,80,0,0
220227,-83.3333333333333,4,2,1,80,0,1
240334,-100,4,2,1,60,0,0
258366,-100,4,2,2,60,0,0

[HitObjects]
256,192,1291,6,0,B|224:200|224:200|184:192,1,67.5
264,152,1610,6,0,L|372:140,1,90,6|0,0:0|0:0,0:0:0:0:
316,328,1929,2,0,P|324:280|320:224,1,90,8|0,0:0|0:0,0:0:0:0:
176,216,2248,1,2,0:0:0:0:
322,238,2408,1,0,0:0:0:0:
192,380,2567,2,0,L|184:280,1,90,8|0,0:0|0:0,0:0:0:0:
300,116,2886,5,2,0:0:0:0:
252,244,3046,1,0,0:0:0:0:
236,164,3206,5,8,0:0:0:0:
328,272,3365,1,0,0:0:0:0:
176,216,3525,5,0,0:0:0:0:
312,192,3684,1,0,0:0:0:0:
212,76,3844,1,8,0:0:0:0:
364,44,4003,5,0,0:0:0:0:
364,44,4083,1,0,0:0:0:0:
364,44,4163,2,0,P|388:88|388:136,1,90,2|0,0:0|0:0,0:0:0:0:
112,260,4482,2,0,P|100:212|115:167,1,90,8|0,0:0|0:0,0:0:0:0:
244,344,4801,6,0,L|132:336,1,90,2|0,0:0|0:0,0:0:0:0:
12,320,5120,1,8,0:0:0:0:
176,216,5280,1,0,0:0:0:0:
20,116,5440,2,0,L|28:216,1,90,2|0,0:0|0:0,0:0:0:0:
176,108,5759,2,0,L|184:16,1,90,8|0,0:0|0:0,0:0:0:0:
272,160,6078,5,2,0:0:0:0:
176,216,6237,1,0,0:0:0:0:
176,108,6397,1,8,0:0:0:0:
272,272,6557,1,0,0:0:0:0:
76,272,6716,2,0,L|-16:264,1,90,2|0,0:0|0:0,0:0:0:0:
176,372,7035,2,0,L|280:364,1,90,8|0,0:0|0:0,0:0:0:0:
76,272,7354,5,2,0:0:0:0:
176,372,7514,1,0,0:0:0:0:
216,236,7674,2,0,L|224:136,1,90,8|0,0:0|0:0,0:0:0:0:
236,20,7993,5,2,0:0:0:0:
216,236,8152,1,0,0:0:0:0:
136,64,8312,1,8,0:0:0:0:
312,180,8472,1,0,0:0:0:0:
128,172,8631,2,0,L|16:168,1,90,2|0,0:0|0:0,0:0:0:0:
236,20,8950,1,8,0:0:0:0:
304,288,9110,1,0,0:0:0:0:
304,288,9190,1,0,0:0:0:0:
304,288,9269,6,0,P|352:294|396:288,1,90,2|0,0:0|0:0,0:0:0:0:
400,80,9589,2,0,P|352:74|308:80,1,90,8|0,0:0|0:0,0:0:0:0:
215,172,9908,2,0,P|171:180|119:168,1,90,2|0,0:0|0:0,0:0:0:0:
352,172,10228,5,8,0:0:0:0:
172,88,10387,1,0,0:0:0:0:
168,308,10547,2,0,L|264:296,1,90,2|0,0:0|0:0,0:0:0:0:
88,368,10866,2,0,L|76:264,1,90,8|0,0:0|0:0,0:0:0:0:
60,124,11185,1,2,0:0:0:0:
60,124,11265,1,2,0:0:0:0:
60,124,11345,6,0,L|116:120,1,45,2|2,0:0|0:0,0:0:0:0:
228,220,11504,2,0,L|164:212,1,45,8|8,0:0|0:0,0:0:0:0:
328,100,11664,2,0,L|388:96,1,45,8|8,0:0|0:0,0:0:0:0:
468,244,11823,2,0,L|368:232,1,90,6|0,0:0|0:0,0:0:0:0:
212,136,12142,2,0,P|208:92|216:40,1,90,8|0,0:0|0:0,0:0:0:0:
417,106,12462,2,0,L|309:98,1,90,2|0,0:0|0:0,0:0:0:0:
228,220,12781,1,8,0:0:0:0:
112,88,12940,5,0,0:0:0:0:
112,88,13020,1,0,0:0:0:0:
112,88,13100,2,0,P|104:136|112:184,1,90,2|0,0:0|0:0,0:0:0:0:
248,304,13419,2,0,L|352:296,1,90,8|0,0:0|0:0,0:0:0:0:
448,288,13738,5,2,0:0:0:0:
368,200,13898,1,0,0:0:0:0:
248,384,14057,1,8,0:0:0:0:
136,164,14217,1,0,0:0:0:0:
136,164,14297,1,0,0:0:0:0:
136,164,14376,6,0,L|32:172,1,90,2|0,0:0|0:0,0:0:0:0:
212,208,14696,2,0,P|222:160|212:118,1,90,8|0,0:0|0:0,0:0:0:0:
136,72,15015,1,2,0:0:0:0:
24,252,15174,2,0,L|84:248,1,45
184,240,15334,1,8,0:0:0:0:
56,120,15493,1,0,0:0:0:0:
228,28,15653,6,0,L|220:128,1,90,2|0,0:0|0:0,0:0:0:0:
352,272,15972,2,0,L|344:180,1,90,8|0,0:0|0:0,0:0:0:0:
344,44,16291,2,0,P|392:40|448:48,1,90,2|0,0:0|0:0,0:0:0:0:
344,182,16610,1,8,0:0:0:0:
152,120,16770,1,0,0:0:0:0:
152,120,16850,1,0,0:0:0:0:
152,120,16930,6,0,L|156:220,1,90,2|0,0:0|0:0,0:0:0:0:
20,328,17249,2,0,P|64:312|112:312,1,90,8|0,0:0|0:0,0:0:0:0:
224,304,17568,2,0,L|240:212,1,90,2|0,0:0|0:0,0:0:0:0:
52,76,17887,2,0,L|56:172,1,90,8|0,0:0|0:0,0:0:0:0:
152,240,18206,5,2,0:0:0:0:
248,68,18366,1,0,0:0:0:0:
152,120,18525,5,8,0:0:0:0:
308,224,18685,1,0,0:0:0:0:
340,24,18845,5,2,0:0:0:0:
232,168,19004,1,0,0:0:0:0:
408,184,19164,1,8,0:0:0:0:
168,28,19323,1,0,0:0:0:0:
168,28,19403,1,0,0:0:0:0:
168,28,19483,6,0,P|112:36|72:68,1,90,2|0,0:0|0:0,0:0:0:0:
8,208,19802,2,0,L|104:196,1,90,8|0,0:0|0:0,0:0:0:0:
152,340,20121,2,0,P|176:292|180:248,1,90,2|0,0:0|0:0,0:0:0:0:
152,120,20440,5,8,0:0:0:0:
180,256,20600,1,0,0:0:0:0:
97,196,20759,5,2,0:0:0:0:
232,168,20919,1,0,0:0:0:0:
60,108,21079,5,8,0:0:0:0:
276,264,21238,1,0,0:0:0:0:
236,72,21398,5,2,0:0:0:0:
92,296,21557,1,0,0:0:0:0:
300,348,21717,1,10,0:0:0:0:
340,328,21797,1,2,0:0:0:0:
360,288,21876,1,2,0:0:0:0:
360,244,21956,1,2,0:0:0:0:
340,200,22036,6,0,P|329:155|341:109,1,90,2|0,0:0|0:0,0:0:0:0:
488,172,22355,2,0,L|404:160,1,80.9999975280763,8|0,0:0|0:0,0:0:0:0:
236,72,22674,2,0,L|320:64,1,80.9999975280763,2|0,0:0|0:0,0:0:0:0:
416,56,22993,1,8,0:0:0:0:
340,200,23153,1,0,0:0:0:0:
232,152,23313,6,0,L|236:64,1,80.9999975280763,2|0,0:0|0:0,0:0:0:0:
104,20,23632,2,0,L|108:108,1,80.9999975280763,8|0,0:0|0:0,0:0:0:0:
116,240,23951,1,2,0:0:0:0:
232,152,24110,1,2,0:0:0:0:
232,152,24190,1,0,0:0:0:0:
232,152,24270,2,0,P|196:120|144:108,1,80.9999975280763,8|0,0:0|0:0,0:0:0:0:
35,251,24589,6,0,L|151:235,1,80.9999975280763,2|0,0:0|0:0,0:0:0:0:
232,352,24908,2,0,L|136:344,1,80.9999975280763,8|0,0:0|0:0,0:0:0:0:
268,244,25228,2,0,P|304:220|316:103,1,161.999995056153,2|8,0:0|0:0,0:0:0:0:
232,152,25706,1,0,0:0:0:0:
364,280,25866,6,0,L|460:268,1,80.9999975280763,2|0,0:0|0:0,0:0:0:0:
232,152,26185,2,0,L|136:148,1,80.9999975280763,8|0,0:0|0:0,0:0:0:0:
36,144,26504,1,2,0:0:0:0:
144,24,26664,1,2,0:0:0:0:
144,24,26743,1,0,0:0:0:0:
144,24,26823,2,0,L|140:112,1,80.9999975280763,8|0,0:0|0:0,0:0:0:0:
132,252,27142,5,2,0:0:0:0:
232,104,27302,1,2,0:0:0:0:
360,228,27462,2,0,L|264:220,1,80.9999975280763,8|0,0:0|0:0,0:0:0:0:
132,300,27781,1,2,0:0:0:0:
284,376,27940,1,2,0:0:0:0:
284,376,28020,1,0,0:0:0:0:
284,376,28100,2,0,P|292:332|284:288,1,80.9999975280763,8|0,0:0|0:0,0:0:0:0:
48,296,28419,6,0,P|64:344|184:368,1,161.999995056153,2|8,0:0|0:0,0:0:0:0:
168,216,28898,1,0,0:0:0:0:
96,152,29057,2,0,L|4:164,1,80.9999975280763,2|0,0:0|0:0,0:0:0:0:
232,284,29376,2,0,L|324:288,1,80.9999975280763,8|0,0:0|0:0,0:0:0:0:
440,196,29696,6,0,L|272:208,1,161.999995056153,2|8,0:0|0:0,0:0:0:0:
168,216,30174,1,0,0:0:0:0:
288,92,30334,1,2,0:0:0:0:
144,24,30493,1,2,0:0:0:0:
144,24,30573,1,0,0:0:0:0:
144,24,30653,1,8,0:0:0:0:
278,207,30813,1,4,0:0:0:0:
100,292,30972,1,0,0:0:0:0:
100,292,31291,6,0,P|84:264|84:212,1,62.9999980773926
196,128,31610,1,0,0:0:0:0:
168,216,31770,1,2,0:0:0:0:
104,148,31930,2,0,P|58:147|4:188,1,108,12|0,0:0|0:0,0:0:0:0:
168,216,32249,6,0,L|264:208,1,90,2|0,0:0|0:0,0:0:0:0:
384,196,32568,1,2,0:0:0:0:
260,72,32728,1,0,0:0:0:0:
384,244,32887,1,2,0:0:0:0:
176,260,33047,5,0,0:0:0:0:
384,96,33206,1,2,0:0:0:0:
428,344,33366,1,0,0:0:0:0:
428,344,33446,1,0,0:0:0:0:
428,344,33525,2,0,P|380:352|320:332,1,90,2|0,0:0|0:0,0:0:0:0:
168,176,33845,2,0,P|216:184|256:224,1,90,2|0,0:0|0:0,0:0:0:0:
340,342,34164,5,2,0:0:0:0:
116,376,34323,2,0,L|128:328,1,45
168,176,34483,1,2,0:0:0:0:
232,356,34642,1,0,0:0:0:0:
48,220,34802,6,0,P|40:168|56:116,1,90,2|0,0:0|0:0,0:0:0:0:
257,184,35121,2,0,L|137:172,1,90,2|0,0:0|0:0,0:0:0:0:
288,72,35440,2,0,L|396:64,1,90,2|0,0:0|0:0,0:0:0:0:
196,32,35759,1,2,0:0:0:0:
257,184,35919,1,0,0:0:0:0:
377,65,36079,2,0,L|404:164,1,90,2|0,0:0|0:0,0:0:0:0:
192,236,36398,2,0,P|176:188|188:140,1,90,2|0,0:0|0:0,0:0:0:0:
320,284,36717,5,2,0:0:0:0:
400,151,36876,2,0,L|352:140,1,45
128,96,37036,1,2,0:0:0:0:
296,8,37196,1,0,0:0:0:0:
192,236,37355,6,0,L|96:228,1,90,2|0,0:0|0:0,0:0:0:0:
224,344,37674,2,0,L|324:336,1,90,2|0,0:0|0:0,0:0:0:0:
106,141,37993,2,0,P|94:189|106:237,1,90,2|0,0:0|0:0,0:0:0:0:
291,95,38313,2,0,P|303:47|291:-1,1,90,2|0,0:0|0:0,0:0:0:0:
184,48,38632,1,2,0:0:0:0:
280,208,38791,1,0,0:0:0:0:
280,208,38871,1,0,0:0:0:0:
280,208,38951,6,0,L|384:204,1,90,2|0,0:0|0:0,0:0:0:0:
107,140,39270,2,0,L|4:132,1,90,2|0,0:0|0:0,0:0:0:0:
164,304,39589,2,0,P|188:260|188:172,1,135,2|0,0:0|0:0,0:0:0:0:
184,164,39908,5,2,0:0:0:0:
64,280,40068,1,0,0:0:0:0:
268,332,40228,1,2,0:0:0:0:
108,140,40387,5,0,0:0:0:0:
292,104,40547,1,2,0:0:0:0:
88,16,40706,6,0,L|24:8,1,45
192,32,40866,1,2,0:0:0:0:
28,192,41025,1,0,0:0:0:0:
236,240,41185,2,0,L|332:224,1,90,2|0,0:0|0:0,0:0:0:0:
456,356,41504,2,0,L|352:348,1,90,2|0,0:0|0:0,0:0:0:0:
432,204,41823,5,2,0:0:0:0:
292,104,41983,1,8,0:0:0:0:
312,300,42142,1,8,0:0:0:0:
452,124,42302,1,8,0:0:0:0:
232,40,42462,5,12,0:0:0:0:
316,20,42621,1,2,0:0:0:0:
292,104,42781,1,8,0:0:0:0:
232,40,42940,2,0,P|208:100|256:180,1,144,8|2,0:0|0:0,0:0:0:0:
352,208,43419,5,8,0:0:0:0:
239,168,43579,1,0,0:0:0:0:
256,288,43738,1,2,0:0:0:0:
352,208,43898,5,2,0:0:0:0:
172,244,44057,1,8,0:0:0:0:
300,380,44217,2,0,L|322:297,1,72,8|0,0:0|0:0,0:0:0:0:
352,208,44536,5,2,0:0:0:0:
172,244,44696,1,8,0:0:0:0:
300,380,44855,1,0,0:0:0:0:
239,168,45015,5,2,0:0:0:0:
352,208,45174,1,2,0:0:0:0:
328,96,45334,1,8,0:0:0:0:
239,168,45493,5,8,0:0:0:0:
444,132,45653,1,0,0:0:0:0:
308,4,45813,1,2,0:0:0:0:
239,168,45972,5,8,0:0:0:0:
144,120,46132,1,0,0:0:0:0:
232,64,46291,1,2,0:0:0:0:
239,168,46451,5,2,0:0:0:0:
144,20,46610,1,8,0:0:0:0:
48,168,46770,2,0,P|81:221|163:227,1,144,8|2,0:0|0:0,0:0:0:0:
332,112,47249,1,8,0:0:0:0:
239,168,47408,1,0,0:0:0:0:
336,224,47568,1,2,0:0:0:0:
144,120,47728,1,2,0:0:0:0:
144,336,47887,1,8,0:0:0:0:
56,284,48047,6,0,P|112:236|188:240,1,144,8|2,0:0|0:0,0:0:0:0:
280,340,48525,1,8,0:0:0:0:
179,236,48685,1,0,0:0:0:0:
280,340,48845,6,0,L|360:332,1,72,2|0,0:0|0:0,0:0:0:0:
416,164,49164,1,8,0:0:0:0:
336,224,49323,2,0,L|248:212,1,72,8|0,0:0|0:0,0:0:0:0:
416,164,49642,5,2,0:0:0:0:
320,120,49802,1,8,0:0:0:0:
336,224,49962,1,0,0:0:0:0:
408,64,50121,5,2,0:0:0:0:
224,80,50281,1,2,0:0:0:0:
320,120,50440,5,8,0:0:0:0:
179,236,50600,1,2,0:0:0:0:
308,20,50759,5,0,0:0:0:0:
416,164,50919,1,2,0:0:0:0:
248,180,51079,1,8,0:0:0:0:
352,316,51238,1,0,0:0:0:0:
172,340,51398,2,0,L|88:328,1,72,2|0,0:0|0:0,0:0:0:0:
304,228,51717,1,8,0:0:0:0:
128,192,51876,1,8,3:0:0:0:
172,340,52036,5,0,0:0:0:0:
128,192,52196,1,2,0:0:0:0:
280,152,52355,1,12,0:0:0:0:
324,304,52515,1,0,0:0:0:0:
228,248,52674,5,6,0:0:0:0:
376,204,52834,1,2,0:0:0:0:
280,152,52993,1,8,0:0:0:0:
324,304,53153,2,0,P|280:352|192:356,1,144,2|2,0:0|0:0,0:0:0:0:
58,184,53632,2,0,P|122:188|150:212,1,72,8|0,0:0|0:0,0:0:0:0:
80,264,53951,5,2,0:0:0:0:
188,96,54110,1,2,0:0:0:0:
228,248,54270,1,8,0:0:0:0:
36,108,54430,1,8,0:0:0:0:
204,172,54589,5,0,0:0:0:0:
188,4,54749,1,2,0:0:0:0:
36,108,54908,1,8,0:0:0:0:
260,80,55068,5,0,0:0:0:0:
128,184,55228,1,2,0:0:0:0:
280,160,55387,5,2,0:0:0:0:
112,112,55547,1,8,0:0:0:0:
320,172,55706,5,0,0:0:0:0:
160,312,55866,1,0,0:0:0:0:
260,80,56025,1,2,0:0:0:0:
360,184,56185,1,8,0:0:0:0:
416,24,56345,1,0,0:0:0:0:
472,200,56504,6,0,P|440:204|396:196,1,72,2|0,0:0|0:0,0:0:0:0:
352,88,56823,1,8,0:0:0:0:
224,288,56983,2,0,L|372:276,1,144,8|2,0:0|0:0,0:0:0:0:
260,80,57462,2,0,L|108:68,1,144,8|2,0:0|0:0,0:0:0:0:
20,56,57940,1,2,0:0:0:0:
60,144,58100,6,0,P|65:178|60:220,1,72,8|0,0:0|0:0,0:0:0:0:
152,324,58419,2,0,P|147:290|152:248,1,72,0|2,0:0|0:0,0:0:0:0:
244,164,58738,2,0,P|249:198|244:240,1,72,8|0,0:0|0:0,0:0:0:0:
288,344,59057,5,2,0:0:0:0:
152,324,59217,2,0,B|52:308|52:308|56:284|76:256,1,144,2|8,0:0|0:0,0:0:0:0:
172,175,59696,2,0,L|244:163,1,72,0|2,0:0|0:0,0:0:0:0:
360,148,60015,1,8,0:0:0:0:
240,16,60174,5,0,0:0:0:0:
240,16,60254,1,0,0:0:0:0:
240,16,60334,1,2,0:3:0:0:
172,175,60493,1,2,0:0:0:0:
360,148,60653,1,0,0:0:0:0:
256,108,60813,5,0,0:0:0:0:
172,280,60972,1,2,0:0:0:0:
84,108,61132,1,0,0:0:0:0:
268,212,61291,5,2,0:0:0:0:
172,80,61451,1,0,0:0:0:0:
76,212,61610,1,2,0:0:0:0:
172,175,61770,5,0,0:0:0:0:
84,108,61930,1,2,0:0:0:0:
76,212,62089,1,2,0:0:0:0:
76,212,62728,5,0,0:0:0:0:
172,80,62887,2,0,L|272:96,1,99.0000030212403,6|0,0:0|0:0,0:0:0:0:
368,200,63206,2,0,L|252:208,1,99.0000030212403,8|0,0:0|0:0,0:0:0:0:
360,12,63525,2,0,P|368:64|356:116,1,99.0000030212403,2|0,0:0|0:0,0:0:0:0:
269,206,63845,1,8,0:0:0:0:
472,292,64004,5,0,0:0:0:0:
472,292,64084,1,0,0:0:0:0:
472,292,64164,2,0,L|468:184,1,99.0000030212403,2|0,0:0|0:0,0:0:0:0:
276,107,64483,2,0,L|268:211,1,99.0000030212403,8|0,0:0|0:0,0:0:0:0:
252,336,64802,1,2,0:0:0:0:
120,248,64962,6,0,L|180:256,1,49.5000015106202
56,120,65121,1,8,0:0:0:0:
0,320,65281,1,0,0:0:0:0:
128,80,65440,6,0,P|84:48|20:44,1,99.0000030212403,2|0,0:0|0:0,0:0:0:0:
268,205,65759,2,0,P|320:196|356:169,1,99.0000030212403,8|0,0:0|0:0,0:0:0:0:
400,52,66079,1,2,0:0:0:0:
496,264,66238,1,0,0:0:0:0:
496,264,66318,1,0,0:0:0:0:
496,264,66398,2,0,L|388:260,1,99.0000030212403,8|0,0:0|0:0,0:0:0:0:
240,356,66717,5,2,0:0:0:0:
397,260,66876,1,0,0:0:0:0:
240,168,67036,2,0,L|256:64,1,99.0000030212403,8|0,0:0|0:0,0:0:0:0:
400,16,67355,5,2,0:0:0:0:
196,108,67515,1,0,0:0:0:0:
397,260,67674,2,0,L|384:360,1,99.0000030212403,8|0,0:0|0:0,0:0:0:0:
152,256,67993,6,0,P|208:252|272:276,1,99.0000030212403,2|0,0:0|0:0,0:0:0:0:
112,356,68313,2,0,L|4:348,1,99.0000030212403,8|0,0:0|0:0,0:0:0:0:
96,168,68632,1,2,0:0:0:0:
196,332,68791,1,0,0:0:0:0:
304,144,68951,1,8,0:0:0:0:
56,176,69110,5,0,0:0:0:0:
24,16,69270,1,2,0:0:0:0:
264,128,69430,1,0,0:0:0:0:
196,244,69589,6,0,P|180:196|184:144,1,99.0000030212403,8|0,0:0|0:0,0:0:0:0:
324,16,69908,1,2,0:0:0:0:
480,208,70068,2,0,L|416:188,1,49.5000015106202
304,144,70228,1,8,0:0:0:0:
492,72,70387,1,0,0:0:0:0:
388,280,70547,6,0,L|280:264,1,99.0000030212403,2|0,0:0|0:0,0:0:0:0:
231,251,70786,1,0,0:0:0:0:
172,240,70866,2,0,P|164:188|172:136,1,99.0000030212403,8|0,0:0|0:0,0:0:0:0:
420,96,71185,1,2,0:0:0:0:
324,16,71345,1,0,0:0:0:0:
304,144,71504,1,8,0:0:0:0:
172,60,71664,6,0,L|68:52,1,99.0000030212403,0|2,0:0|0:0,0:0:0:0:
0,196,71983,2,0,L|104:180,1,99.0000030212403,0|8,0:0|0:0,0:0:0:0:
304,144,72302,1,0,0:0:0:0:
240,348,72462,2,0,L|224:244,1,99.0000030212403,2|0,0:0|0:0,0:0:0:0:
320,40,72781,5,8,0:0:0:0:
376,64,72860,1,8,3:0:0:0:
404,116,72940,1,8,3:0:0:0:
400,176,73020,1,8,3:0:0:0:
368,228,73100,2,0,P|356:280|376:336,1,99.0000030212403,6|0,0:0|0:0,0:0:0:0:
168,348,73419,2,0,L|40:340,1,99.0000030212403,8|0,0:0|0:0,0:0:0:0:
4,192,73738,1,2,0:0:0:0:
69,341,73898,1,0,0:0:0:0:
4,192,74057,2,0,L|112:172,1,99.0000030212403,8|0,0:0|0:0,0:0:0:0:
312,148,74376,5,2,0:0:0:0:
200,16,74536,1,0,0:0:0:0:
156,256,74696,1,8,0:0:0:0:
356,148,74855,5,0,0:0:0:0:
112,92,75015,1,2,0:0:0:0:
232,320,75174,1,0,0:0:0:0:
232,320,75254,1,0,0:0:0:0:
232,320,75334,2,0,L|336:316,1,99.0000030212403,8|0,0:0|0:0,0:0:0:0:
272,148,75653,5,2,0:0:0:0:
156,256,75813,2,0,L|36:248,1,99.0000030212403,0|8,0:0|0:0,0:0:0:0:
200,16,76132,1,0,0:0:0:0:
356,148,76291,1,2,0:0:0:0:
156,256,76451,1,0,0:0:0:0:
236,16,76610,1,8,0:0:0:0:
304,268,76770,1,0,0:0:0:0:
68,128,76930,1,2,0:0:0:0:
216,56,77089,1,0,0:0:0:0:
112,256,77249,6,0,L|8:248,1,99.0000030212403,8|0,0:0|0:0,0:0:0:0:
200,352,77568,2,0,L|312:348,1,99.0000030212403,2|0,0:0|0:0,0:0:0:0:
420,344,77887,1,8,0:0:0:0:
245,170,78047,2,0,L|180:162,1,49.5000015106202
332,80,78206,1,2,0:0:0:0:
392,272,78366,1,0,0:0:0:0:
500,48,78525,6,0,L|388:36,1,99.0000030212403,8|0,0:0|0:0,0:0:0:0:
245,170,78845,2,0,L|356:160,1,99.0000030212403,2|0,0:0|0:0,0:0:0:0:
164,24,79164,1,8,0:0:0:0:
24,204,79323,1,0,0:0:0:0:
251,268,79483,6,0,L|243:152,1,99.0000030212403,2|0,0:0|0:0,0:0:0:0:
40,24,79802,2,0,L|32:136,1,99.0000030212403,8|0,0:0|0:0,0:0:0:0:
16,292,80121,1,2,0:0:0:0:
152,228,80281,1,0,0:0:0:0:
152,228,80360,1,0,0:0:0:0:
152,228,80440,2,0,P|204:216|260:228,1,99.0000030212403,8|0,0:0|0:0,0:0:0:0:
352,364,80759,5,2,0:0:0:0:
204,304,80919,1,0,0:0:0:0:
340,208,81079,1,8,0:0:0:0:
352,364,81238,5,0,0:0:0:0:
216,176,81398,1,2,0:0:0:0:
428,120,81557,1,0,0:0:0:0:
468,240,81717,5,8,0:0:0:0:
340,208,81876,1,0,0:0:0:0:
428,120,82036,1,2,0:0:0:0:
184,40,82196,1,0,0:0:0:0:
352,16,82355,1,12,0:0:0:0:
164,168,82515,1,0,0:0:0:0:
80,20,82674,5,2,0:0:0:0:
80,20,82754,1,2,0:0:0:0:
80,20,82834,2,8,L|64:88,1,49.5000015106202,8|8,3:0|3:0,3:0:0:0:
164,168,82993,2,0,L|216:164,1,49.5000015106202,8|8,0:0|0:0,0:0:0:0:
52,240,83153,2,8,L|-8:236,1,49.5000015106202
204,320,83313,1,4,0:0:0:0:
208,144,93206,5,8,0:0:0:0:
208,144,93286,1,8,0:0:0:0:
208,144,93366,1,8,0:0:0:0:
208,144,93446,1,8,0:0:0:0:
208,144,93525,2,0,L|296:132,1,80.9999975280763,2|2,0:0|0:0,0:0:0:0:
433,227,93845,2,0,L|337:219,1,80.9999975280763,8|0,0:0|0:0,0:0:0:0:
240,56,94164,5,2,0:0:0:0:
104,172,94323,1,2,0:0:0:0:
272,225,94483,2,0,P|280:265|264:317,1,80.9999975280763,8|0,0:0|0:0,0:0:0:0:
40,208,94802,6,0,P|32:168|44:128,1,80.9999975280763,2|2,0:0|0:0,0:0:0:0:
140,64,95121,1,8,0:0:0:0:
272,225,95281,1,0,0:0:0:0:
240,56,95440,1,2,0:0:0:0:
104,172,95600,1,2,0:0:0:0:
272,225,95759,2,0,L|356:221,1,80.9999975280763,8|0,0:0|0:0,0:0:0:0:
472,146,96079,6,0,P|412:146|352:226,1,161.999995056153,2|8,0:0|0:0,0:0:0:0:
392,344,96557,1,0,0:0:0:0:
272,312,96717,2,0,L|176:304,1,80.9999975280763,2|2,0:0|0:0,0:0:0:0:
68,376,97036,2,0,P|73:330|72:280,1,80.9999975280763,8|0,0:0|0:0,0:0:0:0:
36,152,97355,5,2,0:0:0:0:
208,104,97515,1,2,0:0:0:0:
116,16,97674,1,8,0:0:0:0:
208,220,97834,1,0,0:0:0:0:
0,152,97993,1,2,0:0:0:0:
280,52,98153,1,2,0:0:0:0:
280,52,98233,1,0,0:0:0:0:
280,52,98313,6,0,P|292:104|288:136,1,80.9999975280763,8|0,0:0|0:0,0:0:0:0:
209,299,98632,2,0,P|201:247|209:215,1,80.9999975280763,2|2,0:0|0:0,0:0:0:0:
289,131,98951,1,8,0:0:0:0:
208,220,99110,1,0,0:0:0:0:
328,244,99270,2,0,L|412:236,1,80.9999975280763,2|2,0:0|0:0,0:0:0:0:
212,100,99589,6,0,L|120:96,1,80.9999975280763,8|0,0:0|0:0,0:0:0:0:
8,236,99908,2,0,L|100:228,1,80.9999975280763,2|2,0:0|0:0,0:0:0:0:
48,56,100228,2,0,P|40:108|52:148,1,80.9999975280763,8|0,0:0|0:0,0:0:0:0:
208,268,100547,1,2,0:0:0:0:
24,352,100706,1,2,0:0:0:0:
24,352,100786,1,0,0:0:0:0:
24,352,100866,2,0,L|112:348,1,80.9999975280763,8|0,0:0|0:0,0:0:0:0:
264,196,101185,6,0,P|288:232|256:344,1,161.999995056153,2|8,0:0|0:0,0:0:0:0:
152,196,101664,1,0,0:0:0:0:
268,76,101823,2,0,L|364:88,1,80.9999975280763,2|2,0:0|0:0,0:0:0:0:
152,76,102142,1,8,0:0:0:0:
264,196,102302,2,0,L|304:192,1,40.4999987640381,2|0,0:3|0:0,0:0:0:0:
448,172,102462,1,0,0:0:0:0:
448,172,102781,6,0,L|442:90,1,62.9999980773926,2|0,0:0|0:0,0:0:0:0:
443,93,103020,1,0,0:0:0:0:
443,93,103100,1,2,0:0:0:0:
456,276,103259,1,2,0:0:0:0:
229,131,103419,2,0,P|270:122|329:162,1,108,12|0,0:0|0:0,0:0:0:0:
288,268,103738,6,0,P|244:268|197:233,1,90,6|0,0:0|0:0,0:0:0:0:
132,72,104057,1,2,0:0:0:0:
32,300,104217,1,0,0:0:0:0:
32,300,104297,1,0,0:0:0:0:
32,300,104376,1,2,0:0:0:0:
288,268,104536,1,0,0:0:0:0:
194,240,104696,1,2,0:0:0:0:
348,352,104855,1,0,0:0:0:0:
289,171,105015,1,2,0:0:0:0:
230,351,105174,1,0,0:0:0:0:
384,240,105334,1,2,0:0:0:0:
288,268,105493,5,0,0:0:0:0:
388,132,105653,1,2,0:0:0:0:
148,84,105813,2,0,L|68:72,1,45
276,8,105972,1,2,0:0:0:0:
194,240,106132,1,0,0:0:0:0:
8,168,106291,2,0,L|112:156,1,90,2|0,0:0|0:0,0:0:0:0:
230,351,106610,2,0,L|116:340,1,90,2|0,0:0|0:0,0:0:0:0:
388,132,106930,1,2,0:0:0:0:
436,284,107089,1,0,0:0:0:0:
436,284,107169,1,0,0:0:0:0:
436,284,107249,6,0,L|320:272,1,90,2|0,0:0|0:0,0:0:0:0:
256,96,107568,1,2,0:0:0:0:
472,28,107728,1,0,0:0:0:0:
256,96,107887,2,0,P|248:144|258:197,1,90,2|0,0:0|0:0,0:0:0:0:
140,320,108206,2,0,L|144:220,1,90,2|0,0:0|0:0,0:0:0:0:
56,352,108525,1,2,0:0:0:0:
232,232,108685,1,0,0:0:0:0:
64,136,108845,2,0,L|64:40,1,90,2|0,0:0|0:0,0:0:0:0:
308,160,109164,2,0,P|252:176|180:124,1,135,2|0,0:0|0:0,0:0:0:0:
180,120,109483,5,2,0:0:0:0:
328,12,109642,1,0,0:0:0:0:
440,252,109802,1,2,0:0:0:0:
308,160,109962,1,0,0:0:0:0:
448,96,110121,1,2,0:0:0:0:
316,292,110281,1,0,0:0:0:0:
316,292,110360,1,0,0:0:0:0:
316,292,110440,2,0,L|216:284,1,90,2|0,0:0|0:0,0:0:0:0:
168,352,110759,5,2,0:0:0:0:
316,292,110919,1,0,0:0:0:0:
160,188,111079,2,0,L|152:92,1,90,2|0,0:0|0:0,0:0:0:0:
28,20,111398,1,2,0:0:0:0:
244,196,111557,6,0,L|300:188,1,45
8,220,111717,1,2,0:0:0:0:
216,60,111876,1,0,0:0:0:0:
316,292,112036,2,0,L|208:276,1,90,2|0,0:0|0:0,0:0:0:0:
372,364,112355,2,0,P|400:324|384:228,1,135,2|0,0:0|0:0,0:0:0:0:
376,228,112674,5,2,0:0:0:0:
240,372,112834,1,0,0:0:0:0:
264,168,112993,1,14,0:0:0:0:
132,328,113153,1,0,0:0:0:0:
376,228,113313,5,8,0:0:0:0:
136,136,113472,1,8,0:0:0:0:
380,36,113632,1,2,0:0:0:0:
252,264,113791,1,8,0:0:0:0:
60,96,113951,5,2,0:0:0:0:
136,224,114110,1,2,0:0:0:0:
208,96,114270,1,8,0:0:0:0:
52,184,114430,2,0,P|44:248|96:308,1,144,8|2,0:0|0:0,0:0:0:0:
252,264,114908,1,8,0:0:0:0:
276,380,115068,1,0,0:0:0:0:
276,380,115148,1,0,0:0:0:0:
276,380,115228,2,0,L|192:372,1,72,2|2,0:0|0:0,0:0:0:0:
252,264,115547,2,0,L|347:258,1,72,0|8,0:0|0:0,0:0:0:0:
472,248,115866,5,0,0:0:0:0:
304,156,116025,1,2,0:0:0:0:
436,112,116185,1,8,0:0:0:0:
396,316,116345,5,0,0:0:0:0:
212,180,116504,1,2,0:0:0:0:
352,72,116664,1,2,0:0:0:0:
136,24,116823,5,8,0:0:0:0:
228,220,116983,1,8,0:0:0:0:
24,184,117142,1,0,0:0:0:0:
136,24,117302,5,2,0:0:0:0:
248,264,117462,1,8,0:0:0:0:
80,300,117621,2,0,L|4:292,1,72,0|2,0:0|0:0,0:0:0:0:
212,180,117940,1,2,0:0:0:0:
292,376,118100,1,0,0:0:0:0:
126,222,118259,2,0,P|123:141|168:102,1,144,8|2,0:0|0:0,0:0:0:0:
319,262,118738,2,0,P|281:268|233:260,1,72,8|0,0:0|0:0,0:0:0:0:
368,160,119057,6,0,L|452:156,1,72,2|2,0:0|0:0,0:0:0:0:
468,316,119376,1,0,0:0:0:0:
292,376,119536,2,0,B|256:368|256:368|192:380|192:380|140:368,1,144,8|2,0:0|0:0,0:0:0:0:
12,268,120015,2,0,L|100:280,1,72,8|0,0:0|0:0,0:0:0:0:
263,209,120334,2,0,L|192:216,1,72,2|2,0:0|0:0,0:0:0:0:
48,128,120653,2,0,L|136:144,1,72,0|8,0:0|0:0,0:0:0:0:
168,24,120972,5,0,0:0:0:0:
48,128,121132,1,2,0:0:0:0:
264,208,121291,1,8,0:0:0:0:
12,268,121451,1,0,0:0:0:0:
168,24,121610,1,2,0:0:0:0:
264,208,121770,1,2,0:0:0:0:
372,104,121930,5,8,0:0:0:0:
172,132,122089,1,8,0:0:0:0:
312,296,122249,1,0,0:0:0:0:
360,208,122408,5,2,0:0:0:0:
216,296,122568,1,8,0:0:0:0:
412,300,122728,1,0,0:0:0:0:
264,208,122887,1,2,0:0:0:0:
360,380,123047,1,2,0:0:0:0:
264,380,123206,1,0,0:0:0:0:
360,208,123366,1,8,3:0:0:0:
172,132,123525,5,0,0:0:0:0:
216,296,123685,1,2,0:0:0:0:
52,256,123845,1,12,0:0:0:0:
152,224,124004,1,0,0:0:0:0:
152,224,124084,1,0,0:0:0:0:
152,224,124164,6,0,L|168:148,1,72,6|2,0:0|0:0,0:0:0:0:
196,16,124483,1,0,0:0:0:0:
37,121,124642,2,0,P|77:153|181:145,1,144,8|2,0:0|0:0,0:0:0:0:
268,16,125121,1,8,0:0:0:0:
288,184,125281,1,0,0:0:0:0:
288,184,125360,1,0,0:0:0:0:
288,184,125440,2,0,L|360:172,1,72,2|2,0:0|0:0,0:0:0:0:
468,84,125759,2,0,L|388:76,1,72,0|8,0:0|0:0,0:0:0:0:
359,172,126079,5,0,0:0:0:0:
396,76,126238,1,2,0:0:0:0:
388,192,126398,5,8,0:0:0:0:
364,56,126557,1,0,0:0:0:0:
420,216,126717,5,2,0:0:0:0:
332,32,126876,1,2,0:0:0:0:
220,216,127036,5,0,0:0:0:0:
359,172,127196,1,8,0:0:0:0:
192,192,127355,5,0,0:0:0:0:
388,192,127515,1,2,0:0:0:0:
212,60,127674,1,8,0:0:0:0:
124,288,127834,1,0,0:0:0:0:
124,288,127914,1,0,0:0:0:0:
124,288,127993,2,0,L|136:368,1,72,2|2,0:0|0:0,0:0:0:0:
220,216,128313,1,0,0:0:0:0:
40,160,128472,2,0,P|28:88|44:16,1,144,8|2,0:0|0:0,0:0:0:0:
151,47,128951,6,0,P|104:92|165:128,1,144,8|2,0:0|0:0,0:0:0:0:
228,88,129430,5,2,0:0:0:0:
152,47,129589,1,0,0:0:0:0:
152,131,129749,1,8,0:0:0:0:
300,44,129908,2,0,P|310:77|302:130,1,72,0|2,0:0|0:0,0:0:0:0:
152,232,130228,2,0,L|228:220,1,72,8|0,0:0|0:0,0:0:0:0:
392,196,130547,1,2,0:0:0:0:
440,356,130706,2,0,L|292:324,1,144,2|8,0:0|0:0,0:0:0:0:
428,120,131185,2,0,P|460:144|472:188,1,72,0|2,0:0|0:0,0:0:0:0:
320,240,131504,1,8,0:0:0:0:
236,72,131664,5,0,0:0:0:0:
236,72,131743,1,0,0:0:0:0:
236,72,131823,2,0,L|136:80,1,72,2|0,0:3|0:0,0:0:0:0:
40,88,132142,1,2,0:0:0:0:
120,184,132302,1,0,0:0:0:0:
164,77,132462,1,2,0:0:0:0:
8,200,132621,5,0,0:0:0:0:
232,168,132781,1,2,0:0:0:0:
80,288,132940,1,0,0:0:0:0:
192,272,133100,1,2,0:0:0:0:
48,88,133259,5,12,0:0:0:0:
80,288,133419,1,2,0:0:0:0:
164,77,133579,1,12,0:0:0:0:
312,256,133738,1,8,0:0:0:0:
364,288,133818,1,8,0:0:0:0:
424,280,133898,1,2,0:0:0:0:
468,240,133978,1,2,0:0:0:0:
480,180,134057,2,0,B|436:144|440:92|440:92|476:104,1,121.499996292114,14|0,0:0|0:0,0:0:0:0:
372,160,134376,6,0,P|325:159|276:128,1,99.0000030212403,6|0,0:0|0:0,0:0:0:0:
136,8,134696,2,0,P|183:9|232:40,1,99.0000030212403,8|0,0:0|0:0,0:0:0:0:
136,168,135015,1,2,0:0:0:0:
352,76,135174,1,0,0:0:0:0:
352,76,135254,1,0,0:0:0:0:
352,76,135334,1,8,0:0:0:0:
312,352,135493,1,0,0:0:0:0:
136,288,135653,6,0,P|80:284|28:292,1,99.0000030212403,2|0,0:0|0:0,0:0:0:0:
344,228,135972,2,0,P|392:228|438:203,1,99.0000030212403,8|0,0:0|0:0,0:0:0:0:
352,76,136291,1,2,0:0:0:0:
185,295,136451,2,0,L|129:287,1,49.5000015106202
4,192,136610,1,8,0:0:0:0:
188,92,136770,1,0,0:0:0:0:
32,0,136930,6,0,L|40:112,1,99.0000030212403,2|0,0:0|0:0,0:0:0:0:
56,280,137249,1,8,0:0:0:0:
188,92,137408,1,0,0:0:0:0:
39,98,137568,1,2,0:0:0:0:
196,268,137728,1,0,0:0:0:0:
320,24,137887,1,8,0:0:0:0:
116,184,138047,1,0,0:0:0:0:
304,316,138206,6,0,L|296:212,1,99.0000030212403,2|0,0:0|0:0,0:0:0:0:
444,80,138525,2,0,P|440:132|400:176,1,99.0000030212403,8|0,0:0|0:0,0:0:0:0:
304,316,138845,2,0,P|352:300|412:308,1,99.0000030212403,2|0,0:0|0:0,0:0:0:0:
200,184,139164,1,8,0:0:0:0:
112,372,139323,1,0,0:0:0:0:
112,372,139403,1,0,0:0:0:0:
112,372,139483,1,2,0:0:0:0:
304,216,139642,5,0,0:0:0:0:
108,152,139802,1,8,0:0:0:0:
208,340,139962,1,0,0:0:0:0:
344,100,140121,1,2,0:0:0:0:
124,244,140281,1,0,0:0:0:0:
88,64,140440,1,8,0:0:0:0:
92,244,140600,5,0,0:0:0:0:
119,62,140759,1,2,0:0:0:0:
60,232,140919,5,0,0:0:0:0:
147,70,141078,1,8,0:0:0:0:
36,216,141238,5,0,0:0:0:0:
173,93,141397,1,2,0:0:0:0:
280,260,141557,6,0,L|332:248,1,49.5000015106202
180,132,141717,1,8,0:0:0:0:
36,352,141876,1,0,0:0:0:0:
36,352,141956,1,0,0:0:0:0:
36,352,142036,6,0,P|84:364|132:360,1,99.0000030212403,2|0,0:0|0:0,0:0:0:0:
284,208,142355,2,0,P|236:224|204:264,1,99.0000030212403,8|0,0:0|0:0,0:0:0:0:
332,372,142674,1,2,0:0:0:0:
92,280,142834,1,0,0:0:0:0:
284,208,142993,1,8,0:0:0:0:
108,152,143153,6,0,P|56:144|8:156,1,99.0000030212403,0|2,0:0|0:0,0:0:0:0:
277,306,143472,2,0,L|285:186,1,99.0000030212403,0|8,0:0|0:0,0:0:0:0:
300,32,143791,1,0,0:0:0:0:
108,152,143951,2,0,P|164:156|212:128,1,99.0000030212403,2|0,0:0|0:0,0:0:0:0:
380,4,144270,5,8,0:0:0:0:
376,56,144350,1,8,0:0:0:0:
340,100,144430,1,8,0:0:0:0:
284,108,144509,1,8,0:0:0:0:
236,76,144589,6,0,P|192:64|144:92,1,99.0000030212403,6|0,0:0|0:0,0:0:0:0:
40,208,144908,2,0,L|28:84,1,99.0000030212403,8|0,0:0|0:0,0:0:0:0:
208,168,145228,1,2,0:0:0:0:
72,312,145387,2,0,L|12:304,1,49.5000015106202
108,152,145547,1,8,0:0:0:0:
236,368,145706,1,0,0:0:0:0:
324,240,145866,6,0,P|378:231|440:228,1,99.0000030212403,2|0,0:0|0:0,0:0:0:0:
306,156,146185,2,0,P|252:165|190:168,1,99.0000030212403,8|0,0:0|0:0,0:0:0:0:
236,76,146504,1,2,0:0:0:0:
388,320,146664,1,0,0:0:0:0:
388,320,146743,1,0,0:0:0:0:
388,320,146823,1,8,0:0:0:0:
496,164,146983,5,0,0:0:0:0:
232,216,147142,1,2,0:0:0:0:
200,8,147302,2,0,P|260:4|300:116,1,198.000006042481,2|0,0:0|0:0,0:0:0:0:
84,216,147781,1,2,0:0:0:0:
250,119,147940,2,0,L|314:115,1,49.5000015106202
88,8,148100,1,8,0:0:0:0:
4,216,148259,1,0,0:0:0:0:
200,120,148419,5,2,0:0:0:0:
184,332,148579,1,0,0:0:0:0:
44,148,148738,1,8,0:0:0:0:
224,76,148898,1,0,0:0:0:0:
284,284,149057,2,0,P|296:336|276:408,1,99.0000030212403,2|0,0:0|0:0,0:0:0:0:
157,230,149376,6,0,P|230:235|296:322,1,148.50000453186,8|0,0:0|0:0,0:0:0:0:
104,380,149696,2,0,P|92:328|104:280,1,99.0000030212403,2|0,0:0|0:0,0:0:0:0:
344,156,150015,1,8,0:0:0:0:
128,32,150174,1,0,0:0:0:0:
128,32,150254,1,0,0:0:0:0:
128,32,150334,2,0,L|140:136,1,99.0000030212403,2|0,0:0|0:0,0:0:0:0:
16,188,150653,1,8,0:0:0:0:
224,76,150813,5,0,0:0:0:0:
224,76,150892,1,0,0:0:0:0:
224,76,150972,2,0,P|280:72|332:80,1,99.0000030212403,2|0,0:0|0:0,0:0:0:0:
424,204,151291,2,0,L|432:92,1,99.0000030212403,8|0,0:0|0:0,0:0:0:0:
264,248,151610,1,2,0:0:0:0:
424,204,151770,1,0,0:0:0:0:
264,248,151930,2,0,L|152:240,1,99.0000030212403,8|0,0:0|0:0,0:0:0:0:
44,336,152169,1,0,0:0:0:0:
44,336,152249,6,0,L|152:344,1,99.0000030212403,2|0,0:0|0:0,0:0:0:0:
236,160,152568,1,8,0:0:0:0:
80,72,152728,1,0,0:0:0:0:
80,72,152807,1,0,0:0:0:0:
80,72,152887,1,2,0:0:0:0:
200,16,153047,5,0,0:0:0:0:
60,184,153206,1,8,0:0:0:0:
280,160,153366,1,0,0:0:0:0:
160,88,153525,1,2,0:0:0:0:
224,288,153685,5,0,0:0:0:0:
392,160,153845,1,12,0:0:0:0:
184,160,154004,1,0,0:0:0:0:
336,24,154164,1,8,3:0:0:0:
336,24,154243,1,8,3:0:0:0:
336,24,154323,1,8,3:0:0:0:
459,218,154483,5,8,0:0:0:0:
479,158,154563,1,2,0:0:0:0:
455,98,154642,1,2,0:0:0:0:
395,78,154722,1,2,0:0:0:0:
335,102,154802,1,6,0:0:0:0:
247,290,154962,1,0,0:0:0:0:
392,160,155121,1,8,0:0:0:0:
436,344,155281,1,0,0:0:0:0:
276,176,155440,5,2,0:0:0:0:
184,378,155600,1,0,0:0:0:0:
352,273,155759,1,8,0:0:0:0:
170,165,155919,1,0,0:0:0:0:
142,378,156079,5,2,0:0:0:0:
310,272,156238,1,0,0:0:0:0:
65,176,156398,1,8,0:0:0:0:
237,73,156557,1,0,0:0:0:0:
126,262,156717,5,2,0:0:0:0:
124,63,156876,1,0,0:0:0:0:
276,176,157036,1,8,0:0:0:0:
65,176,157196,1,0,0:0:0:0:
237,73,157355,1,2,0:0:0:0:
22,13,157515,1,0,0:0:0:0:
22,13,157595,1,0,0:0:0:0:
22,13,157674,2,0,P|12:66|22:115,1,99.0000030212403,8|0,0:0|0:0,0:0:0:0:
185,353,157993,6,0,P|217:314|229:265,1,99.0000030212403,2|0,0:0|0:0,0:0:0:0:
21,241,158313,2,0,P|73:255|140:178,1,148.50000453186,8|0,0:0|0:0,0:0:0:0:
23,148,158632,2,0,P|6:195|31:253,1,99.0000030212403,2|0,0:0|0:0,0:0:0:0:
242,124,158951,2,0,L|230:17,1,99.0000030212403,8|0,0:0|0:0,0:0:0:0:
258,239,159270,1,2,0:0:0:0:
134,91,159430,1,0,0:0:0:0:
332,20,159589,1,8,0:0:0:0:
151,207,159749,5,0,0:0:0:0:
151,207,159829,1,0,0:0:0:0:
151,207,159908,2,0,L|162:318,1,99.0000030212403,2|0,0:0|0:0,0:0:0:0:
323,118,160228,2,0,L|333:8,1,99.0000030212403,8|0,0:0|0:0,0:0:0:0:
236,167,160547,2,0,P|285:213|374:204,1,148.50000453186,2|0,0:0|0:0,0:0:0:0:
418,129,160866,2,0,P|453:167|459:235,1,99.0000030212403,8|0,0:0|0:0,0:0:0:0:
301,378,161185,6,0,L|191:368,1,99.0000030212403,2|0,0:0|0:0,0:0:0:0:
0,211,161504,2,0,L|124:191,1,99.0000030212403,8|0,0:0|0:0,0:0:0:0:
236,168,161823,1,2,0:0:0:0:
98,195,161983,1,0,0:0:0:0:
145,52,162142,2,0,L|251:64,1,99.0000030212403,8|0,0:0|0:0,0:0:0:0:
368,265,162461,6,0,L|374:154,1,99.0000030212403,2|0,0:0|0:0,0:0:0:0:
385,6,162781,1,8,0:0:0:0:
243,63,162940,1,0,0:0:0:0:
373,166,163100,1,2,0:0:0:0:
216,42,163259,5,0,0:0:0:0:
224,246,163419,1,8,0:0:0:0:
334,77,163578,1,0,0:0:0:0:
434,301,163738,1,2,0:0:0:0:
195,239,163898,1,0,0:0:0:0:
310,93,164057,5,8,0:0:0:0:
290,375,164217,1,0,0:0:0:0:
109,237,164376,1,2,0:0:0:0:
373,166,164536,1,0,0:0:0:0:
198,307,164696,1,8,0:0:0:0:
161,132,164855,1,0,0:0:0:0:
41,335,165015,1,2,0:0:0:0:
1,161,165174,6,0,P|47:135|94:240,1,198.000006042481,2|8,0:0|0:0,0:0:0:0:
18,245,165653,1,0,0:0:0:0:
131,68,165813,1,2,0:0:0:0:
247,300,165972,2,0,L|262:194,1,99.0000030212403,8|0,0:0|0:0,0:0:0:0:
293,23,166291,1,2,0:0:0:0:
131,68,166451,2,0,P|216:91|295:15,1,198.000006042481,2|8,0:0|0:0,0:0:0:0:
411,7,166930,5,0,0:0:0:0:
293,23,167089,1,2,0:0:0:0:
435,167,167249,5,8,0:0:0:0:
246,80,167408,1,0,0:0:0:0:
319,305,167568,5,8,0:3:0:0:
319,305,167648,1,8,0:3:0:0:
319,305,167727,1,8,0:3:0:0:
167,82,167887,5,4,0:3:0:0:
32,317,168047,5,8,0:3:0:0:
32,317,168126,1,8,0:3:0:0:
32,317,168206,1,8,0:3:0:0:
112,28,168366,1,4,0:3:0:0:
0,182,168525,5,8,0:0:0:0:
55,213,168604,1,8,0:0:0:0:
119,212,168684,1,8,0:0:0:0:
174,179,168764,1,8,0:0:0:0:
199,126,168844,6,0,L|191:27,1,90,6|0,0:0|0:0,0:0:0:0:
320,188,169164,2,0,L|328:287,1,90,8|0,0:0|0:0,0:0:0:0:
199,126,169483,1,2,0:0:0:0:
320,188,169642,1,0,0:0:0:0:
390,58,169802,2,0,P|442:51|497:56,1,90,8|0,0:0|0:0,0:0:0:0:
281,18,170121,5,2,0:0:0:0:
320,188,170281,1,0,0:0:0:0:
161,117,170440,1,8,0:0:0:0:
108,278,170600,1,0,0:0:0:0:
137,38,170759,2,0,P|179:39|220:62,1,90,2|0,0:0|0:0,0:0:0:0:
29,171,171078,2,0,L|23:77,1,90,8|0,0:0|0:0,0:0:0:0:
212,254,171398,6,0,L|218:348,1,90,2|0,0:0|0:0,0:0:0:0:
367,176,171717,2,0,P|326:157|275:150,1,90,8|0,0:0|0:0,0:0:0:0:
93,287,172036,1,2,0:0:0:0:
212,254,172196,1,0,0:0:0:0:
311,347,172355,2,0,L|319:242,1,90,8|0,0:0|0:0,0:0:0:0:
330,55,172674,5,2,0:0:0:0:
353,186,172833,1,0,0:0:0:0:
486,163,172993,1,8,0:0:0:0:
462,29,173153,1,0,0:0:0:0:
277,140,173313,1,2,0:0:0:0:
300,271,173472,1,0,0:0:0:0:
433,248,173632,1,8,0:0:0:0:
409,114,173792,1,0,0:0:0:0:
191,225,173951,6,0,P|142:220|98:202,1,90,2|0,0:0|0:0,0:0:0:0:
44,59,174270,2,0,P|93:64|137:82,1,90,8|0,0:0|0:0,0:0:0:0:
191,225,174589,1,2,0:0:0:0:
44,59,174749,1,0,0:0:0:0:
104,205,174908,1,8,0:0:0:0:
130,78,175068,1,0,0:0:0:0:
321,225,175227,6,0,P|370:220|414:202,1,90,2|0,0:0|0:0,0:0:0:0:
468,59,175546,2,0,P|419:64|375:82,1,90,8|0,0:0|0:0,0:0:0:0:
321,225,175866,1,2,0:0:0:0:
468,59,176026,1,0,0:0:0:0:
408,205,176185,1,8,0:0:0:0:
382,78,176345,1,0,0:0:0:0:
234,250,176504,6,0,L|248:348,1,90,2|0,0:0|0:0,0:0:0:0:
382,78,176823,2,0,P|342:66|281:60,1,90,8|0,0:0|0:0,0:0:0:0:
71,179,177142,1,2,0:0:0:0:
194,233,177302,1,0,0:0:0:0:
102,56,177461,1,8,0:0:0:0:
129,311,177621,5,0,0:0:0:0:
319,140,177781,1,2,0:0:0:0:
73,47,177940,1,0,0:0:0:0:
281,207,178100,2,0,P|344:212|393:154,1,135,12|0,0:0|0:0,0:0:0:0:
366,21,178419,2,0,L|300:30,1,45,8|8,0:3|0:3,0:0:0:0:
465,234,178578,2,0,L|490:187,1,45,4|0,0:3|0:0,0:0:0:0:
291,64,178738,2,0,L|297:119,1,45,4|0,0:3|0:0,0:0:0:0:
189,324,178898,2,0,L|181:270,1,45,4|0,0:3|0:0,0:0:0:0:
147,59,179057,1,2,0:0:0:0:
27,249,179217,5,0,0:0:0:0:
240,187,179376,1,8,0:0:0:0:
81,25,179536,1,0,0:0:0:0:
200,197,179696,1,2,0:0:0:0:
266,64,179855,1,0,0:0:0:0:
99,285,180015,1,8,0:0:0:0:
368,276,180174,1,0,0:0:0:0:
156,123,180334,5,2,0:0:0:0:
99,285,180493,1,0,0:0:0:0:
232,201,180653,5,8,0:0:0:0:
227,336,180813,1,0,0:0:0:0:
336,243,180972,5,2,0:0:0:0:
365,361,181132,1,0,0:0:0:0:
156,123,181291,5,8,0:0:0:0:
99,285,181451,1,0,0:0:0:0:
356,28,181610,6,0,L|390:116,1,90,2|0,0:0|0:0,0:0:0:0:
156,123,181930,2,0,P|202:109|249:109,1,90,8|0,0:0|0:0,0:0:0:0:
421,262,182249,2,0,P|376:260|325:235,1,90,2|0,0:0|0:0,0:0:0:0:
86,60,182568,2,0,P|64:105|70:155,1,90,8|0,0:0|0:0,0:0:0:0:
214,195,182887,5,2,0:0:0:0:
389,113,183047,1,0,0:0:0:0:
275,319,183206,1,8,0:0:0:0:
88,144,183366,1,0,0:0:0:0:
144,374,183525,1,2,0:0:0:0:
176,97,183685,1,0,0:0:0:0:
73,311,183844,1,8,0:0:0:0:
359,188,184004,1,0,0:0:0:0:
103,16,184164,6,0,B|42:91|96:162|96:162|125:134,1,180,6|8,0:0|0:0,0:0:0:0:
258,25,184642,1,0,0:0:0:0:
359,188,184802,2,0,B|324:208|276:179|276:179|229:157|179:179,1,180,2|8,0:0|0:0,0:0:0:0:
203,338,185281,1,0,0:0:0:0:
203,338,185360,1,0,0:0:0:0:
203,338,185440,2,0,P|227:292|229:246,1,90,2|0,0:0|0:0,0:0:0:0:
357,33,185759,2,0,P|333:79|331:125,1,90,12|0,0:0|0:0,0:0:0:0:
459,288,186078,5,8,0:3:0:0:
236,42,186238,1,8,0:3:0:0:
202,367,186398,1,8,0:3:0:0:
438,172,186557,1,8,0:3:0:0:
87,112,186717,2,0,B|68:151|92:190|92:190|108:231|76:280,1,161.999995056153,6|0,0:0|0:0,0:0:0:0:
46,356,187196,1,2,0:0:0:0:
3,271,187355,6,0,B|43:246|84:267|84:267|123:289|177:259,1,161.999995056153,8|0,0:0|0:0,0:0:0:0:
286,123,187834,1,2,0:0:0:0:
250,232,187993,6,0,P|241:273|260:327,1,80.9999975280763,0|2,0:0|0:0,0:0:0:0:
451,261,188313,2,0,P|398:239|331:265,1,121.499996292114,12|0,0:0|0:0,0:0:0:0:
324,271,188632,1,2,0:0:0:0:
159,254,188791,1,8,0:0:0:0:
347,127,188951,1,8,0:0:0:0:
155,97,189110,1,8,0:0:0:0:
367,17,189270,5,6,0:0:0:0:
367,17,189589,1,2,0:0:0:0:
367,17,189908,1,2,0:0:0:0:
367,17,190227,1,2,0:0:0:0:
258,194,190547,5,2,0:0:0:0:
258,194,190866,1,2,0:0:0:0:
258,194,191185,1,2,0:0:0:0:
367,17,191344,1,0,0:0:0:0:
373,221,191504,1,2,0:0:0:0:
221,187,191664,1,0,0:0:0:0:
410,119,191823,5,6,0:0:0:0:
280,269,191983,1,0,0:0:0:0:
197,151,192142,1,2,0:0:0:0:
373,221,192302,5,0,0:0:0:0:
167,258,192461,1,2,0:0:0:0:
308,131,192621,1,0,0:0:0:0:
123,65,192781,1,2,0:0:0:0:
329,28,192940,1,0,0:0:0:0:
266,219,193100,1,2,0:0:0:0:
234,66,193259,1,0,0:0:0:0:
381,197,193419,2,0,P|385:256|342:321,1,125.999996154785,2|2,0:0|0:0,0:0:0:0:
266,219,193898,1,0,0:0:0:0:
152,243,194057,2,0,P|165:286|197:318,1,62.9999980773926,2|0,0:0|0:0,0:0:0:0:
264,375,194376,5,2,0:0:0:0:
264,375,194696,1,2,0:0:0:0:
264,375,195015,1,2,0:0:0:0:
264,375,195334,1,2,0:0:0:0:
133,152,195653,5,2,0:0:0:0:
133,152,195972,1,2,0:0:0:0:
133,152,196291,1,2,0:0:0:0:
283,117,196451,1,0,0:0:0:0:
109,75,196610,5,2,0:0:0:0:
304,197,196770,1,0,0:0:0:0:
64,202,196930,5,6,0:0:0:0:
342,55,197089,1,0,0:0:0:0:
133,152,197249,5,2,0:0:0:0:
283,117,197408,1,0,0:0:0:0:
84,17,197568,5,2,0:0:0:0:
363,136,197727,1,0,0:0:0:0:
141,238,197887,1,2,0:0:0:0:
207,92,198047,1,0,0:0:0:0:
292,314,198206,1,2,0:0:0:0:
106,227,198366,1,0,0:0:0:0:
345,67,198525,2,0,P|398:73|434:140,1,125.999996154785,2|2,0:0|0:0,0:0:0:0:
304,207,199004,1,0,0:0:0:0:
491,277,199164,1,8,0:0:0:0:
491,277,199483,6,0,L|415:289,1,72,6|0,0:0|0:0,0:0:0:0:
257,303,199802,1,2,0:0:0:0:
322,147,199961,2,0,L|404:157,1,72,8|2,0:0|0:0,0:0:0:0:
501,181,200281,1,0,0:0:0:0:
351,324,200440,2,0,P|342:284|352:250,1,72,8|0,0:0|0:0,0:0:0:0:
199,91,200759,2,0,P|222:129|211:235,1,144,2|2,0:0|0:0,0:0:0:0:
113,178,201238,1,8,0:0:0:0:
216,226,201398,5,2,0:0:0:0:
119,301,201557,1,0,0:0:0:0:
113,178,201717,1,2,0:0:0:0:
226,353,201876,1,0,0:0:0:0:
19,244,202036,1,2,0:0:0:0:
204,116,202196,1,0,0:0:0:0:
226,325,202355,5,2,0:0:0:0:
313,190,202515,1,8,0:0:0:0:
151,267,202674,1,2,0:0:0:0:
125,93,202834,1,0,0:0:0:0:
231,227,202993,1,2,0:0:0:0:
290,22,203153,1,0,0:0:0:0:
86,103,203313,5,2,0:0:0:0:
268,228,203472,1,0,0:0:0:0:
182,21,203632,1,2,0:0:0:0:
78,254,203791,2,0,L|159:244,1,72,8|2,0:0|0:0,0:0:0:0:
311,223,204110,1,0,0:0:0:0:
207,70,204270,2,0,L|220:161,1,72,8|0,0:0|0:0,0:0:0:0:
251,326,204589,6,0,L|342:314,1,72,6|0,0:0|0:0,0:0:0:0:
456,212,204908,1,2,0:0:0:0:
310,152,205068,1,8,0:0:0:0:
310,152,205227,2,0,P|305:199|387:222,1,144,2|8,0:0|0:0,0:0:0:0:
360,68,205706,1,0,0:0:0:0:
214,135,205866,2,0,P|179:133|131:121,1,72,2|0,0:0|0:0,0:0:0:0:
21,23,206185,2,0,P|56:25|104:37,1,72,2|8,0:0|0:0,0:0:0:0:
143,125,206504,5,2,0:0:0:0:
92,33,206664,1,0,0:0:0:0:
2,207,206823,1,2,0:0:0:0:
176,111,206983,5,0,0:0:0:0:
227,306,207142,1,2,0:0:0:0:
91,158,207302,1,0,0:0:0:0:
251,62,207461,5,2,0:0:0:0:
161,227,207621,1,8,0:0:0:0:
135,22,207781,1,2,0:0:0:0:
36,242,207940,1,0,0:0:0:0:
276,210,208100,1,2,0:0:0:0:
144,118,208259,1,0,0:0:0:0:
246,319,208419,6,0,L|320:316,1,72,2|0,0:0|0:0,0:0:0:0:
491,307,208738,1,2,0:0:0:0:
390,97,208898,2,0,L|396:186,1,72,8|2,0:0|0:0,0:0:0:0:
410,368,209217,1,0,0:0:0:0:
245,240,209376,2,0,P|207:250|179:278,1,72,8|0,0:0|0:0,0:0:0:0:
64,368,209696,6,0,L|68:287,1,80.9999975280763,2|0,0:0|0:0,0:0:0:0:
82,78,210015,1,0,0:0:0:0:
0,141,210174,2,0,P|40:172|146:157,1,161.999995056153,8|2,0:0|0:0,0:0:0:0:
240,30,210653,1,8,0:0:0:0:
297,206,210813,1,0,0:0:0:0:
297,206,210892,1,0,0:0:0:0:
297,206,210972,2,0,L|292:299,1,80.9999975280763,2|2,0:0|0:0,0:0:0:0:
447,131,211291,2,0,L|452:45,1,80.9999975280763,0|8,0:0|0:0,0:0:0:0:
297,206,211611,5,0,0:0:0:0:
447,131,211770,1,2,0:0:0:0:
231,140,211930,5,8,0:0:0:0:
388,244,212089,1,0,0:0:0:0:
253,53,212249,5,2,0:0:0:0:
215,226,212408,1,2,0:0:0:0:
330,25,212568,5,0,0:0:0:0:
175,79,212728,1,8,0:0:0:0:
415,109,212887,5,0,0:0:0:0:
253,53,213047,1,2,0:0:0:0:
301,294,213206,1,8,0:0:0:0:
109,223,213366,1,0,0:0:0:0:
109,223,213446,1,0,0:0:0:0:
109,223,213525,2,0,L|198:214,1,80.9999975280763,2|2,0:0|0:0,0:0:0:0:
360,201,213845,1,0,0:0:0:0:
493,121,214004,2,0,B|446:107|415:132|415:132|380:106|331:117,1,161.999995056153,8|2,0:0|0:0,0:0:0:0:
285,232,214483,6,0,P|333:280|427:249,1,161.999995056153,8|6,0:0|0:0,0:0:0:0:
232,128,214962,5,2,0:0:0:0:
183,287,215121,1,0,0:0:0:0:
128,179,215281,1,8,0:0:0:0:
297,71,215440,2,0,P|314:107|303:174,1,80.9999975280763,0|2,0:0|0:0,0:0:0:0:
102,297,215760,2,0,L|191:285,1,80.9999975280763,8|0,0:0|0:0,0:0:0:0:
26,177,216079,1,2,0:0:0:0:
127,40,216238,2,0,P|183:92|179:185,1,161.999995056153,2|8,0:0|0:0,0:0:0:0:
28,257,216717,2,0,L|25:162,1,80.9999975280763,0|2,0:0|0:0,0:0:0:0:
18,22,217036,1,8,0:0:0:0:
191,93,217196,5,0,0:0:0:0:
191,93,217275,1,0,0:0:0:0:
191,93,217355,2,0,P|191:140|180:186,1,80.9999975280763,2|0,0:3|0:0,0:0:0:0:
28,257,217674,1,2,0:0:0:0:
184,173,217834,1,0,0:0:0:0:
264,318,217994,1,2,0:0:0:0:
93,178,218153,5,0,0:0:0:0:
228,317,218313,1,2,0:0:0:0:
363,178,218472,1,0,0:0:0:0:
104,308,218632,5,2,0:0:0:0:
226,162,218791,1,0,0:0:0:0:
351,307,218951,1,2,0:0:0:0:
93,178,219111,1,2,0:0:0:0:
316,22,219270,1,2,0:0:0:0:
355,63,219350,1,2,0:0:0:0:
365,118,219430,1,2,0:0:0:0:
355,174,219510,1,2,0:0:0:0:
314,212,219589,1,2,0:0:0:0:
275,253,219669,1,2,0:0:0:0:
265,309,219749,1,2,0:0:0:0:
283,362,219828,1,2,0:0:0:0:
331,384,219908,6,0,P|348:342|341:296,1,80.9999975280763,2|0,0:0|0:0,0:0:0:0:
314,303,220228,2,0,L|183:292,1,107.999996704102,12|0,0:0|0:0,0:0:0:0:
40,277,220547,1,2,0:0:0:0:
183,93,220706,1,0,0:0:0:0:
194,128,220786,1,0,0:0:0:0:
205,164,220866,1,8,0:0:0:0:
274,375,221025,1,0,0:0:0:0:
145,275,221185,6,0,P|99:266|37:277,1,107.999996704102,2|0,0:0|0:0,0:0:0:0:
359,300,221504,2,0,P|407:300|468:270,1,107.999996704102,8|0,0:0|0:0,0:0:0:0:
368,75,221823,1,2,0:0:0:0:
185,296,221983,2,0,L|180:230,1,53.9999983520508
169,17,222142,1,8,0:0:0:0:
303,188,222302,1,0,0:0:0:0:
20,180,222462,6,0,P|69:157|141:155,1,107.999996704102,2|0,0:0|0:0,0:0:0:0:
301,280,222781,1,8,0:0:0:0:
122,152,222940,1,0,0:0:0:0:
320,59,223100,1,2,0:0:0:0:
193,274,223260,1,0,0:0:0:0:
339,27,223419,1,8,0:0:0:0:
438,235,223579,1,0,0:0:0:0:
195,211,223738,6,0,L|78:202,1,107.999996704102,2|0,0:0|0:0,0:0:0:0:
302,17,224057,2,0,L|288:152,1,107.999996704102,8|0,0:0|0:0,0:0:0:0:
429,342,224377,2,0,L|440:202,1,107.999996704102,2|0,0:0|0:0,0:0:0:0:
449,32,224696,1,8,0:0:0:0:
212,67,224855,1,0,0:0:0:0:
212,67,224935,1,0,0:0:0:0:
212,67,225015,1,2,0:0:0:0:
381,267,225174,5,0,0:0:0:0:
355,131,225334,1,8,0:0:0:0:
208,340,225494,1,0,0:0:0:0:
422,183,225653,1,2,0:0:0:0:
151,216,225813,1,0,0:0:0:0:
381,267,225972,1,8,0:0:0:0:
181,92,226132,5,0,0:0:0:0:
86,321,226291,1,2,0:0:0:0:
334,184,226451,5,0,0:0:0:0:
120,39,226610,1,8,0:0:0:0:
232,275,226770,5,0,0:0:0:0:
249,72,226929,1,2,0:0:0:0:
423,224,227089,6,0,L|475:212,1,49.5000015106202
249,72,227249,1,8,0:0:0:0:
110,319,227408,1,0,0:0:0:0:
110,319,227488,1,0,0:0:0:0:
110,319,227568,6,0,L|107:197,1,107.999996704102,2|0,0:0|0:0,0:0:0:0:
322,15,227887,2,0,L|325:139,1,107.999996704102,8|0,0:0|0:0,0:0:0:0:
196,269,228206,1,2,0:0:0:0:
363,124,228366,1,0,0:0:0:0:
142,29,228525,1,8,0:0:0:0:
126,308,228685,6,0,P|176:348|227:343,1,107.999996704102,0|2,0:0|0:0,0:0:0:0:
449,77,229004,2,0,L|443:210,1,107.999996704102,0|8,0:0|0:0,0:0:0:0:
430,364,229323,1,0,0:0:0:0:
160,232,229483,2,0,P|104:228|55:266,1,107.999996704102,2|0,0:0|0:0,0:0:0:0:
257,335,229802,5,8,0:0:0:0:
280,268,229882,1,8,0:0:0:0:
302,201,229962,1,8,0:0:0:0:
325,135,230041,1,8,0:0:0:0:
343,67,230121,6,0,L|366:185,1,107.999996704102,6|0,0:0|0:0,0:0:0:0:
217,332,230440,2,0,L|194:197,1,107.999996704102,8|0,0:0|0:0,0:0:0:0:
167,38,230760,1,2,0:0:0:0:
19,317,230919,2,0,L|99:305,1,53.9999983520508
298,261,231079,1,8,0:0:0:0:
78,153,231238,1,0,0:0:0:0:
285,19,231398,6,0,P|311:65|316:138,1,107.999996704102,2|0,0:0|0:0,0:0:0:0:
217,263,231717,2,0,P|236:212|285:180,1,107.999996704102,8|0,0:0|0:0,0:0:0:0:
472,240,232036,1,2,0:0:0:0:
259,367,232196,1,0,0:0:0:0:
259,367,232275,1,0,0:0:0:0:
259,367,232355,1,8,0:0:0:0:
211,89,232515,5,0,0:0:0:0:
106,326,232674,1,2,0:0:0:0:
360,241,232834,1,0,0:0:0:0:
74,155,232993,1,8,0:0:0:0:
369,330,233153,1,0,0:0:0:0:
87,239,233313,1,2,0:0:0:0:
351,152,233472,2,0,L|422:142,1,53.9999983520508
239,24,233632,1,8,0:0:0:0:
145,270,233791,1,0,0:0:0:0:
351,152,233951,5,2,0:0:0:0:
114,54,234111,1,0,0:0:0:0:
57,355,234270,1,8,0:0:0:0:
256,116,234430,1,0,0:0:0:0:
405,359,234589,2,0,L|278:352,1,107.999996704102,2|0,0:0|0:0,0:0:0:0:
183,162,234908,6,0,P|182:81|274:30,1,161.999995056153,8|0,0:0|0:0,0:0:0:0:
275,200,235228,2,0,P|220:196|176:147,1,107.999996704102,2|0,0:0|0:0,0:0:0:0:
66,22,235547,1,8,0:0:0:0:
6,252,235706,1,0,0:0:0:0:
6,252,235786,1,0,0:0:0:0:
6,252,235866,2,0,L|121:245,1,107.999996704102,2|0,0:0|0:0,0:0:0:0:
256,116,236185,1,8,0:0:0:0:
396,341,236345,5,0,0:0:0:0:
396,341,236424,1,0,0:0:0:0:
396,341,236504,2,0,L|409:225,1,107.999996704102,2|0,0:0|0:0,0:0:0:0:
263,8,236823,2,0,L|255:116,1,107.999996704102,8|0,0:0|0:0,0:0:0:0:
250,269,237142,1,2,0:0:0:0:
465,162,237302,1,0,0:0:0:0:
250,269,237462,2,0,L|127:261,1,107.999996704102,8|0,0:0|0:0,0:0:0:0:
64,150,237701,1,0,0:0:0:0:
64,150,237781,6,0,L|176:157,1,107.999996704102,2|0,0:0|0:0,0:0:0:0:
319,170,238100,1,8,0:0:0:0:
97,18,238260,1,0,0:0:0:0:
70,64,238339,1,0,0:0:0:0:
69,118,238419,1,2,0:0:0:0:
231,117,238579,5,0,0:0:0:0:
95,249,238738,1,8,0:0:0:0:
366,242,238898,1,0,0:0:0:0:
180,18,239057,1,2,0:0:0:0:
239,346,239217,5,0,0:0:0:0:
403,61,239377,1,12,0:0:0:0:
98,154,239536,1,0,0:0:0:0:
406,295,239696,1,8,3:0:0:0:
406,295,239775,1,8,3:0:0:0:
406,295,239855,1,8,3:0:0:0:
98,154,240015,5,8,0:0:0:0:
78,94,240095,1,2,0:0:0:0:
102,34,240174,1,2,0:0:0:0:
162,14,240254,1,2,0:0:0:0:
222,38,240334,2,0,L|217:133,1,90,6|0,0:0|0:0,0:0:0:0:
390,324,240653,2,0,L|395:229,1,90,8|0,0:0|0:0,0:0:0:0:
406,86,240972,1,2,0:0:0:0:
207,232,241132,1,0,0:0:0:0:
59,34,241291,2,0,L|156:38,1,90,8|0,0:0|0:0,0:0:0:0:
207,232,241610,5,2,0:0:0:0:
18,146,241770,1,0,0:0:0:0:
217,190,241930,5,8,0:0:0:0:
9,191,242090,1,0,0:0:0:0:
210,147,242249,5,2,0:0:0:0:
21,235,242409,1,0,0:0:0:0:
192,107,242568,5,8,0:0:0:0:
57,266,242728,1,0,0:0:0:0:
210,147,242887,5,2,0:0:0:0:
21,235,243047,1,0,0:0:0:0:
217,190,243206,5,8,0:0:0:0:
8,188,243366,1,0,0:0:0:0:
207,237,243525,5,2,0:0:0:0:
18,146,243685,1,0,0:0:0:0:
241,19,243844,1,8,0:0:0:0:
342,300,244004,1,0,0:0:0:0:
471,125,244164,2,0,P|432:117|378:116,1,90,2|0,0:0|0:0,0:0:0:0:
167,339,244483,6,0,P|214:340|259:326,1,90,8|0,0:0|0:0,0:0:0:0:
418,201,244802,1,2,0:0:0:0:
190,133,244961,1,0,0:0:0:0:
254,327,245121,1,8,0:0:0:0:
274,76,245281,1,0,0:0:0:0:
61,171,245440,6,0,L|66:279,1,90,2|0,0:0|0:0,0:0:0:0:
225,211,245759,2,0,L|229:312,1,90,8|0,0:0|0:0,0:0:0:0:
69,359,246078,1,2,0:0:0:0:
225,211,246238,1,0,0:0:0:0:
19,156,246398,1,8,0:0:0:0:
185,21,246557,1,0,0:0:0:0:
185,21,246637,1,0,0:0:0:0:
185,21,246717,2,0,P|215:58|223:113,1,90,2|0,0:0|0:0,0:0:0:0:
144,230,247036,2,0,P|143:190|177:142,1,90,8|0,0:0|0:0,0:0:0:0:
349,165,247355,5,2,0:0:0:0:
185,21,247515,1,0,0:0:0:0:
144,230,247674,1,8,0:0:0:0:
222,128,247834,1,0,0:0:0:0:
261,248,247993,5,2,0:0:0:0:
103,104,248153,1,0,0:0:0:0:
304,47,248313,1,8,0:0:0:0:
160,267,248472,1,0,0:0:0:0:
295,158,248632,1,2,0:0:0:0:
57,26,248791,2,0,P|20:88|66:189,1,180
295,158,249270,2,0,P|256:134|198:133,1,90,2|0,0:0|0:0,0:0:0:0:
56,182,249589,2,0,P|19:244|52:312,1,135,12|0,0:0|0:0,0:0:0:0:
68,332,249908,5,8,0:3:0:0:
112,341,249988,1,8,0:3:0:0:
156,333,250068,1,8,0:3:0:0:
186,299,250148,1,4,0:3:0:0:
204,286,250227,1,2,0:0:0:0:
226,281,250307,1,2,0:0:0:0:
248,281,250387,1,2,0:0:0:0:
269,289,250467,1,2,0:0:0:0:
282,306,250547,6,0,L|280:210,1,90,6|0,0:0|0:0,0:0:0:0:
77,94,250866,2,0,P|126:99|177:80,1,90,8|0,0:0|0:0,0:0:0:0:
353,36,251185,1,2,0:0:0:0:
164,88,251344,1,0,0:0:0:0:
315,245,251504,2,0,L|409:240,1,90,8|0,0:0|0:0,0:0:0:0:
282,128,251823,5,2,0:0:0:0:
176,343,251983,1,0,0:0:0:0:
66,125,252142,2,0,L|63:225,1,90,8|0,0:0|0:0,0:0:0:0:
46,359,252461,5,2,0:0:0:0:
176,343,252621,1,0,0:0:0:0:
63,214,252781,5,8,0:0:0:0:
198,307,252940,1,0,0:0:0:0:
160,132,253100,5,2,0:0:0:0:
239,292,253259,1,0,0:0:0:0:
290,119,253419,5,8,0:0:0:0:
282,305,253578,1,0,0:0:0:0:
418,187,253738,5,2,0:0:0:0:
239,292,253898,1,0,0:0:0:0:
214,53,254057,5,8,0:0:0:0:
176,343,254217,1,0,0:0:0:0:
391,207,254376,1,2,0:0:0:0:
111,117,254536,1,0,0:0:0:0:
298,17,254696,2,0,P|303:79|196:142,1,180,8|2,0:0|0:0,0:0:0:0:
51,36,255174,1,0,0:0:0:0:
84,250,255334,2,0,B|101:370|101:370|111:334|147:307,1,180,8|6,0:0|0:0,0:0:0:0:
294,283,255813,5,0,0:0:0:0:
416,137,255972,1,8,0:0:0:0:
390,324,256132,1,0,0:0:0:0:
267,188,256291,1,2,0:0:0:0:
131,320,256451,5,0,0:0:0:0:
400,227,256610,1,8,0:0:0:0:
146,152,256770,1,0,0:0:0:0:
327,70,256930,1,2,0:0:0:0:
163,19,257089,1,0,0:0:0:0:
84,205,257249,2,0,P|131:230|215:191,1,135,12|0,0:0|0:0,0:0:0:0:
328,25,257568,6,0,L|327:98,1,45,8|8,0:0|0:0,0:0:0:0:
447,256,257727,2,0,L|410:218,1,45,8|8,0:3|0:3,0:0:0:0:
204,256,257887,2,0,L|241:218,1,45,4|4,0:3|0:3,0:0:0:0:
448,84,258047,2,0,L|448:152,1,45,4|4,0:3|0:3,0:0:0:0:
446,341,258206,1,12,0:0:0:0:
356,326,258366,1,2,0:0:0:0:
268,308,258525,1,2,0:0:0:0:
120,134,258685,5,2,0:0:0:0:
207,154,258844,1,0,0:0:0:0:
293,178,259004,1,2,0:0:0:0:
268,308,259164,5,0,0:0:0:0:
293,178,259323,1,2,0:0:0:0:
356,326,259483,5,0,0:0:0:0:
207,154,259642,1,2,0:0:0:0:
129,364,259802,1,0,0:0:0:0:
226,273,259961,1,2,0:0:0:0:
