osu file format v14

[General]
AudioFilename: audio.mp3
AudioLeadIn: 0
PreviewTime: 133354
Countdown: 0
SampleSet: Soft
StackLeniency: 0.7
Mode: 0
LetterboxInBreaks: 0
WidescreenStoryboard: 1

[Editor]
Bookmarks: 21170,92342,235483
DistanceSpacing: 1
BeatDivisor: 4
GridSize: 4
TimelineZoom: 0.8

[Metadata]
Title:Hachigatsu no Yoru
TitleUnicode:Hachigatsu no Yoru
Artist:Silent Siren
ArtistUnicode:Silent Siren
Creator:TenkaiPalm
Version:Normal
Source:
Tags:Hachigatsu no Yoru 八月の夜 八月之夜
BeatmapID:971035
BeatmapSetID:452712

[Difficulty]
HPDrainRate:4
CircleSize:3.3
OverallDifficulty:3.7
ApproachRate:5
SliderMultiplier:1
SliderTickRate:1

[Events]
//Background and Video events
0,0,"Konachan.com - 218193 hatsune_miku saihate sakura_miku vocaloid.jpg",0,0
//Break Periods
2,82329,91780
2,168182,176995
2,239673,248486
//Storyboard Layer 0 (Background)
//Storyboard Layer 1 (Fail)
//Storyboard Layer 2 (Pass)
//Storyboard Layer 3 (Foreground)
//Storyboard Sound Samples

[TimingPoints]
745,319.155614973262,4,2,0,70,1,0
41596,-117.647058823529,4,2,0,70,0,0
62022,-100,4,2,0,70,0,1
82448,-100,4,2,0,70,0,0
113406,-117.647058823529,4,2,0,70,0,0
133513,-100,4,2,0,70,0,1
153939,-83.3333333333333,4,2,0,70,0,1
164152,-117.647058823529,4,2,0,70,0,1
167982,-100,4,2,0,70,0,0
185855,-133.333333333333,4,2,0,70,0,0
188408,-133.333333333333,4,2,0,70,0,0
208834,-117.647058823529,4,2,0,70,0,0
218409,-100,4,2,0,70,0,0
219366,-100,4,2,0,70,0,1
239473,-100,4,2,0,70,0,0
249686,-117.647058823529,4,2,0,70,0,0

[Colours]
Combo1 : 240,79,79
Combo2 : 253,217,236
Combo3 : 255,36,36
Combo4 : 250,138,90

[HitObjects]
120,188,21170,5,0,0:0:0:0:
124,88,21490,2,0,P|68:104|52:136,2,50,8|0|0,0:0|0:0|0:0,0:0:0:0:
172,104,22128,2,0,P|248:136|296:116,1,100,8|0,0:0|0:0,0:0:0:0:
352,96,22766,1,8,0:0:0:0:
464,264,23405,5,8,0:0:0:0:
368,204,23724,2,0,B|304:176|304:176|256:236,1,100,0|8,0:0|0:0,0:0:0:0:
236,300,24362,2,0,B|212:328|212:328|120:288,1,100,0|8,0:0|0:0,0:0:0:0:
100,216,25000,1,0,0:0:0:0:
168,140,25319,1,8,0:0:0:0:
84,84,25639,1,0,0:0:0:0:
184,68,25958,6,0,P|196:32|236:24,2,50,8|0|0,0:0|0:0|0:0,0:0:0:0:
220,160,26596,1,8,0:0:0:0:
128,124,26915,2,0,P|72:148|64:220,1,100,0|8,0:0|0:0,0:0:0:0:
156,200,27554,1,0,0:0:0:0:
88,276,27873,1,8,0:0:0:0:
184,300,28192,1,0,0:0:0:0:
272,180,28671,5,0,0:0:0:0:
272,180,28830,2,0,P|348:124|384:128,1,100,0|8,0:0|0:0,0:0:0:0:
400,208,29469,2,0,P|420:268|372:320,1,100,0|8,0:0|0:0,0:0:0:0:
284,208,30107,1,0,0:0:0:0:
196,328,30426,1,0,0:0:0:0:
332,264,30745,1,0,0:0:0:0:
192,208,31064,1,4,0:0:0:0:
264,136,31383,6,0,B|232:164|232:164|148:136,1,100,0|8,0:0|0:0,0:0:0:0:
88,104,32022,1,0,0:0:0:0:
84,252,32500,2,0,P|48:220|48:192,2,50
132,268,32979,1,0,0:0:0:0:
308,92,33777,5,0,0:0:0:0:
308,92,33937,2,0,P|396:72|424:88,1,100,0|8,0:0|0:0,0:0:0:0:
400,172,34575,2,0,B|400:248|372:268|416:296,1,100,0|8,0:0|0:0,0:0:0:0:
292,268,35213,1,0,0:0:0:0:
200,308,35532,1,8,0:0:0:0:
208,208,35852,1,0,0:0:0:0:
112,180,36171,5,8,0:0:0:0:
180,108,36490,2,0,B|208:120|208:120|204:172|204:172|260:196,1,100,0|8,0:0|0:0,0:0:0:0:
304,124,37128,1,0,0:0:0:0:
388,72,37447,2,0,P|424:136|420:188,1,100,8|0,0:0|0:0,0:0:0:0:
324,152,38086,2,0,P|296:220|316:280,1,100,8|0,0:0|0:0,0:0:0:0:
392,204,38724,5,8,0:0:0:0:
392,104,39043,1,0,0:0:0:0:
300,64,39362,1,8,0:0:0:0:
208,100,39681,2,0,P|208:72|180:56,3,50,0|0|8|0,0:0|0:0|0:0|0:0,0:0:0:0:
144,56,40320,1,0,0:0:0:0:
72,124,40639,1,8,0:0:0:0:
120,212,40958,1,0,0:0:0:0:
268,128,41596,6,0,P|328:104|336:108,1,42.5000008106232,4|0,0:0|0:0,0:0:0:0:
384,116,42075,2,0,P|416:176|408:204,1,85.0000016212464
408,232,42554,1,0,0:0:0:0:
336,276,42873,2,0,L|272:272,1,42.5000008106232
208,264,43352,2,0,P|224:216|272:184,1,85.0000016212464
288,176,43831,1,0,0:0:0:0:
228,116,44150,6,0,P|220:96|208:80,1,42.5000008106232
132,84,44629,2,0,P|124:152|156:172,1,85.0000016212464
156,196,45108,1,0,0:0:0:0:
240,184,45426,6,0,P|264:208|280:228,1,42.5000008106232
300,292,45905,2,0,P|356:284|384:260,1,85.0000016212464
404,236,46384,1,0,0:0:0:0:
320,216,46703,6,0,P|304:208|256:212,1,42.5000008106232,4|0,0:0|0:0,0:0:0:0:
196,208,47182,2,0,P|160:168|172:112,1,85.0000016212464
168,96,47661,1,0,0:0:0:0:
244,132,47980,6,0,P|304:140|320:144,1,42.5000008106232
312,208,48459,2,0,P|356:164|356:120,1,85.0000016212464
360,100,48938,1,0,0:0:0:0:
276,120,49256,6,0,P|216:132|208:136,1,42.5000008106232
164,172,49735,2,0,P|132:232|140:260,1,85.0000016212464
144,288,50214,1,0,0:0:0:0:
224,260,50533,5,0,0:0:0:0:
260,240,50693,2,0,P|253:186|226:154,1,85.0000016212464
196,88,51332,2,0,P|156:108|136:120,1,42.5000008106232
108,172,51809,6,0,P|112:208|136:236,1,42.5000008106232,4|0,0:0|0:0,0:0:0:0:
200,212,52288,2,0,P|208:276|176:300,1,85.0000016212464
164,312,52767,1,0,0:0:0:0:
84,288,53086,6,0,P|56:280|32:256,1,42.5000008106232
32,188,53565,2,0,P|88:152|124:152,1,85.0000016212464
144,152,54044,1,0,0:0:0:0:
228,152,54363,6,0,P|256:180|284:204,1,42.5000008106232
192,236,54842,2,0,P|240:272|264:272,1,85.0000016212464
304,272,55321,1,0,0:0:0:0:
368,216,55639,6,0,P|368:184|336:148,1,42.5000008106232
292,128,56118,2,0,P|228:120|192:140,1,85.0000016212464
168,140,56597,5,0,0:0:0:0:
224,256,57075,1,0,0:0:0:0:
180,260,57235,1,0,0:0:0:0:
140,256,57395,2,0,P|100:228|96:204,3,42.5000008106232
88,152,58193,2,0,B|64:144|64:144|136:80,1,85.0000016212464
192,100,58831,2,0,B|216:108|216:108|171:147,1,85.0000016212464
240,256,59469,6,0,L|252:152,1,85.0000016212464
284,148,59948,2,0,L|392:88,1,85.0000016212464
396,88,60427,1,0,0:0:0:0:
412,172,60746,2,0,L|480:136,2,42.5000008106232
380,196,61224,1,0,0:0:0:0:
204,248,61863,5,0,0:0:0:0:
204,248,62022,2,0,B|260:212|260:212|320:248,1,100,4|8,0:0|0:0,0:0:0:0:
372,284,62661,2,0,B|416:312|416:312|472:256,1,100,0|8,0:0|0:0,0:0:0:0:
420,184,63299,5,0,0:0:0:0:
332,132,63618,1,8,0:0:0:0:
332,184,63778,2,0,P|308:236|260:260,1,100
244,104,64416,5,0,0:0:0:0:
244,104,64576,2,0,P|180:156|176:208,1,100,0|8,0:0|0:0,0:0:0:0:
272,200,65214,2,0,P|276:256|236:308,1,100,0|8,0:0|0:0,0:0:0:0:
156,284,65852,1,0,0:0:0:0:
244,240,66171,1,8,0:0:0:0:
256,340,66491,1,0,0:0:0:0:
340,288,66810,1,8,0:0:0:0:
416,152,67288,2,2,L|372:112,1,50
280,140,67767,2,2,L|352:196,1,50
196,220,68246,6,0,L|152:180,2,50
240,248,68725,1,0,0:0:0:0:
288,264,68884,2,0,P|344:276|388:244,1,100
452,188,69523,5,0,0:0:0:0:
404,184,69682,2,0,P|360:160|348:100,1,100,0|8,0:0|0:0,0:0:0:0:
268,180,70320,6,0,P|312:224|312:264,1,100,0|8,0:0|0:0,0:0:0:0:
196,272,70959,1,0,0:0:0:0:
136,192,71278,1,8,0:0:0:0:
120,292,71597,1,0,0:0:0:0:
64,208,71916,1,8,0:0:0:0:
136,136,72235,5,4,0:0:0:0:
180,224,72555,2,0,P|236:276|288:268,1,100,8|0,0:0|0:0,0:0:0:0:
356,260,73193,1,8,0:0:0:0:
292,184,73512,5,0,0:0:0:0:
360,112,73832,2,0,L|316:56,2,50,8|0|0,0:0|0:0|0:0,0:0:0:0:
388,152,74310,1,0,0:0:0:0:
256,224,74789,6,0,P|304:176|288:112,1,100,0|8,0:0|0:0,0:0:0:0:
248,64,75427,2,0,P|196:104|192:156,1,100,0|8,0:0|0:0,0:0:0:0:
116,204,76065,1,0,0:0:0:0:
172,288,76384,1,8,0:0:0:0:
168,188,76704,1,0,0:0:0:0:
96,256,77023,1,8,0:0:0:0:
156,120,77501,6,2,L|212:176,1,50
292,152,77980,2,2,L|240:96,1,50
356,140,78459,6,0,L|384:84,2,50
348,188,78938,1,0,0:0:0:0:
336,236,79097,2,0,P|276:256|236:244,1,100
152,200,79736,5,0,0:0:0:0:
152,200,79895,2,0,P|88:180|92:144,1,100
180,124,80533,2,0,P|248:144|240:200,1,100
184,236,81172,1,0,0:0:0:0:
280,260,81491,1,0,0:0:0:0:
204,324,81810,1,0,0:0:0:0:
300,344,82129,1,0,0:0:0:0:
352,96,92980,5,8,0:0:0:0:
276,164,93299,2,0,P|236:192|176:172,1,100,0|8,0:0|0:0,0:0:0:0:
104,132,93937,2,0,P|80:112|44:116,2,50,0|0|8,0:0|0:0|0:0,0:0:0:0:
292,60,94895,5,8,0:0:0:0:
380,112,95215,2,0,P|416:172|408:232,1,100,0|8,0:0|0:0,0:0:0:0:
368,288,95853,2,0,P|288:260|248:284,1,100,0|8,0:0|0:0,0:0:0:0:
192,312,96491,1,0,0:0:0:0:
240,224,96810,1,8,0:0:0:0:
140,216,97129,1,0,0:0:0:0:
56,160,97449,6,0,L|-16:196,2,50,8|0|0,0:0|0:0|0:0,0:0:0:0:
128,92,98087,2,0,L|56:44,2,50,8|0|0,0:0|0:0|0:0,0:0:0:0:
220,128,98725,1,8,0:0:0:0:
288,56,99044,1,0,0:0:0:0:
320,152,99364,1,8,0:0:0:0:
376,72,99683,1,0,0:0:0:0:
408,220,100161,5,0,0:0:0:0:
408,220,100321,2,0,P|388:284|316:292,1,100,0|8,0:0|0:0,0:0:0:0:
264,280,100959,2,0,P|280:220|336:196,1,100,0|8,0:0|0:0,0:0:0:0:
396,152,101598,1,0,0:0:0:0:
300,184,101917,1,0,0:0:0:0:
364,108,102236,1,0,0:0:0:0:
376,208,102555,5,8,0:0:0:0:
300,272,102874,2,0,B|264:300|264:300|184:260,1,100,0|8,0:0|0:0,0:0:0:0:
264,188,103513,2,0,B|216:164|216:164|152:208,1,100,0|8,0:0|0:0,0:0:0:0:
92,244,104151,2,0,P|64:296|48:296,2,50,0|0|8,0:0|0:0|0:0,0:0:0:0:
40,156,104789,1,0,0:0:0:0:
136,180,105108,1,8,0:0:0:0:
68,104,105428,6,0,P|128:56|188:64,1,100,0|8,0:0|0:0,0:0:0:0:
112,148,106066,2,0,P|168:184|228:176,1,100,0|8,0:0|0:0,0:0:0:0:
268,112,106704,1,0,0:0:0:0:
312,200,107023,1,8,0:0:0:0:
224,152,107342,1,0,0:0:0:0:
316,116,107662,2,0,P|376:104|392:116,2,50,8|0|0,0:0|0:0|0:0,0:0:0:0:
344,212,108300,1,8,0:0:0:0:
244,216,108619,6,0,L|200:180,1,50
164,212,108938,2,0,L|116:180,1,50,8|0,0:0|0:0,0:0:0:0:
44,124,109417,1,0,0:0:0:0:
52,224,109736,5,0,0:0:0:0:
52,224,109896,2,0,P|76:268|128:280,1,100
232,256,110534,2,0,B|292:220|300:180|376:196,1,150
412,192,111172,1,0,0:0:0:0:
344,116,111491,1,0,0:0:0:0:
440,88,111811,1,0,0:0:0:0:
360,28,112130,1,0,0:0:0:0:
288,96,112449,6,0,P|240:112|204:112,1,50
208,76,112768,2,0,P|152:76|128:96,1,50,0|4,0:0|0:0,0:0:0:0:
112,84,113087,2,0,L|84:136,1,50
44,200,113566,2,0,P|104:216|140:208,1,85.0000016212464
168,204,114045,1,0,0:0:0:0:
124,276,114364,6,0,P|92:280|48:284,1,42.5000008106232
44,200,114843,2,0,P|100:164|132:164,1,85.0000016212464
160,160,115322,1,0,0:0:0:0:
220,192,115641,6,0,P|244:176|272:136,1,42.5000008106232
304,100,116120,2,0,P|372:88|412:112,1,85.0000016212464
428,108,116599,1,0,0:0:0:0:
408,192,116917,6,0,P|404:208|396:240,1,42.5000008106232
352,256,117396,2,0,B|320:284|320:284|244:264,1,85.0000016212464
240,256,117875,1,0,0:0:0:0:
164,220,118194,6,0,P|140:208|104:184,1,42.5000008106232,4|0,0:0|0:0,0:0:0:0:
208,164,118673,2,0,P|268:140|296:128,1,85.0000016212464
324,116,119152,1,0,0:0:0:0:
364,192,119470,6,0,P|348:224|336:248,1,42.5000008106232
288,292,119949,2,0,P|236:284|208:260,1,85.0000016212464
180,236,120428,1,0,0:0:0:0:
232,172,120747,6,0,P|236:152|216:116,1,42.5000008106232
152,92,121226,2,0,P|188:52|248:52,1,85.0000016212464
260,48,121705,1,0,0:0:0:0:
344,64,122024,6,0,L|376:32,1,42.5000008106232
372,144,122502,2,0,P|396:204|388:240,1,85.0000016212464
384,264,122981,1,4,0:0:0:0:
308,304,123300,6,0,P|272:296|232:312,1,42.5000008106232,4|0,0:0|0:0,0:0:0:0:
188,332,123779,2,0,P|140:340|100:324,1,85.0000016212464
68,308,124258,1,0,0:0:0:0:
84,224,124577,6,0,P|84:192|120:172,1,42.5000008106232
172,208,125056,2,0,P|212:168|212:112,1,85.0000016212464
148,148,125535,1,0,0:0:0:0:
96,80,125854,6,0,P|68:72|44:112,1,42.5000008106232
56,164,126333,2,0,P|60:224|88:272,1,85.0000016212464
92,284,126812,1,0,0:0:0:0:
176,268,127130,6,0,L|172:304,2,21.2500004053116
192,184,127609,2,0,B|200:136|200:136|264:120,1,85.0000016212464
276,120,128088,1,0,0:0:0:0:
400,88,128566,1,0,0:0:0:0:
400,88,128726,2,0,B|424:144|424:144|404:176,1,85.0000016212464
388,200,129205,2,0,B|352:240|352:240|376:264,1,85.0000016212464
396,300,129683,2,0,L|448:304,2,42.5000008106232
356,312,130162,1,0,0:0:0:0:
268,120,130960,6,0,L|256:224,1,85.0000016212464
224,228,131439,2,0,L|116:288,1,85.0000016212464
112,288,131918,1,0,0:0:0:0:
96,204,132237,2,0,L|28:240,2,42.5000008106232
100,120,132875,6,0,L|64:100,4,21.2500004053116
148,32,133513,2,0,B|220:72|220:72|212:120,1,100,4|8,0:0|0:0,0:0:0:0:
156,168,134152,1,0,0:0:0:0:
212,260,134471,5,8,0:0:0:0:
260,172,134790,2,0,P|312:208|368:188,1,100,0|8,0:0|0:0,0:0:0:0:
380,108,135428,2,0,B|376:72|376:72|352:56,1,50
268,44,135907,5,0,0:0:0:0:
268,44,136066,2,0,B|196:60|196:60|192:104,1,100,0|8,0:0|0:0,0:0:0:0:
288,120,136705,2,0,B|368:152|368:152|368:192,1,100,0|8,0:0|0:0,0:0:0:0:
276,208,137343,1,0,0:0:0:0:
372,240,137662,1,8,0:0:0:0:
276,272,137981,1,0,0:0:0:0:
372,300,138301,1,8,0:0:0:0:
376,152,138779,2,2,L|344:208,1,50
252,172,139258,2,2,L|296:100,1,50
352,60,139737,6,0,L|412:72,2,50
304,56,140216,1,0,0:0:0:0:
256,56,140375,2,0,P|192:56|156:80,1,100
24,136,141173,6,0,L|100:232,1,100,0|8,0:0|0:0,0:0:0:0:
152,140,141811,2,0,L|228:232,1,100,0|8,0:0|0:0,0:0:0:0:
212,116,142450,1,0,0:0:0:0:
276,192,142769,1,8,0:0:0:0:
296,96,143088,1,0,0:0:0:0:
208,140,143407,2,0,L|152:160,2,50,8|0|0,0:0|0:0|0:0,0:0:0:0:
288,200,144045,6,0,P|300:160|328:144,2,50,8|0|0,0:0|0:0|0:0,0:0:0:0:
388,200,144684,1,8,0:0:0:0:
356,104,145003,2,0,P|292:56|256:68,1,100,0|8,0:0|0:0,0:0:0:0:
184,88,145641,1,0,0:0:0:0:
276,124,145960,1,8,0:0:0:0:
184,160,146279,6,0,B|136:188|136:188|136:236,1,100,0|8,0:0|0:0,0:0:0:0:
236,228,146918,2,0,B|280:192|280:192|280:124,1,100,0|8,0:0|0:0,0:0:0:0:
192,100,147556,1,0,0:0:0:0:
288,68,147875,1,8,0:0:0:0:
268,164,148194,1,0,0:0:0:0:
240,68,148514,1,8,0:0:0:0:
100,120,148992,6,2,L|32:168,1,50
108,236,149471,2,2,L|152:300,1,50
212,212,149950,5,0,0:0:0:0:
212,212,150109,2,0,B|256:172|256:172|256:140,2,50
172,180,150588,2,0,B|128:128|128:128|160:84,1,100
296,84,151386,6,0,L|376:160,1,100
416,240,152024,2,0,P|364:280|316:280,1,100
240,244,152663,1,0,0:0:0:0:
332,208,152982,1,0,0:0:0:0:
264,132,153301,1,0,0:0:0:0:
344,72,153620,1,0,0:0:0:0:
260,56,153939,6,0,L|124:112,1,119.999996337891,4|8,0:0|0:0,0:0:0:0:
216,152,154578,2,0,L|348:96,1,119.999996337891,0|8,0:0|0:0,0:0:0:0:
332,188,155216,1,0,0:0:0:0:
276,248,155535,1,8,0:0:0:0:
288,164,155854,1,0,0:0:0:0:
344,228,156173,1,8,0:0:0:0:
260,232,156492,6,0,P|192:168|140:184,1,119.999996337891,0|8,0:0|0:0,0:0:0:0:
124,236,157131,2,0,P|144:304|212:324,1,119.999996337891,0|8,0:0|0:0,0:0:0:0:
268,308,157769,1,0,0:0:0:0:
216,244,158088,1,8,0:0:0:0:
296,224,158407,1,0,0:0:0:0:
236,164,158727,1,8,0:0:0:0:
256,84,159046,6,0,B|188:68|188:68|164:140,1,119.999996337891,0|8,0:0|0:0,0:0:0:0:
248,152,159684,2,0,B|236:204|236:204|148:184,1,119.999996337891,0|8,0:0|0:0,0:0:0:0:
92,164,160322,1,0,0:0:0:0:
124,88,160641,1,8,0:0:0:0:
172,160,160961,1,0,0:0:0:0:
100,120,161280,1,8,0:0:0:0:
88,204,161599,6,0,P|96:268|164:316,1,119.999996337891,0|8,0:0|0:0,0:0:0:0:
216,304,162237,2,0,P|276:280|300:224,1,119.999996337891,0|8,0:0|0:0,0:0:0:0:
256,160,162876,1,0,0:0:0:0:
208,92,163195,1,8,0:0:0:0:
160,160,163514,1,0,0:0:0:0:
116,88,163833,1,8,0:0:0:0:
116,88,164152,6,0,L|168:136,1,42.5000008106232
196,188,164631,2,0,B|248:224|248:224|288:212,1,85.0000016212464
308,228,165110,1,0,0:0:0:0:
368,168,165429,5,0,0:0:0:0:
368,168,165588,1,0,0:0:0:0:
332,92,165908,2,0,P|268:128|260:156,1,85.0000016212464
268,176,166386,1,0,0:0:0:0:
192,136,166705,6,0,P|152:100|132:96,2,42.5000008106232
224,168,167184,2,0,P|260:136|292:140,2,42.5000008106232
224,212,167663,1,0,0:0:0:0:
144,272,167982,1,4,0:0:0:0:
396,48,178195,6,0,P|432:104|416:168,1,100,0|8,0:0|0:0,0:0:0:0:
332,136,178833,2,0,P|356:208|408:220,1,100,0|8,0:0|0:0,0:0:0:0:
464,176,179472,1,0,0:0:0:0:
372,140,179791,1,8,0:0:0:0:
444,208,180110,1,0,0:0:0:0:
448,108,180429,1,8,0:0:0:0:
380,184,180748,6,0,P|316:228|256:232,1,100,0|8,0:0|0:0,0:0:0:0:
260,140,181387,2,0,P|192:152|160:196,1,100,0|8,0:0|0:0,0:0:0:0:
228,252,182025,1,0,0:0:0:0:
228,152,182344,1,8,0:0:0:0:
172,232,182663,1,0,0:0:0:0:
264,196,182982,1,8,0:0:0:0:
164,192,183302,6,0,L|80:264,1,100
172,312,183940,2,0,L|256:236,1,100
328,184,184578,1,0,0:0:0:0:
236,148,184897,1,0,0:0:0:0:
328,108,185216,1,0,0:0:0:0:
236,72,185536,1,0,0:0:0:0:
160,96,185855,5,4,0:0:0:0:
160,96,186014,2,0,B|120:148|120:148|120:184,1,75.0000028610231
100,188,186493,2,0,P|136:244|168:260,1,75.0000028610231
180,264,186972,1,0,0:0:0:0:
216,268,187131,2,0,B|276:276|276:276|268:200,1,112.500004291535
264,188,187770,1,0,0:0:0:0:
328,148,188089,1,0,0:0:0:0:
268,104,188408,5,4,0:0:0:0:
92,268,189685,1,0,0:0:0:0:
256,192,190323,12,0,193514,0:0:0:0:
408,88,194791,5,0,0:0:0:0:
172,132,196068,1,0,0:0:0:0:
108,60,198621,5,4,0:0:0:0:
80,124,198940,2,0,P|32:104|20:112,2,37.5000014305115
116,172,199578,1,0,0:0:0:0:
156,216,199898,5,0,0:0:0:0:
212,236,200217,2,0,P|232:264|264:280,2,37.5000014305115
252,192,200855,1,0,0:0:0:0:
212,148,201174,5,0,0:0:0:0:
172,104,201493,2,0,P|180:80|188:56,2,37.5000014305115
136,152,202132,1,0,0:0:0:0:
124,212,202451,5,0,0:0:0:0:
160,260,202770,2,0,P|188:284|220:296,2,37.5000014305115
188,204,203408,1,0,0:0:0:0:
136,172,203727,5,4,0:0:0:0:
164,120,204047,2,0,P|184:132|208:144,2,37.5000014305115
132,68,204685,1,0,0:0:0:0:
84,100,205004,5,0,0:0:0:0:
104,156,205323,2,0,L|76:184,2,37.5000014305115
144,112,205962,1,0,0:0:0:0:
192,148,206281,5,0,0:0:0:0:
268,148,206600,2,0,P|296:132|332:128,2,37.5000014305115
304,196,207238,1,0,0:0:0:0:
256,164,207557,5,0,0:0:0:0:
256,224,207876,2,0,L|296:260,2,37.5000014305115
196,220,208515,1,0,0:0:0:0:
252,180,208834,6,0,L|308:140,1,42.5000008106232,4|0,0:0|0:0,0:0:0:0:
288,88,209313,1,0,0:0:0:0:
228,116,209632,2,0,L|160:164,1,42.5000008106232
148,188,210111,6,0,L|92:148,1,42.5000008106232
72,216,210590,1,0,0:0:0:0:
40,276,210909,2,0,L|108:324,1,42.5000008106232
144,300,211387,6,0,L|192:256,1,42.5000008106232
224,224,211866,1,0,0:0:0:0:
272,176,212185,2,0,L|324:220,1,42.5000008106232
356,160,212664,6,0,B|396:116|392:120,1,42.5000008106232
376,60,213143,1,0,0:0:0:0:
308,68,213462,2,0,L|256:128,1,42.5000008106232
216,116,213940,6,0,L|180:84,1,42.5000008106232
128,124,214419,1,0,0:0:0:0:
72,164,214738,2,0,L|8:112,1,42.5000008106232
36,224,215217,6,0,L|0:196,2,42.5000008106232
112,260,215855,2,0,P|208:272|276:232,1,170.000003242493
352,104,218409,5,0,0:0:0:0:
296,216,219366,6,0,L|232:324,1,100,12|0,0:0|0:0,0:0:0:0:
108,240,220164,2,0,L|156:184,1,50
204,124,220643,2,0,P|224:88|256:92,2,50,8|0|0,0:0|0:0|0:0,0:0:0:0:
276,192,221281,1,8,0:0:0:0:
184,228,221600,5,0,0:0:0:0:
272,276,221919,1,8,0:0:0:0:
368,248,222238,2,0,P|436:184|428:148,1,100,0|8,0:0|0:0,0:0:0:0:
408,92,222877,2,0,P|356:128|304:96,1,100,0|8,0:0|0:0,0:0:0:0:
248,52,223515,1,0,0:0:0:0:
284,144,223834,1,8,0:0:0:0:
392,248,224313,6,2,L|360:192,1,50
268,212,224792,2,2,L|312:284,1,50
364,328,225271,6,0,L|424:316,2,50
316,336,225750,1,0,0:0:0:0:
268,344,225909,2,0,P|204:344|168:320,1,100
116,188,226707,6,0,P|128:124|172:108,1,100,0|8,0:0|0:0,0:0:0:0:
224,180,227345,2,0,P|272:120|248:68,1,100,0|8,0:0|0:0,0:0:0:0:
176,132,227983,1,0,0:0:0:0:
268,168,228302,1,8,0:0:0:0:
176,208,228622,1,0,0:0:0:0:
268,244,228941,1,8,0:0:0:0:
232,172,229260,5,0,0:0:0:0:
160,208,229579,2,0,B|120:232|120:232|152:292,1,100,8|0,0:0|0:0,0:0:0:0:
184,348,230217,1,8,0:0:0:0:
240,292,230537,5,0,0:0:0:0:
188,228,230856,2,0,B|156:180|156:180|216:120,1,100,8|0,0:0|0:0,0:0:0:0:
244,96,231494,1,8,0:0:0:0:
168,72,231813,6,0,L|104:56,2,50,0|0|8,0:0|0:0|0:0,0:0:0:0:
124,136,232451,2,0,L|196:160,2,50,0|0|8,0:0|0:0|0:0,0:0:0:0:
96,212,233090,1,0,0:0:0:0:
140,280,233409,1,8,0:0:0:0:
212,248,233728,1,0,0:0:0:0:
256,316,234047,1,8,0:0:0:0:
312,212,234526,6,2,L|336:168,1,50
256,164,235005,2,2,L|232:208,1,50
152,224,235484,6,0,L|192:272,2,50
124,196,235963,1,0,0:0:0:0:
100,164,236122,2,0,P|96:112|152:104,1,100
248,136,236920,6,0,P|280:176|348:184,1,100
320,108,237558,2,0,P|272:64|204:64,1,100
172,104,238196,1,0,0:0:0:0:
204,176,238515,1,0,0:0:0:0:
264,120,238835,1,0,0:0:0:0:
300,192,239154,1,0,0:0:0:0:
360,140,239473,1,4,0:0:0:0:
64,104,249686,6,0,L|112:200,1,85.0000016212464,0|8,0:0|0:0,0:0:0:0:
188,180,250324,2,0,L|148:96,1,85.0000016212464,0|8,0:0|0:0,0:0:0:0:
236,96,250963,6,0,L|336:60,1,85.0000016212464,0|8,0:0|0:0,0:0:0:0:
352,144,251601,2,0,L|396:248,1,85.0000016212464,0|8,0:0|0:0,0:0:0:0:
320,276,252239,6,0,L|216:316,1,85.0000016212464,0|8,0:0|0:0,0:0:0:0:
264,224,252877,2,0,L|160:264,1,85.0000016212464,0|8,0:0|0:0,0:0:0:0:
112,300,253516,6,0,L|112:204,1,85.0000016212464,0|8,0:0|0:0,0:0:0:0:
112,132,254154,2,0,L|200:132,1,85.0000016212464,0|8,0:0|0:0,0:0:0:0:
324,124,254952,1,0,0:0:0:0:
324,124,255112,2,0,B|300:184|300:184|328:212,1,85.0000016212464
356,200,255591,2,0,B|376:240|376:240|344:264,1,85.0000016212464
308,288,256069,2,0,L|332:328,2,42.5000008106232
268,276,256548,1,0,0:0:0:0:
260,200,257346,6,0,L|248:96,1,85.0000016212464
216,92,257825,2,0,L|108:32,1,85.0000016212464
104,32,258304,1,0,0:0:0:0:
88,116,258623,2,0,L|32:132,2,42.5000008106232
128,108,259101,1,0,0:0:0:0:
