osu file format v14

[General]
AudioFilename: audio.mp3
AudioLeadIn: 0
PreviewTime: 133354
Countdown: 0
SampleSet: Soft
StackLeniency: 0.7
Mode: 0
LetterboxInBreaks: 0
WidescreenStoryboard: 1

[Editor]
Bookmarks: 21170,92342,210749,235483
DistanceSpacing: 1.5
BeatDivisor: 4
GridSize: 4
TimelineZoom: 0.8999999

[Metadata]
Title:Hachigatsu no Yoru
TitleUnicode:Hachigatsu no Yoru
Artist:Silent Siren
ArtistUnicode:Silent Siren
Creator:TenkaiPalm
Version:Insane
Source:
Tags:Hachigatsu no Yoru 八月の夜 八月之夜
BeatmapID:971034
BeatmapSetID:452712

[Difficulty]
HPDrainRate:6
CircleSize:3.5
OverallDifficulty:6.5
ApproachRate:8.4
SliderMultiplier:1.6
SliderTickRate:2

[Events]
//Background and Video events
0,0,"Konachan.com - 218193 hatsune_miku saihate sakura_miku vocaloid.jpg",0,0
//Break Periods
2,82648,92276
2,168182,177491
2,239673,248982
//Storyboard Layer 0 (Background)
//Storyboard Layer 1 (Fail)
//Storyboard Layer 2 (Pass)
//Storyboard Layer 3 (Foreground)
//Storyboard Sound Samples

[TimingPoints]
745,319.155614973262,4,2,0,70,1,0
41596,-117.647058823529,4,2,0,70,0,0
62022,-100,4,2,0,70,0,1
82448,-100,4,2,0,70,0,0
113087,-117.647058823529,4,2,0,70,0,0
133513,-100,4,2,0,70,0,1
153939,-86.9565217391304,4,2,0,70,0,1
164152,-117.647058823529,4,2,0,70,0,1
167982,-100,4,2,0,70,0,0
185855,-133.333333333333,4,2,0,70,0,0
188408,-133.333333333333,4,2,0,70,0,0
208834,-117.647058823529,4,2,0,70,0,0
218409,-100,4,2,0,70,0,0
219366,-100,4,2,0,70,0,1
239473,-100,4,2,0,70,0,0
249686,-100,4,2,0,70,0,0

[Colours]
Combo1 : 240,79,79
Combo2 : 253,217,236
Combo3 : 255,36,36
Combo4 : 250,138,90

[HitObjects]
124,136,21490,6,0,L|88:216,1,80,8|0,0:0|0:0,0:0:0:0:
236,216,21809,2,0,P|256:175|228:120,1,80
144,144,22128,2,0,B|136:200|136:200|216:316,1,160,8|0,0:0|0:0,0:0:0:0:
256,180,22607,1,0,0:0:0:0:
256,300,22766,1,8,0:0:0:0:
364,308,22926,6,0,P|432:304|432:212,1,160
356,144,23405,2,0,P|304:160|304:216,1,80,8|0,0:0|0:0,0:0:0:0:
324,296,23724,1,0,0:0:0:0:
444,276,23884,1,0,0:0:0:0:
332,232,24043,1,8,0:0:0:0:
396,332,24203,5,0,0:0:0:0:
420,220,24362,1,0,0:0:0:0:
332,300,24522,1,0,0:0:0:0:
424,224,24681,5,8,0:0:0:0:
304,220,24841,1,0,0:0:0:0:
392,300,25000,2,0,P|436:344|484:352,2,80,0|0|8,0:0|0:0|0:0,0:0:0:0:
360,184,25479,2,0,P|328:124|296:112,1,80
100,216,25958,5,8,0:0:0:0:
196,148,26117,1,0,0:0:0:0:
160,264,26277,1,0,0:0:0:0:
276,240,26437,6,2,P|240:168|156:144,1,160,0|0,0:0|0:0,0:0:0:0:
160,264,26915,1,0,0:0:0:0:
268,320,27075,6,2,B|348:352|348:352|404:300,1,160
400,180,27554,1,0,0:0:0:0:
400,180,27634,1,0,0:0:0:0:
400,180,27714,6,0,P|352:116|324:112,1,80,0|8,0:0|0:0,0:0:0:0:
272,204,28032,2,0,B|248:192|248:192|228:212|228:212|176:184,1,80
196,320,28351,1,0,0:0:0:0:
92,260,28510,1,8,0:0:0:0:
128,376,28671,1,0,0:0:0:0:
156,260,28830,2,0,P|176:172|256:116,1,160,0|8,0:0|0:0,0:0:0:0:
276,236,29309,1,0,0:0:0:0:
336,360,29469,2,0,P|396:284|368:200,1,160,0|8,0:0|0:0,0:0:0:0:
148,176,30107,5,0,0:0:0:0:
383,210,30426,1,0,0:0:0:0:
144,236,30745,1,0,0:0:0:0:
360,132,31064,1,0,0:0:0:0:
172,280,31383,5,0,0:0:0:0:
292,260,31543,2,0,P|292:220|276:180,1,80,0|8,0:0|0:0,0:0:0:0:
184,104,31862,2,0,P|179:133|184:188,1,80
280,252,32181,2,0,P|320:260|358:251,1,80,0|8,0:0|0:0,0:0:0:0:
356,132,32500,5,0,0:0:0:0:
356,132,32580,1,0,0:0:0:0:
356,132,32660,2,0,L|276:144,2,80,0|0|8,0:0|0:0|0:0,0:0:0:0:
180,88,33139,5,0,0:0:0:0:
140,200,33298,1,0,0:0:0:0:
232,124,33458,1,0,0:0:0:0:
116,92,33618,1,8,0:0:0:0:
196,180,33777,1,0,0:0:0:0:
212,60,33937,2,0,P|272:48|300:56,2,80,0|0|8,0:0|0:0|0:0,0:0:0:0:
264,168,34415,1,0,0:0:0:0:
328,268,34575,2,0,P|264:288|224:264,2,80,0|0|8,0:0|0:0|0:0,0:0:0:0:
152,104,35213,6,0,B|108:128|96:168|96:168|140:192|144:256,1,160,0|8,0:0|0:0,0:0:0:0:
244,168,35692,1,0,0:0:0:0:
344,104,35852,2,0,B|342:136|386:160|386:160|374:200|332:223,1,160,0|8,0:0|0:0,0:0:0:0:
144,72,36490,6,0,P|77:82|0:24,1,160,0|8,0:1|0:0,0:0:0:0:
36,148,36969,1,0,0:0:0:0:
156,156,37128,2,0,P|168:188|152:240,1,80,0|0,0:1|0:1,0:0:0:0:
232,328,37447,1,8,0:0:0:0:
224,208,37607,1,0,0:0:0:0:
280,316,37767,1,0,0:0:0:0:
268,196,37926,6,2,P|344:180|412:240,1,160,0|0,0:1|0:0,0:0:0:0:
404,348,38405,1,0,0:0:0:0:
352,240,38564,1,0,0:1:0:0:
316,356,38724,1,0,0:1:0:0:
264,248,38884,1,0,0:0:0:0:
312,140,39043,5,0,0:0:0:0:
236,48,39203,2,2,P|168:80|168:176,1,160
244,280,39681,2,2,P|294:265|316:164,1,160
200,180,40160,1,0,0:0:0:0:
304,120,40320,1,0,0:0:0:0:
184,128,40479,6,0,P|136:132|80:136,2,80
272,212,40958,2,0,P|316:244|368:236,1,80,0|0,0:0|0:0,0:0:0:0:
340,245,41197,1,0,0:0:0:0:
340,245,41277,1,0,0:0:0:0:
360,128,41437,1,0,0:0:0:0:
264,164,41596,5,4,0:0:0:0:
188,232,41756,2,0,B|152:240|152:240|156:180|156:180|88:196,1,136.000002593994,0|0,0:0|0:0,0:0:0:0:
48,112,42235,2,0,P|88:84|200:80,1,136.000002593994
244,164,42713,1,0,0:0:0:0:
128,156,42873,1,0,0:0:0:0:
212,76,43033,2,0,P|275:95|320:152,1,136.000002593994
248,252,43511,6,0,P|256:219|241:190,1,68.0000012969971
156,132,43831,2,0,P|144:172|156:200,1,68.0000012969971,0|0,0:0|0:0,0:0:0:0:
264,164,44150,1,0,0:0:0:0:
308,272,44309,1,0,0:0:0:0:
324,156,44469,1,0,0:0:0:0:
220,204,44628,1,0,0:0:0:0:
176,96,44788,6,0,P|192:48|236:36,1,68.0000012969971
116,116,45107,2,0,P|108:148|76:176,1,68.0000012969971
164,256,45426,2,0,P|128:264|108:268,2,34.0000006484985
244,172,45745,1,0,0:0:0:0:
236,288,45905,2,0,P|316:328|376:312,1,136.000002593994
320,212,46384,1,0,0:0:0:0:
436,196,46543,1,0,0:0:0:0:
332,144,46703,5,4,0:0:0:0:
392,44,46863,2,0,B|416:84|416:84|372:88|372:88|400:128,1,136.000002593994
428,236,47341,2,0,P|436:288|424:308,1,68.0000012969971
320,268,47660,1,0,0:0:0:0:
320,268,47740,1,0,0:0:0:0:
320,268,47820,1,0,0:0:0:0:
396,184,47980,1,0,0:0:0:0:
332,88,48140,2,0,P|289:50|212:60,1,136.000002593994
248,168,48618,6,0,P|299:156|319:133,1,68
228,232,48938,2,0,P|177:244|157:267,1,68
272,300,49257,1,0,0:0:0:0:
384,328,49416,1,0,0:0:0:0:
272,356,49576,1,0,0:0:0:0:
320,252,49735,1,0,0:0:0:0:
232,180,49895,6,0,P|208:132|216:100,1,68.0000012969971
320,92,50214,2,0,P|315:58|296:30,1,68.0000012969971
184,56,50533,2,0,P|204:32|220:8,2,34.0000006484985
276,128,50852,1,0,0:0:0:0:
172,176,51012,2,0,P|196:232|272:260,1,136.000002593994
376,268,51491,1,4,0:0:0:0:
268,312,51650,1,0,0:0:0:0:
344,224,51809,5,4,0:0:0:0:
236,188,51969,2,0,P|144:168|92:204,1,136.000002593994
176,280,52447,2,0,P|184:332|172:352,1,68.0000012969971
92,268,52766,1,0,0:0:0:0:
92,268,52846,1,0,0:0:0:0:
92,268,52926,1,0,0:0:0:0:
180,196,53086,1,0,0:0:0:0:
76,140,53246,2,0,P|116:96|212:84,1,136.000002593994
248,168,53724,6,0,P|299:156|319:133,1,68,0|0,0:0|0:0,0:0:0:0:
236,236,54044,2,0,P|185:248|165:271,1,68
324,296,54363,1,0,0:0:0:0:
440,276,54523,1,0,0:0:0:0:
332,232,54682,1,0,0:0:0:0:
392,332,54842,5,0,0:0:0:0:
424,224,55001,1,0,0:0:0:0:
324,296,55161,1,0,0:0:0:0:
424,224,55320,5,0,0:0:0:0:
304,220,55480,1,0,0:0:0:0:
412,176,55639,1,0,0:0:0:0:
412,176,55719,1,0,0:0:0:0:
412,176,55799,1,0,0:0:0:0:
300,144,55958,2,0,B|244:120|212:168|168:112|164:112,1,136.000002593994
64,72,56437,1,0,0:0:0:0:
172,52,56597,5,0,0:0:0:0:
160,152,56756,2,0,P|176:220|252:260,1,136.000002593994
328,280,57235,1,0,0:0:0:0:
280,192,57395,2,0,P|244:176|208:144,2,68.0000012969971
380,200,57873,5,0,0:0:0:0:
392,300,58033,1,0,0:0:0:0:
392,300,58113,1,0,0:0:0:0:
392,300,58193,1,0,0:0:0:0:
316,232,58352,2,0,P|288:180|344:120,1,136.000002593994
436,76,58831,1,0,0:0:0:0:
324,60,58990,1,0,0:0:0:0:
436,24,59150,1,0,0:0:0:0:
364,112,59310,1,0,0:0:0:0:
228,88,59469,6,0,L|136:56,2,68.0000012969971
288,212,59948,2,0,L|208:244,1,68.0000012969971
352,188,60267,1,0,0:0:0:0:
480,140,60427,2,0,L|424:200,1,68.0000012969971
360,260,60746,1,0,0:0:0:0:
416,136,60905,1,0,0:0:0:0:
464,264,61065,1,0,0:0:0:0:
356,180,61224,1,0,0:0:0:0:
156,336,61863,5,0,0:0:0:0:
268,296,62022,2,0,P|319:248|316:152,1,160,4|8,0:0|0:0,0:0:0:0:
240,204,62501,2,0,P|197:203|152:185,1,80,0|0,0:0|0:0,0:0:0:0:
88,120,62820,1,0,0:0:0:0:
104,240,62980,1,8,0:0:0:0:
188,156,63139,1,0,0:0:0:0:
72,184,63299,6,0,P|56:252|72:288,1,80
57,259,63538,1,0,0:0:0:0:
57,259,63618,1,8,0:0:0:0:
156,192,63777,1,0,0:0:0:0:
252,268,63937,1,0,0:0:0:0:
140,304,64096,1,0,0:0:0:0:
232,224,64256,1,8,0:0:0:0:
136,152,64416,5,0,0:0:0:0:
220,64,64576,2,0,P|252:36|292:56,2,80,0|0|8,0:0|0:0|0:0,0:0:0:0:
160,168,65054,1,0,0:0:0:0:
148,288,65214,2,0,P|76:276|76:260,2,80,0|0|8,0:0|0:0|0:0,0:0:0:0:
216,188,65693,1,0,0:0:0:0:
104,228,65852,6,0,P|48:202|40:100,1,160,0|8,0:0|0:0,0:0:0:0:
128,188,66331,1,0,0:0:0:0:
172,76,66491,2,0,B|177:119|177:119|188:132|188:132|212:148,1,80,0|0,0:0|0:0,0:0:0:0:
308,80,66810,1,8,0:0:0:0:
260,188,66969,1,0,0:0:0:0:
244,68,67129,1,0,0:0:0:0:
160,152,67288,5,0,0:0:0:0:
160,152,67368,1,0,0:0:0:0:
160,152,67448,1,8,0:0:0:0:
276,120,67608,1,0,0:0:0:0:
340,220,67767,2,0,P|348:276|328:324,2,80,0|0|8,0:0|0:0|0:0,0:0:0:0:
220,244,68246,6,0,P|188:256|164:264,2,40
328,188,68565,2,0,P|324:136|284:104,1,80,0|8,0:0|0:0,0:0:0:0:
208,184,68884,2,0,P|212:260|312:292,1,160
160,312,69363,1,8,0:0:0:0:
260,244,69523,1,0,0:0:0:0:
376,216,69682,6,0,P|396:264|356:364,1,160,0|8,0:0|0:0,0:0:0:0:
436,268,70161,1,0,0:0:0:0:
372,168,70320,2,0,P|364:128|396:84,1,80,0|0,0:0|0:0,0:0:0:0:
268,200,70640,1,8,0:0:0:0:
188,108,70799,5,0,0:0:0:0:
268,200,70959,2,0,L|340:280,1,80,0|0,0:0|0:0,0:0:0:0:
204,228,71278,5,8,0:0:0:0:
292,148,71438,2,0,L|368:76,1,80,0|0,0:0|0:0,0:0:0:0:
260,172,71757,5,0,0:0:0:0:
340,260,71916,1,8,0:0:0:0:
340,260,71996,1,0,0:0:0:0:
340,260,72076,2,0,L|384:296,2,40,0|0|4,0:0|0:0|0:0,0:0:0:0:
248,184,72395,1,0,0:0:0:0:
164,268,72555,6,0,P|120:312|84:304,2,80,8|0|0,0:0|0:0|0:0,0:0:0:0:
160,148,73033,5,0,0:0:0:0:
228,248,73193,1,8,0:0:0:0:
316,164,73352,2,0,L|396:152,1,80
300,80,73671,2,0,L|220:88,1,80,0|8,0:0|0:0,0:0:0:0:
108,132,73991,1,0,0:0:0:0:
108,132,74071,1,0,0:0:0:0:
108,132,74150,2,0,P|181:185|189:181,1,80
256,128,74469,2,0,P|308:160|300:208,1,80,8|0,0:0|0:0,0:0:0:0:
336,292,74789,6,0,P|264:300|200:240,1,160,0|8,0:0|0:0,0:0:0:0:
168,128,75268,1,0,0:0:0:0:
276,180,75427,2,0,L|388:196,1,80,0|0,0:0|0:0,0:0:0:0:
355,191,75666,1,0,0:0:0:0:
355,191,75746,1,8,0:0:0:0:
240,224,75906,1,0,0:0:0:0:
328,308,76065,6,0,L|228:292,2,80,0|0|8,0:0|0:0|0:0,0:0:0:0:
236,232,76544,1,0,0:0:0:0:
148,312,76704,2,0,L|180:200,1,80,0|0,0:0|0:0,0:0:0:0:
56,272,77023,2,0,P|28:196|100:144,1,160,8|0,0:0|0:0,0:0:0:0:
156,236,77501,5,0,0:0:0:0:
156,236,77581,1,0,0:0:0:0:
156,236,77661,1,8,0:0:0:0:
240,148,77821,1,0,0:0:0:0:
332,224,77980,2,0,P|340:280|320:328,2,80,0|0|8,0:0|0:0|0:0,0:0:0:0:
220,184,78459,6,0,P|238:177|257:170,2,40
120,248,78778,2,0,P|116:304|140:320,1,80,0|8,0:0|0:0,0:0:0:0:
144,196,79097,2,0,P|212:212|248:304,1,160
148,352,79576,1,8,0:0:0:0:
180,236,79736,1,0,0:0:0:0:
68,200,79895,2,0,L|32:224,2,40
160,120,80214,1,0,0:0:0:0:
120,232,80374,1,0,0:0:0:0:
88,116,80533,1,0,0:0:0:0:
172,204,80693,5,0,0:0:0:0:
216,92,80853,1,0,0:0:0:0:
124,168,81012,2,0,L|76:268,1,80
196,180,81331,1,0,0:0:0:0:
76,196,81491,1,0,0:0:0:0:
156,284,81650,2,0,P|199:290|256:260,1,80
196,180,81970,1,0,0:0:0:0:
316,192,82129,2,0,P|288:116|220:76,1,160,0|4,0:0|0:0,0:0:0:0:
236,216,92980,6,0,P|256:175|228:120,1,80,8|0,0:0|0:0,0:0:0:0:
156,68,93300,2,0,L|120:148,1,80
112,260,93618,2,0,B|132:232|132:232|200:352,1,160,8|0,0:0|0:0,0:0:0:0:
204,220,94097,1,0,0:0:0:0:
260,328,94257,1,8,0:0:0:0:
264,208,94417,6,0,P|284:148|384:132,1,160,0|0,0:0|0:0,0:0:0:0:
424,232,94895,2,0,P|398:223|352:176,1,80,8|0,0:0|0:0,0:0:0:0:
240,184,95215,5,0,0:0:0:0:
292,292,95374,1,0,0:0:0:0:
368,200,95534,1,8,0:0:0:0:
248,216,95693,1,0,0:0:0:0:
360,264,95853,1,0,0:0:0:0:
320,148,96013,1,0,0:0:0:0:
256,248,96172,1,8,0:0:0:0:
212,136,96332,1,0,0:0:0:0:
144,236,96491,2,0,L|156:156,2,80,0|0|8,0:0|0:0|0:0,0:0:0:0:
24,216,96970,2,0,L|4:328,1,80
132,268,97289,5,0,0:0:0:0:
152,148,97448,1,8,0:0:0:0:
228,240,97608,1,0,0:0:0:0:
328,308,97768,6,0,P|408:264|396:188,1,160,0|8,0:0|0:0,0:0:0:0:
300,256,98246,1,0,0:0:0:0:
368,156,98406,6,0,B|400:112|400:112|288:84,1,160,0|8,0:0|0:0,0:0:0:0:
204,152,98885,1,0,0:0:0:0:
204,152,98965,1,0,0:0:0:0:
204,152,99045,6,0,P|256:176|304:196,1,80,0|0,0:0|0:0,0:0:0:0:
172,244,99364,2,0,L|76:276,2,80,8|0|0,0:0|0:0|0:0,0:0:0:0:
288,216,99842,1,0,0:0:0:0:
188,152,100002,1,8,0:0:0:0:
200,272,100162,1,0,0:0:0:0:
100,204,100321,2,2,P|100:136|180:80,1,160
172,204,100800,1,0,0:0:0:0:
180,324,100960,2,2,P|240:248|240:164,1,160
16,260,101598,5,0,0:0:0:0:
228,148,101917,1,0,0:0:0:0:
8,32,102236,1,0,0:0:0:0:
132,236,102555,1,4,0:0:0:0:
320,88,102874,5,0,0:0:0:0:
424,148,103034,2,0,P|420:184|380:228,1,80,0|8,0:0|0:0,0:0:0:0:
276,216,103353,2,0,P|256:240|252:312,1,80
156,208,103672,2,0,P|120:180|60:164,1,80,0|8,0:0|0:0,0:0:0:0:
144,64,103991,5,0,0:0:0:0:
144,64,104071,1,0,0:0:0:0:
144,64,104151,2,0,L|248:56,2,80,0|0|8,0:0|0:0|0:0,0:0:0:0:
20,72,104630,5,0,0:0:0:0:
136,108,104790,1,0,0:0:0:0:
76,212,104949,1,0,0:0:0:0:
188,256,105109,1,8,0:0:0:0:
88,320,105268,1,0,0:0:0:0:
144,212,105428,2,0,P|120:244|84:276,2,80,0|0|8,0:0|0:0|0:0,0:0:0:0:
196,104,105906,1,0,0:0:0:0:
76,76,106066,2,0,P|92:136|56:164,2,80,0|0|8,0:0|0:0|0:0,0:0:0:0:
196,104,106545,1,0,0:0:0:0:
316,68,106704,6,2,P|336:152|420:220,1,160
264,200,107183,1,0,0:0:0:0:
144,196,107342,2,2,P|197:254|213:331,1,160
100,292,107821,6,0,P|48:252|56:220,2,80
220,228,108300,1,0,0:0:0:0:
440,72,108619,6,0,P|492:112|484:144,2,80
348,148,109098,1,0,0:0:0:0:
356,28,109257,1,0,0:0:0:0:
236,20,109417,2,0,P|136:64|136:128,1,160
132,224,109896,1,0,0:0:0:0:
132,224,109976,1,0,0:0:0:0:
132,224,110055,2,0,P|184:260|224:256,2,80
44,304,110534,2,0,P|16:224|50:145,1,160,0|0,0:0|0:0,0:0:0:0:
156,124,111013,5,0,0:0:0:0:
272,96,111172,1,0,0:3:0:0:
248,212,111332,1,0,0:3:0:0:
212,96,111492,1,0,0:3:0:0:
300,176,111651,1,0,0:3:0:0:
188,224,111811,1,0,0:0:0:0:
292,280,111970,1,0,0:3:0:0:
244,172,112130,1,0,0:3:0:0:
220,292,112290,1,0,0:3:0:0:
328,240,112449,1,0,0:3:0:0:
180,156,112609,5,0,0:0:0:0:
160,144,112768,1,0,0:0:0:0:
140,132,112928,1,0,0:0:0:0:
124,120,113087,1,4,0:0:0:0:
44,184,113247,6,0,B|81:192|81:192|76:264|76:264|128:276,1,136.000002593994,0|0,0:0|0:0,0:0:0:0:
192,320,113726,2,0,P|252:328|324:272,1,136.000002593994,0|0,0:0|0:0,0:0:0:0:
232,228,114204,1,0,0:0:0:0:
320,176,114364,1,0,0:0:0:0:
232,128,114523,2,0,P|169:147|140:207,1,136,0|0,0:0|0:0,0:0:0:0:
248,264,115002,6,0,P|224:236|224:192,1,68.0000012969971,0|0,0:0|0:0,0:0:0:0:
292,112,115322,2,0,P|312:140|312:180,1,68.0000012969971
200,152,115641,1,0,0:0:0:0:
248,264,115800,1,0,0:0:0:0:
156,196,115960,1,0,0:0:0:0:
264,152,116119,1,0,0:0:0:0:
208,256,116279,6,0,P|188:280|136:304,1,68.0000012969971
60,236,116598,2,0,P|28:252|20:296,1,68.0000012969971
112,348,116917,2,0,P|92:332|80:320,2,34.0000006484985
180,252,117236,1,0,0:0:0:0:
268,328,117396,2,0,P|312:356|392:312,1,136.000002593994
300,248,117875,1,0,0:0:0:0:
400,192,118034,1,0,0:0:0:0:
300,136,118194,5,0,0:0:0:0:
416,124,118353,2,0,L|500:152,2,68.0000012969971
328,48,118833,2,0,P|248:24|248:24,1,68.0000012969971
262,28,119071,1,0,0:0:0:0:
262,28,119151,1,0,0:0:0:0:
192,120,119311,1,0,0:0:0:0:
296,148,119471,1,0,0:0:0:0:
200,212,119630,2,0,B|136:260|136:260,2,68.0000012969971
296,148,120109,6,0,P|316:148|348:196,1,68.0000012969971
424,268,120429,2,0,P|400:296|372:328,1,68.0000012969971
316,224,120748,1,0,0:0:0:0:
236,304,120907,1,0,0:0:0:0:
248,188,121067,1,0,0:0:0:0:
168,272,121226,1,0,0:0:0:0:
172,156,121386,6,0,P|156:184|104:208,1,68.0000012969971
48,272,121705,2,0,P|16:288|8:332,1,68.0000012969971
116,348,122024,2,0,P|80:360|64:368,2,34.0000006484985
228,316,122343,1,0,0:0:0:0:
340,284,122503,2,0,P|388:268|432:192,1,136.000002593994
316,196,122982,1,0,0:0:0:0:
400,120,123141,1,0,0:0:0:0:
284,128,123300,5,4,0:0:0:0:
200,208,123459,2,0,L|284:236,2,68.0000012969971
244,100,123939,2,0,P|164:76|164:76,1,68.0000012969971
178,80,124177,1,0,0:0:0:0:
178,80,124257,1,0,0:0:0:0:
96,164,124417,1,0,0:0:0:0:
212,180,124577,1,0,0:0:0:0:
116,248,124736,2,0,B|52:296|52:296,2,68.0000012969971
232,260,125215,6,0,P|208:232|208:188,1,68.0000012969971
320,208,125535,2,0,P|340:236|340:276,1,68.0000012969971
228,292,125854,1,0,0:0:0:0:
156,200,126013,1,0,0:0:0:0:
260,252,126173,1,0,0:0:0:0:
160,308,126332,1,0,0:0:0:0:
96,212,126492,6,0,L|148:144,1,68.0000012969971
104,48,126811,2,0,L|56:112,1,68.0000012969971
180,88,127130,2,0,L|224:116,2,34.0000006484985
200,204,127449,1,0,0:0:0:0:
280,120,127609,2,0,P|320:148|348:144,2,68.0000012969971
192,44,128088,5,0,0:0:0:0:
140,148,128247,2,0,P|104:180|84:200,2,68.0000012969971
228,72,128726,1,0,0:0:0:0:
320,140,128885,1,0,0:0:0:0:
304,24,129045,1,0,0:0:0:0:
232,144,129205,1,0,0:0:0:0:
340,180,129364,5,0,0:0:0:0:
296,304,129524,1,0,0:0:0:0:
296,304,129604,1,0,0:0:0:0:
296,304,129684,1,0,0:0:0:0:
392,240,129843,2,0,L|472:264,2,68.0000012969971
292,212,130322,1,0,0:0:0:0:
164,168,130481,1,0,0:0:0:0:
300,152,130641,1,0,0:0:0:0:
196,240,130801,1,0,0:0:0:0:
224,108,130960,6,0,L|244:16,2,68.0000012969971
184,240,131439,2,0,L|100:280,1,68.0000012969971
140,136,131758,1,0,0:0:0:0:
255,207,131918,2,0,L|287:275,1,68.0000012969971
283,268,132157,1,0,0:0:0:0:
283,268,132237,1,0,0:0:0:0:
340,144,132396,1,0,0:0:0:0:
212,188,132556,1,0,0:0:0:0:
276,68,132715,1,0,0:0:0:0:
152,128,132875,5,0,0:0:0:0:
128,152,132955,1,0,0:0:0:0:
120,184,133035,1,0,0:0:0:0:
120,216,133114,1,0,0:0:0:0:
132,248,133194,1,0,0:0:0:0:
208,188,133354,5,0,0:0:0:0:
312,280,133513,2,0,P|363:232|360:136,1,160,0|8,0:0|0:0,0:0:0:0:
236,196,133992,2,0,P|273:208|324:228,1,80,0|0,0:0|0:0,0:0:0:0:
232,112,134311,1,0,0:0:0:0:
200,244,134471,1,8,0:0:0:0:
308,164,134630,1,0,0:0:0:0:
208,72,134790,6,0,P|192:140|208:176,1,80,0|0,0:0|0:0,0:0:0:0:
193,147,135029,1,0,0:0:0:0:
193,147,135109,1,8,0:0:0:0:
316,92,135269,1,0,0:0:0:0:
264,220,135429,1,0,0:0:0:0:
240,88,135588,1,0,0:0:0:0:
336,184,135748,5,8,0:0:0:0:
348,48,135908,1,0,0:0:0:0:
268,156,136067,2,0,L|228:256,2,80,0|0|8,0:0|0:0|0:0,0:0:0:0:
184,48,136545,1,0,0:0:0:0:
108,160,136705,2,0,L|180:104,1,80
171,110,136944,1,0,0:0:0:0:
171,110,137024,1,8,0:0:0:0:
280,28,137184,1,0,0:0:0:0:
156,80,137343,6,0,P|100:54|88:16,2,80,0|0|8,0:0|0:0|0:0,0:0:0:0:
292,80,137822,1,0,0:0:0:0:
176,148,137981,2,0,P|184:220|208:232,1,80
300,296,138301,1,8,0:0:0:0:
252,168,138460,1,0,0:0:0:0:
180,284,138620,1,0,0:0:0:0:
296,212,138779,5,0,0:0:0:0:
296,212,138859,1,0,0:0:0:0:
296,212,138939,1,8,0:0:0:0:
180,144,139099,1,0,0:0:0:0:
312,108,139258,2,0,P|282:80|240:44,2,80,0|0|8,0:0|0:0|0:0,0:0:0:0:
236,220,139737,6,0,P|254:213|273:206,2,40
108,168,140056,2,0,P|84:152|76:96,1,80,0|8,0:0|0:0,0:0:0:0:
192,40,140375,2,0,P|280:64|296:148,1,160
208,224,140854,1,8,0:0:0:0:
340,192,141014,1,0,0:0:0:0:
220,128,141173,6,0,P|148:156|124:240,1,160,0|8,0:0|0:0,0:0:0:0:
240,300,141652,1,0,0:0:0:0:
104,292,141811,2,0,P|60:268|52:228,1,80,0|0,0:0|0:0,0:0:0:0:
56,104,142131,1,8,0:0:0:0:
176,172,142290,5,0,0:0:0:0:
280,84,142450,2,0,L|344:164,1,80,0|0,0:0|0:0,0:0:0:0:
228,236,142769,5,8,0:0:0:0:
364,212,142929,2,0,L|300:260,1,80,0|0,0:0|0:0,0:0:0:0:
200,168,143248,5,0,0:0:0:0:
308,88,143407,1,8,0:0:0:0:
320,116,143487,1,0,0:0:0:0:
336,144,143567,1,0,0:0:0:0:
348,172,143646,1,0,0:0:0:0:
360,200,143726,1,0,0:0:0:0:
264,268,143886,5,0,0:0:0:0:
148,196,144046,1,8,0:0:0:0:
240,96,144205,2,0,L|320:84,1,80
252,204,144524,2,0,L|164:220,1,80,0|8,0:0|0:0,0:0:0:0:
192,84,144843,1,0,0:0:0:0:
192,84,144924,1,0,0:0:0:0:
192,84,145003,2,0,P|236:144|224:168,2,80,0|0|8,0:0|0:0|0:0,0:0:0:0:
116,196,145482,2,0,P|132:244|172:264,1,80
280,204,145801,2,0,P|324:260|332:304,1,80,0|8,0:0|0:0,0:0:0:0:
380,140,146120,5,0,0:0:0:0:
288,224,146279,2,0,P|272:236|192:280,1,80,0|0,0:0|0:0,0:0:0:0:
92,328,146599,1,8,0:0:0:0:
152,208,146758,2,0,L|240:220,1,80,0|0,0:0|0:0,0:0:0:0:
231,218,146997,1,0,0:0:0:0:
231,218,147077,1,0,0:0:0:0:
196,88,147237,1,8,0:0:0:0:
136,212,147397,6,0,L|103:138,2,80,0|0|0,0:0|0:0|0:0,0:0:0:0:
212,324,147875,1,8,0:0:0:0:
308,224,148035,2,0,L|286:300,1,80,0|0,0:0|0:0,0:0:0:0:
232,176,148354,1,0,0:0:0:0:
368,152,148514,2,0,P|380:80|288:52,1,160,8|0,0:0|0:0,0:0:0:0:
264,172,148992,5,0,0:0:0:0:
264,172,149072,1,0,0:0:0:0:
264,172,149152,1,8,0:0:0:0:
148,100,149312,1,0,0:0:0:0:
64,204,149471,2,0,P|55:242|61:281,2,80,0|0|8,0:0|0:0|0:0,0:0:0:0:
172,288,149950,6,0,P|190:281|209:274,2,40
64,204,150269,2,0,P|41:172|54:136,1,80,0|8,0:0|0:0,0:0:0:0:
188,160,150588,2,0,P|256:176|292:268,1,160
160,276,151067,1,8,0:0:0:0:
252,176,151227,1,0,0:0:0:0:
136,244,151386,2,0,L|100:292,2,40
212,132,151705,1,0,0:0:0:0:
108,220,151865,1,0,0:0:0:0:
84,88,152024,1,0,0:0:0:0:
176,188,152184,5,0,0:0:0:0:
148,56,152344,1,0,0:0:0:0:
76,172,152503,2,0,L|28:272,1,80
176,188,152822,1,0,0:0:0:0:
24,200,152982,1,0,0:0:0:0:
120,296,153141,2,0,P|160:316|228:308,1,80
176,188,153461,1,0,0:0:0:0:
300,212,153620,2,0,P|264:144|232:136,1,80
164,224,153939,6,0,L|172:124,1,92.0000017547608,4|0,0:0|0:0,0:0:0:0:
278,224,154258,2,0,L|270:320,1,92.0000017547608
204,192,154578,6,0,L|228:96,1,92.0000017547608
295,227,154897,2,0,L|268:328,1,92.0000017547608
204,192,155216,6,0,L|332:192,1,92.0000017547608,0|0,0:0|0:0,0:0:0:0:
196,288,155535,2,0,L|88:288,1,92.0000017547608,0|0,0:0|0:0,0:0:0:0:
192,180,155854,6,0,L|316:208,1,92.0000017547608,0|0,0:0|0:0,0:0:0:0:
188,308,156173,2,0,L|80:280,1,92.0000017547608,0|0,0:0|0:0,0:0:0:0:
208,200,156492,6,0,L|244:288,1,92.0000017547608,0|0,0:0|0:0,0:0:0:0:
108,248,156812,2,0,L|64:148,1,92.0000017547608,0|0,0:0|0:0,0:0:0:0:
208,184,157131,2,0,L|184:296,1,92.0000017547608,0|0,0:0|0:0,0:0:0:0:
56,244,157450,2,0,L|80:144,1,92.0000017547608,0|0,0:0|0:0,0:0:0:0:
184,60,157769,5,0,0:0:0:0:
344,152,158088,1,0,0:0:0:0:
176,224,158407,1,0,0:0:0:0:
292,80,158727,1,0,0:2:0:0:
88,212,159046,6,0,L|76:328,1,92.0000017547608,0|0,0:0|0:0,0:0:0:0:
180,212,159365,2,0,L|188:120,1,92.0000017547608,0|0,0:0|0:0,0:0:0:0:
72,192,159684,6,0,L|116:288,1,92.0000017547608,0|0,0:0|0:0,0:0:0:0:
192,164,160003,2,0,L|152:76,1,92.0000017547608,0|0,0:0|0:0,0:0:0:0:
72,192,160322,6,0,L|184:256,1,92.0000017547608,0|0,0:0|0:0,0:0:0:0:
108,84,160641,2,0,L|12:28,1,92.0000017547608,0|0,0:0|0:0,0:0:0:0:
80,192,160961,6,0,L|200:212,1,92.0000017547608,0|0,0:0|0:0,0:0:0:0:
108,56,161280,2,0,L|0:36,1,92.0000017547608,0|0,0:0|0:0,0:0:0:0:
128,124,161599,1,0,0:0:0:0:
248,52,161759,1,0,0:0:0:0:
360,132,161918,2,0,P|420:168|420:216,1,92.0000017547608
312,260,162237,2,0,P|252:224|252:180,1,92.0000017547608
288,80,162556,1,0,0:0:0:0:
208,176,162716,1,0,0:0:0:0:
328,140,162876,1,0,0:0:0:0:
232,60,163035,1,0,0:0:0:0:
144,148,163195,6,0,P|232:232|308:236,1,184.000003509522
364,136,163673,2,0,P|368:88|332:40,2,92.0000017547608
284,196,164152,5,4,0:0:0:0:
184,184,164312,1,0,0:0:0:0:
388,164,164631,2,0,P|444:212|436:284,1,136.000002593994
324,312,165110,1,0,0:0:0:0:
368,220,165269,1,0,0:0:0:0:
264,224,165429,5,0,0:0:0:0:
304,132,165589,1,0,0:0:0:0:
120,216,165908,2,0,P|64:264|76:332,1,136.000002593994
168,304,166387,1,0,0:0:0:0:
192,100,166705,5,0,0:0:0:0:
224,112,166785,1,0,0:0:0:0:
256,124,166865,1,0,0:0:0:0:
188,200,167025,1,0,0:0:0:0:
240,288,167184,5,0,0:0:0:0:
208,276,167264,1,0,0:0:0:0:
176,264,167344,1,0,0:0:0:0:
204,360,167503,1,0,0:0:0:0:
304,340,167663,5,0,0:0:0:0:
336,320,167743,1,0,0:0:0:0:
356,292,167822,1,0,0:0:0:0:
376,260,167902,1,0,0:0:0:0:
384,228,167982,1,4,0:0:0:0:
328,64,178195,6,0,L|416:56,2,80
276,172,178674,1,0,0:0:0:0:
136,168,178833,6,0,L|44:156,2,80
172,284,179312,1,0,0:0:0:0:
292,292,179472,6,0,L|340:208,1,80
260,124,179791,1,0,0:0:0:0:
376,92,179950,2,0,L|312:16,2,80
452,184,180429,1,0,0:0:0:0:
344,136,180589,1,0,0:0:0:0:
224,116,180748,6,0,L|192:216,2,80
284,220,181227,1,0,0:0:0:0:
312,104,181386,6,0,L|336:-4,2,80
220,24,181865,1,0,0:0:0:0:
192,140,182025,2,0,L|124:60,1,80
108,196,182344,1,0,0:0:0:0:
204,268,182503,2,0,L|116:328,2,80
88,244,182982,1,0,0:0:0:0:
248,64,183302,6,0,B|364:136|364:136|340:248,1,240
232,184,183940,1,0,0:0:0:0:
228,304,184099,2,0,B|124:256|124:256|132:176,1,160
132,92,184578,2,0,P|48:52|32:40,2,80
240,144,185057,1,0,0:0:0:0:
136,204,185216,1,0,0:0:0:0:
184,96,185376,1,0,0:0:0:0:
236,204,185536,1,0,0:0:0:0:
120,172,185695,1,0,0:0:0:0:
184,96,185855,6,0,P|320:84|364:120,1,180.000006866455,4|0,0:0|0:0,0:0:0:0:
252,148,186493,1,4,0:0:0:0:
168,180,186653,2,0,B|220:252|220:252|264:248,1,120.000004577637
340,244,187131,1,0,0:0:0:0:
224,108,187451,1,0,0:0:0:0:
284,276,187770,1,0,0:0:0:0:
340,152,188089,1,0,0:0:0:0:
176,224,188408,5,4,0:0:0:0:
432,80,189685,1,0,0:0:0:0:
348,264,190961,1,0,0:0:0:0:
256,192,191121,12,0,193195,0:0:0:0:
356,44,193514,5,0,0:0:0:0:
112,284,194791,1,0,0:0:0:0:
384,236,196068,1,0,0:0:0:0:
256,192,196227,12,0,198302,0:0:0:0:
172,76,198621,5,0,0:0:0:0:
336,152,198940,2,0,L|420:136,2,60.0000022888184
160,184,199578,1,0,0:0:0:0:
336,152,199898,5,0,0:0:0:0:
232,300,200217,2,0,L|252:384,2,60.0000022888184
192,116,200855,1,0,0:0:0:0:
116,280,201174,5,0,0:0:0:0:
192,116,201493,2,0,L|176:32,2,60.0000022888184
228,292,202131,1,0,0:0:0:0:
380,200,202451,5,0,0:0:0:0:
192,116,202770,2,0,L|108:128,2,60.0000022888184
392,92,203408,1,0,0:0:0:0:
296,244,203727,5,0,0:0:0:0:
232,76,204047,1,0,0:0:0:0:
148,108,204206,1,0,0:0:0:0:
240,108,204366,1,0,0:0:0:0:
140,256,204684,1,0,0:0:0:0:
316,300,205004,5,0,0:0:0:0:
344,120,205324,1,0,0:0:0:0:
276,180,205483,1,0,0:0:0:0:
224,104,205643,1,0,0:0:0:0:
376,196,205961,1,0,0:0:0:0:
212,268,206281,5,0,0:0:0:0:
300,108,206601,1,0,0:0:0:0:
212,108,206760,1,0,0:0:0:0:
256,28,206920,1,0,0:0:0:0:
340,188,207238,1,0,0:0:0:0:
160,188,207557,5,0,0:0:0:0:
312,88,207877,1,0,0:0:0:0:
340,188,208036,1,0,0:0:0:0:
268,100,208196,1,0,0:0:0:0:
444,140,208514,1,0,0:0:0:0:
304,288,208834,5,0,0:0:0:0:
292,256,208914,1,0,0:0:0:0:
280,224,208994,2,0,P|232:180|152:184,1,136.000002593994
204,272,209472,2,0,P|212:324|200:344,1,68.0000012969971
112,292,209791,1,0,0:0:0:0:
112,292,209871,1,0,0:0:0:0:
112,292,209951,1,0,0:0:0:0:
176,212,210111,1,0,0:0:0:0:
88,156,210271,2,0,P|128:112|224:100,1,136.000002593994,0|0,0:0|0:0,0:0:0:0:
248,184,210749,6,0,P|281:186|309:205,1,68,0|0,0:0|0:0,0:0:0:0:
208,296,211069,2,0,P|174:293|146:274,1,68
144,140,211388,1,0,0:0:0:0:
280,116,211548,1,0,0:0:0:0:
152,72,211707,1,0,0:0:0:0:
220,192,211867,5,0,0:0:0:0:
248,60,212026,1,0,0:0:0:0:
144,144,212186,1,0,0:0:0:0:
248,60,212345,5,0,0:0:0:0:
112,72,212505,1,0,0:0:0:0:
188,184,212664,1,0,0:0:0:0:
188,184,212744,1,0,0:0:0:0:
188,184,212824,1,0,0:0:0:0:
284,276,212983,2,0,B|276:268|324:352|348:244|413:303,1,136.000002593994
436,164,213462,1,0,0:0:0:0:
308,208,213621,5,0,0:0:0:0:
196,132,213780,2,0,P|152:156|132:168,2,68.0000012969971
320,72,214259,1,0,0:0:0:0:
372,196,214418,1,0,0:0:0:0:
236,172,214578,1,0,0:0:0:0:
320,72,214738,1,0,0:0:0:0:
372,196,214897,5,0,0:0:0:0:
248,256,215057,1,0,0:0:0:0:
248,256,215137,1,0,0:0:0:0:
248,256,215217,1,0,0:0:0:0:
180,140,215376,2,0,L|113:126,2,68.0000012969971
312,168,215855,1,0,0:0:0:0:
184,208,216014,1,0,0:0:0:0:
252,88,216174,1,0,0:0:0:0:
276,224,216334,1,0,0:0:0:0:
384,144,216493,6,0,L|412:60,2,68.0000012969971
328,268,216972,2,0,L|244:308,1,68.0000012969971
156,220,217291,1,0,0:0:0:0:
268,144,217451,2,0,L|239:82,1,68.0000012969971
239,82,217691,1,0,0:0:0:0:
239,82,217770,1,0,0:0:0:0:
360,148,217929,1,0,0:0:0:0:
260,240,218089,1,0,0:0:0:0:
296,108,218248,1,0,0:0:0:0:
196,92,218409,5,0,0:0:0:0:
180,104,218488,1,0,0:0:0:0:
164,116,218568,1,0,0:0:0:0:
152,132,218648,1,0,0:0:0:0:
144,148,218728,1,0,0:0:0:0:
140,168,218808,1,0,0:0:0:0:
136,188,218887,1,0,0:0:0:0:
136,208,218967,1,0,0:0:0:0:
144,228,219047,1,0,0:0:0:0:
284,292,219366,6,0,P|335:244|332:148,1,160,12|0,0:0|0:0,0:0:0:0:
232,220,219845,2,0,P|180:224|144:201,1,80,0|8,0:0|0:0,0:0:0:0:
92,112,220164,1,0,0:0:0:0:
212,132,220324,1,0,0:0:0:0:
100,172,220484,6,0,P|84:240|108:264,1,80,0|8,0:0|0:0,0:0:0:0:
86,243,220723,1,0,0:0:0:0:
86,243,220803,1,0,0:0:0:0:
176,168,220962,1,0,0:0:0:0:
224,276,221122,1,0,0:0:0:0:
112,312,221281,1,8,0:0:0:0:
204,232,221441,1,0,0:0:0:0:
108,164,221600,6,0,L|20:184,2,80,0|0|8,0:0|0:0|0:0,0:0:0:0:
192,248,222079,1,0,0:0:0:0:
260,152,222238,2,0,L|204:56,2,80,0|0|8,0:0|0:0|0:0,0:0:0:0:
216,264,222717,1,0,0:0:0:0:
96,244,222877,6,0,P|40:218|32:116,1,160,0|8,0:0|0:0,0:0:0:0:
132,180,223356,1,0,0:0:0:0:
220,100,223516,2,0,B|215:143|215:143|204:156|204:156|180:172,1,80,0|0,0:0|0:0,0:0:0:0:
300,120,223835,1,8,0:0:0:0:
328,236,223994,1,0,0:0:0:0:
368,124,224154,1,0,0:0:0:0:
272,196,224313,5,0,0:0:0:0:
272,196,224393,1,0,0:0:0:0:
272,196,224473,1,0,0:0:0:0:
316,84,224633,1,0,0:0:0:0:
364,196,224792,2,0,P|372:252|352:300,2,80,0|0|0,0:0|0:0|0:0,0:0:0:0:
252,152,225270,6,0,P|220:164|196:172,2,40
368,124,225589,2,0,P|389:156|388:196,1,80
376,316,225908,2,0,P|309:278|304:201,1,160
188,228,226387,1,0,0:0:0:0:
264,136,226547,1,0,0:0:0:0:
184,48,226707,6,0,P|112:76|88:160,1,160,0|0,0:0|0:0,0:0:0:0:
188,212,227186,1,0,0:0:0:0:
88,276,227345,2,0,P|44:252|36:212,1,80,0|0,0:0|0:0,0:0:0:0:
48,104,227665,1,0,0:0:0:0:
152,160,227824,5,0,0:0:0:0:
220,60,227984,2,0,L|284:140,1,80,0|0,0:0|0:0,0:0:0:0:
228,236,228303,5,0,0:0:0:0:
348,244,228463,2,0,L|284:292,1,80,0|0,0:0|0:0,0:0:0:0:
292,172,228781,1,0,0:0:0:0:
184,120,228941,1,0,0:0:0:0:
184,120,229021,1,0,0:0:0:0:
184,120,229100,2,0,L|128:128,2,40,0|0|4,0:0|0:0|0:0,0:0:0:0:
248,184,229420,1,0,0:0:0:0:
164,268,229580,6,0,P|120:312|84:304,2,80,8|0|0,0:0|0:0|0:0,0:0:0:0:
160,148,230058,5,0,0:0:0:0:
228,248,230218,1,8,0:0:0:0:
316,164,230377,2,0,L|396:152,1,80
300,80,230696,2,0,L|220:88,2,80,0|8|0,0:0|0:0|0:0,0:0:0:0:
392,160,231175,1,0,0:0:0:0:
280,200,231334,2,2,P|316:256|420:264,1,160,0|0,0:0|0:0,0:0:0:0:
396,152,231813,5,0,0:0:0:0:
276,160,231972,2,0,P|264:160|180:192,1,80,0|0,0:0|0:0,0:0:0:0:
292,256,232292,1,0,0:0:0:0:
184,308,232451,2,0,L|264:344,1,80,0|0,0:0|0:0,0:0:0:0:
256,340,232690,1,0,0:0:0:0:
256,340,232770,1,0,0:0:0:0:
204,232,232930,1,0,0:0:0:0:
164,116,233090,6,0,L|131:42,2,80,0|0|0,0:0|0:0|0:0,0:0:0:0:
256,36,233568,1,0,0:0:0:0:
312,144,233728,2,0,L|290:220,1,80,0|0,0:0|0:0,0:0:0:0:
172,240,234047,2,0,P|196:296|244:300,1,80
332,304,234366,1,0,0:0:0:0:
268,200,234526,5,0,0:0:0:0:
268,200,234606,1,0,0:0:0:0:
268,200,234686,1,0,0:0:0:0:
360,124,234846,1,0,0:0:0:0:
256,60,235005,2,0,P|204:76|168:112,2,80,0|0|0,0:0|0:0|0:0,0:0:0:0:
336,152,235484,6,0,P|354:145|373:138,2,40
228,200,235803,2,0,P|224:256|248:272,1,80
272,152,236122,2,0,P|240:81|166:59,1,160
160,180,236601,1,0,0:0:0:0:
104,76,236761,1,0,0:0:0:0:
72,192,236920,2,0,L|36:216,2,40
172,128,237239,1,0,0:0:0:0:
120,236,237399,1,0,0:0:0:0:
88,120,237558,1,0,0:0:0:0:
196,180,237718,5,0,0:0:0:0:
216,92,237878,1,0,0:0:0:0:
124,168,238037,2,0,L|76:268,1,80
196,180,238356,1,0,0:0:0:0:
76,196,238516,1,0,0:0:0:0:
156,284,238675,2,0,P|199:290|256:260,1,80
196,180,238995,1,0,0:0:0:0:
156,68,239154,2,0,P|232:56|312:116,1,160,0|4,0:0|0:0,0:0:0:0:
348,224,249686,6,0,L|336:132,1,80
208,240,250005,2,0,L|216:328,1,80,8|0,0:0|0:0,0:0:0:0:
304,184,250325,6,0,L|284:100,1,80
208,240,250644,2,0,L|232:328,1,80,8|0,0:0|0:0,0:0:0:0:
320,184,250963,6,0,L|228:184,1,80
332,316,251282,2,0,L|412:317,1,80,8|0,0:0|0:0,0:0:0:0:
272,240,251601,6,0,P|248:212|251:151,1,80
364,64,251921,2,0,P|384:92|380:164,1,80,8|0,0:0|0:0,0:0:0:0:
276,252,252240,1,0,0:0:0:0:
208,108,252399,1,0,0:0:0:0:
332,208,252558,1,8,0:0:0:0:
184,268,252718,1,0,0:0:0:0:
72,192,252878,6,0,L|140:108,1,80
132,12,253197,2,0,L|68:88,1,80,8|0,0:0|0:0,0:0:0:0:
160,184,253516,2,0,L|220:224,2,40
204,312,253835,1,8,0:0:0:0:
288,204,253995,2,0,P|316:232|356:224,2,80
248,140,254473,5,0,0:0:0:0:
148,232,254632,2,0,P|112:264|64:304,2,80
256,148,255111,1,0,0:0:0:0:
392,160,255270,1,0,0:0:0:0:
312,52,255430,1,0,0:0:0:0:
264,180,255590,1,0,0:0:0:0:
392,160,255749,5,0,0:0:0:0:
304,264,255909,1,0,0:0:0:0:
304,264,255989,1,0,0:0:0:0:
304,264,256069,1,0,0:0:0:0:
436,240,256228,2,0,L|544:268,2,80
272,196,256707,1,0,0:0:0:0:
140,160,256866,1,0,0:0:0:0:
272,136,257026,1,0,0:0:0:0:
224,264,257186,1,0,0:0:0:0:
220,128,257345,6,2,L|220:28,2,80
184,260,257824,2,2,L|96:300,1,80
140,160,258143,1,0,0:0:0:0:
272,192,258303,2,2,L|321:289,1,80
308,263,258542,1,0,0:0:0:0:
308,263,258622,1,0,0:0:0:0:
328,128,258781,1,0,0:0:0:0:
216,204,258941,1,0,0:0:0:0:
228,68,259101,1,0,0:0:0:0:
