osu file format v14

[General]
AudioFilename: audio.mp3
AudioLeadIn: 0
PreviewTime: 133354
Countdown: 0
SampleSet: Soft
StackLeniency: 0.7
Mode: 0
LetterboxInBreaks: 0
WidescreenStoryboard: 1

[Editor]
Bookmarks: 21170,92342,235483
DistanceSpacing: 1.2
BeatDivisor: 4
GridSize: 4
TimelineZoom: 1

[Metadata]
Title:Hachigatsu no Yoru
TitleUnicode:Hachigatsu no Yoru
Artist:Silent Siren
ArtistUnicode:Silent Siren
Creator:TenkaiPalm
Version:Hard
Source:
Tags:Hachigatsu no Yoru 八月の夜 八月之夜
BeatmapID:971033
BeatmapSetID:452712

[Difficulty]
HPDrainRate:5.7
CircleSize:3.5
OverallDifficulty:5
ApproachRate:6
SliderMultiplier:1.3
SliderTickRate:2

[Events]
//Background and Video events
0,0,"Konachan.com - 218193 hatsune_miku saihate sakura_miku vocaloid.jpg",0,0
//Break Periods
2,82648,91292
2,168182,177145
2,239354,248636
//Storyboard Layer 0 (Background)
//Storyboard Layer 1 (Fail)
//Storyboard Layer 2 (Pass)
//Storyboard Layer 3 (Foreground)
//Storyboard Sound Samples

[TimingPoints]
745,319.155614973262,4,2,0,70,1,0
41596,-117.647058823529,4,2,0,70,0,0
62022,-100,4,2,0,70,0,1
82448,-100,4,2,0,70,0,0
113406,-117.647058823529,4,2,0,70,0,0
133513,-100,4,2,0,70,0,1
153939,-83.3333333333333,4,2,0,70,0,1
164152,-117.647058823529,4,2,0,70,0,1
167982,-100,4,2,0,70,0,0
185855,-133.333333333333,4,2,0,70,0,0
188408,-133.333333333333,4,2,0,70,0,0
208834,-117.647058823529,4,2,0,70,0,0
218409,-100,4,2,0,70,0,0
219366,-100,4,2,0,70,0,1
239473,-100,4,2,0,70,0,0
249686,-83.3333333333333,4,2,0,70,0,0

[Colours]
Combo1 : 240,79,79
Combo2 : 253,217,236
Combo3 : 255,36,36
Combo4 : 250,138,90

[HitObjects]
324,116,21490,6,0,P|308:68|328:44,2,65,8|0|0,0:0|0:0|0:0,0:0:0:0:
392,204,22128,2,0,P|424:260|380:328,1,130,8|0,0:0|0:0,0:0:0:0:
344,368,22607,1,0,0:0:0:0:
268,352,22766,1,8,0:0:0:0:
144,308,23085,1,0,0:0:0:0:
120,200,23405,5,8,0:0:0:0:
212,156,23724,2,0,B|280:124|280:124|308:180,1,130,0|8,0:0|0:0,0:0:0:0:
260,268,24362,2,0,B|192:296|192:296|156:240,1,130,0|8,0:0|0:0,0:0:0:0:
76,188,25000,2,0,L|144:148,1,65
176,180,25319,2,0,L|104:224,1,65,8|0,0:0|0:0,0:0:0:0:
176,244,25639,1,0,0:0:0:0:
280,200,25958,5,8,0:0:0:0:
280,200,26117,1,0,0:0:0:0:
280,200,26277,1,0,0:0:0:0:
232,100,26596,1,8,0:0:0:0:
232,100,26915,2,0,P|144:120|120:168,1,130,0|8,0:0|0:0,0:0:0:0:
76,240,27554,1,0,0:0:0:0:
168,188,27873,1,8,0:0:0:0:
172,292,28192,1,0,0:0:0:0:
280,180,28671,5,0,0:0:0:0:
280,180,28830,2,0,B|328:120|328:120|264:80,1,130
192,40,29469,2,0,P|136:60|104:144,1,130
228,160,30107,5,0,0:0:0:0:
128,244,30426,1,0,0:0:0:0:
256,248,30745,1,0,0:0:0:0:
156,164,31064,1,4,0:0:0:0:
156,164,31224,1,0,0:0:0:0:
88,204,31383,6,0,P|100:280|156:308,1,130,0|8,0:0|0:0,0:0:0:0:
288,292,32022,1,0,0:0:0:0:
372,116,32500,5,0,0:0:0:0:
316,80,32660,2,0,P|276:56|240:56,1,65
192,52,32979,1,8,0:0:0:0:
172,112,33139,6,0,B|164:168|208:196|208:196|176:236|176:236,1,130
148,272,33618,1,8,0:0:0:0:
200,312,33777,5,0,0:0:0:0:
264,308,33937,2,0,P|344:248|348:196,1,130,0|8,0:0|0:0,0:0:0:0:
352,160,34415,1,0,0:0:0:0:
348,96,34575,2,0,P|280:56|232:68,1,130,0|8,0:0|0:0,0:0:0:0:
168,108,35054,2,0,L|112:156,1,65
20,212,35532,6,0,L|72:268,1,65,8|0,0:0|0:0,0:0:0:0:
96,204,35852,2,0,L|40:144,1,65
116,144,36171,2,0,L|168:204,1,65,8|0,0:0|0:0,0:0:0:0:
160,260,36490,5,0,0:0:0:0:
284,300,36809,2,0,B|312:268|312:268|364:268|364:268|404:236,1,130,8|0,0:0|0:0,0:0:0:0:
316,140,37447,2,0,P|280:132|256:152,1,65,8|0,0:0|0:0,0:0:0:0:
216,196,37767,1,0,0:0:0:0:
88,212,38086,2,0,P|48:196|48:164,2,65,8|0|0,0:0|0:0|0:0,0:0:0:0:
216,192,38724,1,8,0:0:0:0:
140,88,39043,5,0,0:0:0:0:
140,88,39362,2,0,P|104:136|120:156,1,65,0|8,0:0|0:0,0:0:0:0:
132,204,39681,2,0,P|128:244|108:264,1,65
40,292,40001,2,0,P|104:344|112:344,1,65
160,340,40320,1,0,0:0:0:0:
312,308,40639,1,8,0:0:0:0:
344,156,40958,5,2,0:0:0:0:
304,152,41118,1,2,0:0:0:0:
264,152,41277,1,2,0:0:0:0:
228,168,41437,1,2,0:0:0:0:
200,184,41596,6,0,P|168:212|184:232,1,55.2500010538101,4|0,0:0|0:0,0:0:0:0:
252,284,42075,2,0,P|308:304|376:304,1,110.50000210762
412,300,42554,1,0,0:0:0:0:
376,196,42873,5,0,0:0:0:0:
380,116,43033,2,0,P|377:74|328:32,1,110.50000210762
288,136,43672,2,0,P|280:176|296:208,1,55.2500010538101
340,284,44150,5,0,0:0:0:0:
340,284,44229,1,0,0:0:0:0:
340,284,44309,1,0,0:0:0:0:
268,200,44628,2,0,P|208:224|184:268,1,110.50000210762
184,316,45107,1,0,0:0:0:0:
100,248,45426,6,0,L|88:284,2,27.6250005269051
132,140,45905,2,0,P|184:80|228:80,1,110.50000210762
264,80,46384,1,0,0:0:0:0:
264,192,46703,5,4,0:0:0:0:
316,212,46863,2,0,P|313:170|264:128,1,110.50000210762
160,172,47502,2,0,P|152:212|168:244,1,55.2500010538101
264,208,47980,6,0,P|316:176|316:164,1,55.2500010538101
248,100,48459,2,0,P|188:120|172:160,1,110.50000210762
172,216,48938,1,0,0:0:0:0:
268,268,49256,5,0,0:0:0:0:
268,268,49336,1,0,0:0:0:0:
268,268,49416,1,0,0:0:0:0:
172,216,49735,2,0,P|224:156|268:156,1,110.50000210762
216,112,50214,1,0,0:0:0:0:
108,100,50533,6,0,L|132:56,2,27.6250005269051
68,204,51012,2,0,P|60:260|112:288,1,110.50000210762
156,284,51491,1,0,0:0:0:0:
240,212,51809,5,0,0:0:0:0:
272,164,51969,2,0,P|304:124|360:124,1,110.50000210762
444,192,52608,2,0,P|464:232|452:264,1,55.2500010538101
376,308,53086,6,0,P|344:280|344:252,1,55.2500010538101
308,164,53565,2,0,P|280:120|212:140,1,110.50000210762
184,156,54044,1,0,0:0:0:0:
104,236,54363,5,0,0:0:0:0:
104,236,54442,1,0,0:0:0:0:
104,236,54522,1,0,0:0:0:0:
84,128,54841,2,0,P|104:56|148:40,1,110.50000210762
188,40,55320,1,0,0:0:0:0:
296,68,55639,6,0,L|336:48,2,27.6250005269051
192,112,56118,2,0,P|136:84|88:92,1,110.50000210762
44,124,56597,5,0,0:0:0:0:
116,272,57075,2,0,L|168:248,1,55.2500010538101
220,268,57395,2,0,L|168:292,1,55.2500010538101
204,336,57714,2,0,B|264:304|264:304|332:316,1,110.50000210762
360,324,58193,1,0,0:0:0:0:
360,324,58272,1,0,0:0:0:0:
360,324,58352,1,0,0:0:0:0:
436,244,58671,2,0,P|440:168|360:104,1,165.75000316143
272,84,59469,6,0,L|320:36,2,55.2500010538101
236,128,59948,2,0,P|212:152|176:160,1,55.2500010538101
136,156,60267,2,0,P|116:128|124:96,2,55.2500010538101
180,188,60746,1,0,0:0:0:0:
180,188,60826,1,0,0:0:0:0:
180,188,60905,1,0,0:0:0:0:
144,232,61065,1,0,0:0:0:0:
180,272,61224,1,0,0:0:0:0:
340,116,61863,5,0,0:0:0:0:
340,116,62022,2,0,P|276:160|216:140,1,130
168,124,62501,1,0,0:0:0:0:
224,96,62661,1,0,0:0:0:0:
160,92,62820,1,0,0:0:0:0:
80,192,63139,5,0,0:0:0:0:
80,192,63299,2,0,P|136:248|212:244,1,130
248,240,63778,1,0,0:0:0:0:
308,220,63937,2,0,P|348:236|364:228,2,32.5
248,104,64416,5,0,0:0:0:0:
184,116,64576,2,0,P|140:136|104:116,1,65
72,100,64895,1,8,0:0:0:0:
108,40,65054,2,0,P|160:48|172:72,2,65
44,52,65533,1,8,0:0:0:0:
24,112,65693,2,0,P|16:160|36:200,1,65
84,156,66012,1,0,0:0:0:0:
148,136,66171,2,0,P|188:160|188:188,1,65,8|0,0:0|0:0,0:0:0:0:
200,240,66491,1,0,0:0:0:0:
240,116,66810,1,8,0:0:0:0:
388,240,67288,6,2,P|372:200|344:188,1,65
224,208,67767,2,2,P|188:168|200:136,1,65
304,100,68246,5,0,0:0:0:0:
304,100,68326,1,0,0:0:0:0:
304,100,68405,1,0,0:0:0:0:
204,184,68725,1,0,0:0:0:0:
268,188,68884,2,0,P|252:244|196:284,1,130
88,208,69523,5,0,0:0:0:0:
88,208,69682,2,0,B|132:160|132:160|208:172,1,130,0|8,0:0|0:0,0:0:0:0:
248,288,70320,2,0,B|324:300|324:300|356:240,1,130,0|8,0:0|0:0,0:0:0:0:
372,192,70799,1,0,0:0:0:0:
396,132,70959,2,0,P|376:80|304:64,1,130,0|8,0:0|0:0,0:0:0:0:
180,56,71597,1,0,0:0:0:0:
244,72,71757,2,0,B|272:80|272:80|316:108,1,65
252,152,72076,5,0,0:0:0:0:
252,152,72156,1,0,0:0:0:0:
252,152,72236,2,0,B|204:184|204:184|204:268,1,130,4|0,0:0|0:0,0:0:0:0:
268,252,72714,2,0,L|336:204,1,65
328,280,73033,1,0,0:0:0:0:
380,160,73352,5,0,0:0:0:0:
380,160,73432,1,0,0:0:0:0:
380,160,73512,2,0,P|364:80|304:56,1,130
260,56,73991,2,0,L|200:116,1,65
200,40,74310,1,0,0:0:0:0:
124,152,74629,5,0,0:0:0:0:
64,204,74789,2,0,P|52:240|60:272,2,65,0|0|8,0:0|0:0|0:0,0:0:0:0:
124,152,75267,1,0,0:0:0:0:
180,100,75427,2,0,P|160:56|120:44,2,65,0|0|8,0:0|0:0|0:0,0:0:0:0:
184,180,75906,1,0,0:0:0:0:
184,256,76065,2,0,P|192:308|216:328,1,65
244,348,76384,1,8,0:0:0:0:
360,284,76704,1,0,0:0:0:0:
232,268,77023,1,8,0:0:0:0:
336,104,77501,5,0,0:0:0:0:
336,104,77581,1,0,0:0:0:0:
336,104,77661,1,0,0:0:0:0:
284,224,77980,2,0,L|216:172,1,65
168,296,78459,5,0,0:0:0:0:
168,296,78539,1,0,0:0:0:0:
168,296,78618,1,0,0:0:0:0:
196,236,78778,1,0,0:0:0:0:
232,184,78938,2,8,L|304:236,1,65,0|8,0:0|0:0,0:0:0:0:
280,156,79257,2,0,L|224:116,1,65
212,56,79576,2,0,L|276:100,1,65,8|0,0:0|0:0,0:0:0:0:
204,76,79895,6,0,P|128:80|88:140,1,130,0|8,0:0|0:0,0:0:0:0:
216,164,80533,2,0,P|284:172|332:224,1,130,0|8,0:0|0:0,0:0:0:0:
200,244,81172,1,0,0:0:0:0:
316,188,81491,1,8,0:0:0:0:
280,312,81810,1,0,0:0:0:0:
228,192,82129,1,8,0:0:0:0:
352,228,82448,1,4,0:0:0:0:
288,52,92342,5,0,0:0:0:0:
304,56,92421,1,0,0:0:0:0:
320,60,92502,2,0,P|332:70|339:85,2,32.5
196,92,92980,6,0,L|116:56,2,65,8|0|0,0:0|0:0|0:0,0:0:0:0:
316,144,93619,2,0,P|360:168|372:204,1,65,8|0,0:0|0:0,0:0:0:0:
320,224,93938,1,0,0:0:0:0:
348,284,94098,1,0,0:0:0:0:
284,276,94257,1,8,0:0:0:0:
56,152,94895,5,8,0:0:0:0:
56,152,95055,1,0,0:0:0:0:
56,152,95215,2,0,P|124:184|192:168,1,130,0|8,0:0|0:0,0:0:0:0:
236,156,95693,1,0,0:0:0:0:
296,132,95853,2,0,P|340:116|416:160,1,130,0|8,0:0|0:0,0:0:0:0:
312,236,96491,1,0,0:0:0:0:
256,272,96651,2,0,P|212:284|176:264,1,65,0|8,0:0|0:0,0:0:0:0:
128,240,96970,1,0,0:0:0:0:
196,200,97129,1,0,0:0:0:0:
272,124,97449,6,0,L|228:72,2,65,8|0|0,0:0|0:0|0:0,0:0:0:0:
356,224,98087,1,8,0:0:0:0:
296,276,98247,1,0,0:0:0:0:
360,320,98406,1,0,0:0:0:0:
236,300,98725,6,0,P|160:280|156:276,1,65,8|0,0:0|0:0,0:0:0:0:
212,236,99044,1,0,0:0:0:0:
332,188,99364,1,8,0:0:0:0:
288,312,99683,1,0,0:0:0:0:
260,120,100161,1,0,0:0:0:0:
204,84,100321,6,0,P|152:56|80:88,1,130
56,136,100800,1,0,0:0:0:0:
88,192,100959,2,0,B|120:224|120:224|156:204|156:204|200:248,1,130
272,136,101598,1,0,0:0:0:0:
376,212,101917,1,0,0:0:0:0:
348,84,102236,1,0,0:0:0:0:
300,204,102555,1,4,0:0:0:0:
236,92,102874,6,0,P|180:36|128:52,1,130,0|8,0:0|0:0,0:0:0:0:
84,80,103353,2,0,P|48:72|-4:96,2,65
132,124,103832,2,0,P|176:184|240:204,1,130,8|0,0:0|0:0,0:0:0:0:
226,203,104231,1,0,0:0:0:0:
226,203,104310,1,0,0:0:0:0:
288,184,104470,2,0,P|352:164|412:196,1,130,8|0,0:0|0:0,0:0:0:0:
212,196,105268,5,0,0:0:0:0:
160,156,105428,2,0,B|128:112|128:112|164:40,1,130,0|8,0:0|0:0,0:0:0:0:
220,16,105906,1,0,0:0:0:0:
260,68,106066,2,0,B|324:96|324:96|396:64,1,130,0|8,0:0|0:0,0:0:0:0:
432,192,106704,2,0,P|448:248|440:280,2,65,0|0|8,0:0|0:0|0:0,0:0:0:0:
304,216,107342,1,0,0:0:0:0:
216,312,107662,5,8,0:0:0:0:
216,312,107741,1,0,0:0:0:0:
216,312,107821,1,0,0:0:0:0:
196,236,107981,1,0,0:0:0:0:
272,180,108300,2,0,P|204:128|144:148,1,130,8|0,0:0|0:0,0:0:0:0:
165,134,108699,1,0,0:0:0:0:
165,134,108779,1,0,0:0:0:0:
72,248,109098,2,0,P|136:300|188:272,1,130
276,208,109736,5,0,0:0:0:0:
324,164,109896,1,0,0:0:0:0:
264,140,110055,1,0,0:0:0:0:
312,96,110215,1,0,0:0:0:0:
264,52,110374,1,0,0:0:0:0:
324,24,110534,2,0,P|396:32|428:96,1,130
364,192,111172,2,0,P|344:256|388:304,1,130
284,212,111811,5,0,0:0:0:0:
208,320,112130,1,0,0:0:0:0:
336,308,112449,1,0,0:0:0:0:
288,264,112609,1,0,0:0:0:0:
244,216,112768,1,0,0:0:0:0:
192,176,112928,1,0,0:0:0:0:
144,132,113087,6,0,L|84:172,2,65,4|0|0,0:0|0:0|0:0,0:0:0:0:
200,96,113566,2,0,P|264:64|352:100,1,165.75000316143
396,140,114204,1,0,0:0:0:0:
436,192,114364,2,0,B|468:236|468:236|392:264,1,110.50000210762
352,268,114843,2,0,B|280:264|260:300|184:280,1,165.75000316143
80,204,115641,6,0,P|64:232|60:240,2,27.6250005269051
152,92,116119,2,0,P|200:64|264:76,1,110.50000210762
312,104,116598,1,0,0:0:0:0:
244,220,116917,5,0,0:0:0:0:
244,220,116997,1,0,0:0:0:0:
244,220,117077,1,0,0:0:0:0:
372,184,117396,2,0,P|412:208|416:288,1,110.50000210762
396,328,117875,1,0,0:0:0:0:
272,284,118194,5,0,0:0:0:0:
272,216,118354,2,0,P|269:174|220:132,1,110.50000210762
120,220,118993,2,0,P|124:256|152:280,1,55.2500010538101
88,144,119471,6,0,P|120:100|140:100,1,55.2500010538101
248,112,119950,2,0,P|296:132|296:200,1,110.50000210762
292,252,120429,1,0,0:0:0:0:
184,172,120747,6,0,L|144:196,2,27.6250005269051
292,92,121226,2,0,P|352:68|412:96,1,110.50000210762
456,104,121704,1,0,0:0:0:0:
364,200,122024,5,0,0:0:0:0:
364,200,122103,1,0,0:0:0:0:
364,200,122183,1,0,0:0:0:0:
464,284,122502,2,0,P|404:320|352:316,1,110.50000210762
300,324,122981,1,4,0:0:0:0:
196,240,123300,5,4,0:0:0:0:
208,316,123460,2,0,P|148:300|120:252,1,110.50000210762
220,172,124099,2,0,P|204:144|168:120,1,55.2500010538101
60,96,124577,6,0,P|92:52|112:52,1,55.2500010538101
52,180,125056,2,0,P|56:232|104:260,1,110.50000210762
164,240,125535,1,0,0:0:0:0:
200,112,125854,6,0,L|148:108,2,27.6250005269051
332,124,126332,2,0,P|396:148|408:188,1,110.50000210762
400,248,126811,1,0,0:0:0:0:
280,300,127130,5,0,0:0:0:0:
280,300,127210,1,0,0:0:0:0:
280,300,127290,1,0,0:0:0:0:
248,172,127609,2,0,P|196:116|156:120,1,110.50000210762
176,192,128088,1,0,0:0:0:0:
32,328,128566,6,0,L|84:304,1,55.2500010538101
108,244,128886,2,0,L|56:268,1,55.2500010538101
60,200,129205,2,0,B|124:172|124:172|188:180,1,110.50000210762
232,188,129684,1,0,0:0:0:0:
232,188,129763,1,0,0:0:0:0:
232,188,129843,1,0,0:0:0:0:
360,216,130162,2,0,P|364:140|284:76,1,165.75000316143
436,100,130960,6,0,L|484:52,2,55.2500010538101
384,140,131439,2,0,P|356:164|320:172,1,55.2500010538101
276,152,131758,2,0,P|276:124|276:88,2,55.2500010538101
284,236,132237,1,0,0:0:0:0:
284,236,132317,1,0,0:0:0:0:
284,236,132396,1,0,0:0:0:0:
216,240,132556,1,0,0:0:0:0:
156,216,132715,1,0,0:0:0:0:
112,168,132875,2,0,L|64:188,4,27.6250005269051
48,308,133513,6,0,L|112:252,1,65,4|0,0:0|0:0,0:0:0:0:
168,188,133832,1,0,0:0:0:0:
192,272,133992,1,0,0:0:0:0:
212,188,134152,1,0,0:0:0:0:
132,212,134311,1,0,0:0:0:0:
256,96,134630,5,0,0:0:0:0:
320,96,134790,2,0,P|332:72|364:68,2,32.5
300,156,135109,1,0,0:0:0:0:
348,200,135269,2,0,B|360:252|360:260|360:260|300:292,1,130
188,228,135907,5,0,0:0:0:0:
148,176,136066,2,0,L|96:208,2,32.5
184,136,136386,1,0,0:0:0:0:
148,84,136545,1,0,0:0:0:0:
148,84,136625,1,0,0:0:0:0:
148,84,136705,1,0,0:0:0:0:
256,60,137024,6,0,P|348:84|376:128,1,130
260,180,137662,1,0,0:0:0:0:
384,220,137981,1,0,0:0:0:0:
316,108,138301,1,0,0:0:0:0:
220,192,138779,5,0,0:0:0:0:
172,148,138939,2,0,P|140:180|132:208,2,65
232,120,139418,1,0,0:0:0:0:
340,48,139737,5,0,0:0:0:0:
392,84,139896,1,0,0:0:0:0:
392,84,139976,1,0,0:0:0:0:
392,84,140056,1,0,0:0:0:0:
344,128,140216,1,0,0:0:0:0:
396,164,140375,2,0,B|412:224|412:224|348:272,1,130
168,224,141173,6,0,P|124:144|152:104,1,130
264,148,141811,2,0,P|304:208|280:268,1,130
180,188,142450,1,0,0:0:0:0:
292,124,142769,1,0,0:0:0:0:
232,240,143088,1,0,0:0:0:0:
224,112,143407,1,0,0:0:0:0:
224,112,143487,1,0,0:0:0:0:
224,112,143567,2,0,P|272:112|284:116,2,32.5,0|0|4,0:0|0:0|0:0,0:0:0:0:
108,168,144045,6,0,P|124:216|152:228,2,65
116,104,144524,1,0,0:0:0:0:
244,112,144843,1,0,0:0:0:0:
212,168,145003,1,0,0:0:0:0:
256,216,145162,1,0,0:0:0:0:
320,200,145322,2,0,P|336:244|320:276,2,65
284,144,145801,1,0,0:0:0:0:
376,236,146120,5,0,0:0:0:0:
312,220,146279,2,0,P|312:272|336:296,2,65
408,132,146918,2,0,P|432:180|428:204,2,65
284,92,147556,1,0,0:0:0:0:
392,164,147875,1,0,0:0:0:0:
356,40,148194,1,0,0:0:0:0:
296,156,148514,1,0,0:0:0:0:
120,72,148992,5,0,0:0:0:0:
120,72,149152,2,0,P|80:72|72:84,2,32.5
180,92,149471,1,0,0:0:0:0:
228,48,149631,1,0,0:0:0:0:
172,164,149950,5,0,0:0:0:0:
232,144,150109,1,0,0:0:0:0:
232,144,150189,1,0,0:0:0:0:
232,144,150269,1,0,0:0:0:0:
272,196,150428,1,0,0:0:0:0:
328,164,150588,2,0,P|344:132|272:84,1,130
100,144,151386,6,0,L|56:288,1,130
188,236,152024,2,0,L|232:88,1,130
340,168,152663,1,0,0:0:0:0:
236,248,152982,1,0,0:0:0:0:
364,240,153301,1,0,0:0:0:0:
280,140,153620,1,0,0:0:0:0:
136,80,153939,6,0,P|104:128|120:232,1,155.999995239258,4|8,0:0|0:0,0:0:0:0:
248,144,154578,2,0,P|264:224|224:296,1,155.999995239258,0|8,0:0|0:0,0:0:0:0:
360,196,155216,1,0,0:0:0:0:
216,260,155535,1,8,0:0:0:0:
372,272,155854,1,0,0:0:0:0:
264,160,156173,1,8,0:0:0:0:
384,60,156492,6,0,B|292:84|292:84|272:164,1,155.999995239258,0|8,0:0|0:0,0:0:0:0:
292,300,157131,2,0,B|384:280|384:280|412:196,1,155.999995239258,0|8,0:0|0:0,0:0:0:0:
252,252,157769,1,0,0:0:0:0:
340,124,158088,1,8,0:0:0:0:
360,280,158407,1,0,0:0:0:0:
248,168,158727,1,8,0:0:0:0:
104,112,159046,6,0,P|156:172|244:176,1,155.999995239258,0|8,0:0|0:0,0:0:0:0:
172,36,159684,2,0,P|284:48|304:100,1,155.999995239258,0|8,0:0|0:0,0:0:0:0:
160,148,160322,1,0,0:0:0:0:
312,124,160641,1,8,0:0:0:0:
176,200,160961,1,0,0:0:0:0:
288,92,161280,1,8,0:0:0:0:
132,80,161599,6,0,B|112:164|112:164|160:224,1,155.999995239258,0|8,0:0|0:0,0:0:0:0:
260,104,162237,2,0,B|300:172|300:172|252:264,1,155.999995239258,0|8,0:0|0:0,0:0:0:0:
140,144,162876,1,0,0:0:0:0:
208,284,163195,1,8,0:0:0:0:
236,132,163514,1,0,0:0:0:0:
100,208,163833,1,8,0:0:0:0:
196,264,164152,5,0,0:0:0:0:
196,264,164312,1,0,0:0:0:0:
264,176,164631,2,0,P|320:224|320:276,1,110.50000210762
324,312,165110,1,0,0:0:0:0:
376,216,165429,5,0,0:0:0:0:
376,216,165588,1,0,0:0:0:0:
312,124,165908,2,0,P|240:92|200:100,1,110.50000210762
160,112,166386,1,0,0:0:0:0:
108,208,166705,6,0,L|60:196,4,27.6250005269051
144,248,167184,1,0,0:0:0:0:
176,204,167344,1,0,0:0:0:0:
212,244,167503,1,0,0:0:0:0:
252,204,167663,2,0,P|296:188|300:184,4,27.6250005269051,0|0|0|0|4,0:0|0:0|0:0|0:0|0:0,0:0:0:0:
328,268,178195,6,0,P|368:296|384:296,2,65,0|0|8,0:0|0:0|0:0,0:0:0:0:
296,212,178674,2,0,P|268:168|240:156,1,65
200,132,178993,1,0,0:0:0:0:
136,128,179152,2,0,P|76:140|64:160,2,65,8|0|0,0:0|0:0|0:0,0:0:0:0:
196,148,179631,2,0,L|264:196,1,65,0|8,0:0|0:0,0:0:0:0:
296,140,179950,2,0,L|232:100,1,65
192,64,180270,1,0,0:0:0:0:
244,24,180429,1,8,0:0:0:0:
128,84,180748,6,0,B|88:96|88:96|88:136,2,65,0|0|8,0:0|0:0|0:0,0:0:0:0:
152,144,181227,2,0,B|184:160|184:160|184:212,2,65
88,160,181706,2,0,P|56:224|88:296,1,130,8|0,0:0|0:0,0:0:0:0:
116,324,182184,1,0,0:0:0:0:
168,284,182344,1,8,0:0:0:0:
224,248,182504,2,0,P|264:224|296:232,2,65
272,292,182982,1,8,0:0:0:0:
320,172,183302,6,0,B|276:108|208:108|148:164|124:40,1,260
56,224,184419,2,0,P|88:264|128:272,1,65
164,280,184738,1,0,0:0:0:0:
228,276,184897,2,0,P|300:260|328:204,1,130
200,192,185536,1,0,0:0:0:0:
272,128,185855,6,0,L|208:144,1,48.750001859665,4|0,0:0|0:0,0:0:0:0:
132,168,186333,1,0,0:0:0:0:
88,188,186493,2,0,P|32:152|40:116,1,97.50000371933
56,88,186972,1,0,0:0:0:0:
100,64,187131,2,0,P|156:44|212:48,1,97.50000371933
144,128,187770,1,0,0:0:0:0:
240,132,188089,1,0,0:0:0:0:
324,84,188408,5,4,0:0:0:0:
124,272,189685,1,0,0:0:0:0:
256,192,190961,12,0,193514,0:0:0:0:
256,192,194791,5,0,0:0:0:0:
256,192,196068,12,0,198302,0:0:0:0:
368,112,198621,6,0,P|320:200|144:264,1,292.50001115799
112,264,199738,1,0,0:0:0:0:
76,264,199898,2,0,P|92:128|224:64,1,292.50001115799
256,68,201015,1,0,0:0:0:0:
288,80,201174,1,0,0:0:0:0:
316,100,201334,2,0,P|336:160|320:200,1,97.50000371933
236,144,202132,2,0,P|200:136|184:160,2,48.750001859665
284,192,202770,2,0,P|316:196|332:220,2,48.750001859665
280,260,203408,1,0,0:0:0:0:
316,204,203727,5,0,0:0:0:0:
268,156,204047,2,0,L|232:188,2,48.750001859665
228,100,204685,1,0,0:0:0:0:
172,140,205004,5,0,0:0:0:0:
220,188,205323,2,0,L|268:148,2,48.750001859665
276,228,205962,1,0,0:0:0:0:
256,192,206281,12,0,208515,0:0:0:0:
288,288,208834,5,4,0:0:0:0:
284,232,208994,2,0,P|281:190|232:148,1,110.50000210762
132,200,209633,2,0,P|136:236|164:256,1,55.2500010538101
80,160,210111,6,0,P|112:116|132:116,1,55.2500010538101
220,108,210590,2,0,P|268:128|268:196,1,110.50000210762
260,236,211069,1,0,0:0:0:0:
160,280,211387,5,0,0:0:0:0:
160,280,211467,1,0,0:0:0:0:
160,280,211547,1,0,0:0:0:0:
96,188,211866,2,0,P|64:132|88:76,1,110.50000210762
128,68,212345,1,0,0:0:0:0:
236,40,212664,6,0,L|276:24,2,27.6250005269051
192,144,213143,2,0,B|192:192|208:204|188:272,1,110.50000210762
192,308,213621,5,0,0:0:0:0:
200,144,214100,2,0,L|152:104,1,55.2500010538101
172,56,214419,2,0,L|220:96,2,55.2500010538101
116,56,214898,1,0,0:0:0:0:
52,144,215217,1,0,0:0:0:0:
52,144,215297,1,0,0:0:0:0:
52,144,215377,1,0,0:0:0:0:
64,252,215696,2,0,P|116:340|188:352,1,165.75000316143
244,268,216494,6,0,L|288:228,1,55.2500010538101
320,188,216813,1,0,0:0:0:0:
320,132,216972,2,0,L|276:92,2,55.2500010538101
356,176,217451,1,0,0:0:0:0:
356,176,217531,1,0,0:0:0:0:
356,176,217611,1,0,0:0:0:0:
396,212,217770,2,0,P|432:240|428:256,1,55.2500010538101
436,300,218089,2,0,P|408:320|368:316,1,55.2500010538101
328,300,218409,6,0,L|344:272,8,32.5
256,192,219366,6,0,L|200:232,1,65,4|0,0:0|0:0,0:0:0:0:
152,268,219685,1,0,0:0:0:0:
88,272,219845,2,0,P|56:232|76:156,1,130
96,136,220244,1,0,0:0:0:0:
120,112,220324,1,0,0:0:0:0:
236,56,220643,2,0,P|272:40|300:40,2,65
216,116,221121,1,0,0:0:0:0:
344,140,221441,5,0,0:0:0:0:
388,188,221600,2,0,P|408:220|404:268,2,65
344,236,222079,1,0,0:0:0:0:
288,204,222238,2,0,P|288:256|312:276,2,65
196,112,222877,5,0,0:0:0:0:
164,168,223036,2,0,L|116:236,1,65
140,284,223356,1,0,0:0:0:0:
204,292,223515,2,0,L|276:260,2,65
120,72,224313,6,2,P|104:60|80:56,2,32.5
176,192,224792,1,2,0:0:0:0:
112,176,224951,1,2,0:0:0:0:
68,300,225270,5,0,0:0:0:0:
68,300,225350,1,0,0:0:0:0:
68,300,225430,1,0,0:0:0:0:
192,336,225749,1,0,0:0:0:0:
256,324,225909,2,0,P|312:292|336:148,1,195
244,92,226707,5,0,0:0:0:0:
300,208,227026,1,0,0:0:0:0:
184,152,227345,1,0,0:0:0:0:
312,124,227664,1,0,0:0:0:0:
244,236,227983,1,0,0:0:0:0:
236,108,228302,1,0,0:0:0:0:
332,196,228622,1,0,0:0:0:0:
204,176,228941,2,0,L|164:192,4,32.5,0|0|0|0|4,0:0|0:0|0:0|0:0|0:0,0:0:0:0:
320,116,229579,6,0,L|384:80,2,65
384,180,230058,1,0,0:0:0:0:
248,136,230377,1,0,0:0:0:0:
248,208,230537,1,0,0:0:0:0:
152,104,230856,2,0,L|80:152,2,65
192,164,231334,1,0,0:0:0:0:
400,208,231813,5,0,0:0:0:0:
400,208,231973,2,0,P|432:176|432:176,2,32.5
376,276,232292,1,0,0:0:0:0:
328,224,232452,1,0,0:0:0:0:
208,300,232771,5,0,0:0:0:0:
184,232,232930,1,0,0:0:0:0:
184,232,233010,1,0,0:0:0:0:
184,232,233090,1,0,0:0:0:0:
300,148,233409,1,0,0:0:0:0:
160,128,233728,1,0,0:0:0:0:
300,100,234047,1,0,0:0:0:0:
408,56,234526,5,0,0:0:0:0:
372,124,234686,1,0,0:0:0:0:
364,140,234765,1,0,0:0:0:0:
356,156,234845,1,0,0:0:0:0:
312,220,235005,2,0,P|212:208|188:236,1,130
128,204,235483,5,0,0:0:0:0:
136,280,235643,2,0,P|184:300|208:292,2,65
188,220,236122,1,0,0:0:0:0:
252,176,236281,2,0,B|204:132|168:136|168:136|120:104,1,130
72,20,236920,5,0,0:0:0:0:
112,196,237239,1,0,0:0:0:0:
176,24,237558,1,0,0:0:0:0:
216,200,237877,1,0,0:0:0:0:
44,148,238196,1,0,0:0:0:0:
216,92,238515,1,0,0:0:0:0:
88,220,238835,1,0,0:0:0:0:
160,52,239154,1,0,0:0:0:0:
88,224,249686,6,0,L|220:124,1,155.999995239258,0|8,0:0|0:0,0:0:0:0:
348,204,250324,2,0,L|216:308,1,155.999995239258,0|8,0:0|0:0,0:0:0:0:
144,168,250963,6,0,P|176:112|272:112,1,155.999995239258,0|8,0:0|0:0,0:0:0:0:
304,256,251601,2,0,P|372:220|384:136,1,155.999995239258,0|8,0:0|0:0,0:0:0:0:
276,256,252239,6,0,B|312:304|312:304|408:284,1,155.999995239258,0|8,0:0|0:0,0:0:0:0:
324,152,252877,2,0,B|288:108|288:108|188:132,1,155.999995239258,0|8,0:0|0:0,0:0:0:0:
144,280,253516,6,0,P|100:340|12:336,1,155.999995239258,0|8,0:0|0:0,0:0:0:0:
148,248,254154,2,0,P|176:196|272:188,1,155.999995239258,0|8,0:0|0:0,0:0:0:0:
340,208,254633,5,0,0:0:0:0:
368,136,254792,1,0,0:0:0:0:
291,110,254952,2,0,L|263:190,1,77.999997619629
208,132,255272,2,0,L|240:32,1,77.999997619629
156,40,255591,2,0,B|188:16|188:16|308:48,1,155.999995239258
272,120,256070,1,0,0:0:0:0:
272,120,256149,1,0,0:0:0:0:
272,120,256229,1,0,0:0:0:0:
396,216,256548,2,0,P|364:284|288:280,1,155.999995239258
56,276,257346,6,0,L|-16:320,2,77.999997619629
132,328,257825,2,0,P|150:294|152:255,1,77.999997619629
76,200,258144,2,0,P|78:161|96:127,1,77.999997619629
184,88,258463,1,0,0:0:0:0:
180,180,258623,1,0,0:0:0:0:
180,180,258703,1,0,0:0:0:0:
180,180,258782,1,0,0:0:0:0:
268,144,258942,1,0,0:0:0:0:
260,236,259101,1,0,0:0:0:0:
