osu file format v14

[General]
AudioFilename: audio.mp3
AudioLeadIn: 0
PreviewTime: 133354
Countdown: 0
SampleSet: Soft
StackLeniency: 0.7
Mode: 0
LetterboxInBreaks: 0
WidescreenStoryboard: 1

[Editor]
Bookmarks: 21170,92342,112768,130641,153939,216175,235483
DistanceSpacing: 1
BeatDivisor: 1
GridSize: 4
TimelineZoom: 0.8

[Metadata]
Title:Hachigatsu no Yoru
TitleUnicode:Hachigatsu no Yoru
Artist:Silent Siren
ArtistUnicode:Silent Siren
Creator:TenkaiPalm
Version:Easy
Source:
Tags:Hachigatsu no Yoru 八月の夜 八月之夜
BeatmapID:971032
BeatmapSetID:452712

[Difficulty]
HPDrainRate:3
CircleSize:3.2
OverallDifficulty:2.5
ApproachRate:3
SliderMultiplier:0.9
SliderTickRate:1

[Events]
//Background and Video events
0,0,"Konachan.com - 218193 hatsune_miku saihate sakura_miku vocaloid.jpg",0,0
//Break Periods
2,82329,91540
2,168182,176755
2,239354,248246
//Storyboard Layer 0 (Background)
//Storyboard Layer 1 (Fail)
//Storyboard Layer 2 (Pass)
//Storyboard Layer 3 (Foreground)
//Storyboard Sound Samples

[TimingPoints]
745,319.155614973262,4,2,0,100,1,0
41596,-117.647058823529,4,2,0,70,0,0
62022,-100,4,2,0,70,0,1
82448,-100,4,2,0,70,0,0
113087,-117.647058823529,4,2,0,70,0,0
133513,-100,4,2,0,70,0,1
153939,-83.3333333333333,4,2,0,70,0,1
164152,-117.647058823529,4,2,0,70,0,1
167982,-100,4,2,0,70,0,0
185855,-133.333333333333,4,2,0,70,0,0
188408,-133.333333333333,4,2,0,70,0,0
208834,-117.647058823529,4,2,0,70,0,0
218409,-100,4,2,0,70,0,0
219366,-100,4,2,0,70,0,1
239473,-100,4,2,0,70,0,0
249686,-83.3333333333333,4,2,0,70,0,0

[Colours]
Combo1 : 240,79,79
Combo2 : 253,217,236
Combo3 : 255,36,36
Combo4 : 250,138,90

[HitObjects]
252,136,21170,5,0,0:0:0:0:
256,228,21490,2,0,P|274:268|320:296,2,90,8|0|8,0:0|0:0|0:0,0:0:0:0:
336,188,22447,2,0,P|318:148|272:120,1,90,8|0,0:0|0:0,0:0:0:0:
192,108,23085,1,0,0:0:0:0:
208,196,23405,1,8,0:0:0:0:
232,284,23724,6,0,P|268:252|292:208,1,90,0|8,0:0|0:0,0:0:0:0:
372,252,24362,2,0,P|385:203|380:160,1,90,0|8,0:0|0:0,0:0:0:0:
404,76,25000,6,8,L|497:87,2,90,8|8|0,0:0|0:0|0:0,0:0:0:0:
316,72,25958,1,8,0:0:0:0:
240,120,26277,2,0,P|211:140|157:127,1,90,0|8,0:0|0:0,0:0:0:0:
84,80,26915,2,0,P|71:117|84:176,1,90,0|8,0:0|0:0,0:0:0:0:
156,212,27554,2,0,P|200:236|228:276,2,90,8|8|0,0:0|0:0|0:0,0:0:0:0:
140,300,28511,1,8,0:0:0:0:
56,264,28830,6,0,L|68:164,1,90,8|0,0:0|0:0,0:0:0:0:
80,84,29469,2,0,P|122:97|168:112,1,90,8|0,0:0|0:0,0:0:0:0:
252,140,31064,5,0,0:0:0:0:
324,84,31383,1,0,0:0:0:0:
324,176,31703,2,0,B|396:164|396:164|392:188,1,90,8|0,0:0|0:0,0:0:0:0:
460,240,32341,2,0,P|492:193|484:156,2,90,8|0|8,0:0|0:0|0:0,0:0:0:0:
384,288,33298,2,0,P|372:228|388:192,1,90,0|8,0:0|0:0,0:0:0:0:
292,224,33937,6,0,P|278:173|288:122,1,90,0|8,0:0|0:0,0:0:0:0:
228,68,34575,2,0,B|166:70|166:70|138:106,1,90,0|8,0:0|0:0,0:0:0:0:
88,154,35213,2,0,P|124:194|120:246,2,90
228,216,36490,6,0,P|257:268|369:336,1,180
424,272,37447,1,0,0:0:0:0:
396,188,37767,2,0,L|288:36,1,180
200,36,38724,1,0,0:0:0:0:
124,80,39043,6,0,P|140:140|92:216,1,90
104,252,39681,1,0,0:0:0:0:
188,224,40001,2,0,P|192:296|176:344,1,90
280,312,40639,2,2,P|284:264|304:196,2,90
212,332,41596,6,0,P|108:332|76:280,1,153.000002918243,4|0,0:0|0:0,0:0:0:0:
156,272,42553,1,0,0:0:0:0:
72,220,42873,2,0,L|48:68,1,153.000002918243,2|0,0:0|0:0,0:0:0:0:
148,120,43831,6,0,P|184:130|272:72,2,76.5000014591217
188,56,44788,1,0,0:0:0:0:
264,60,45107,2,0,P|332:80|376:160,2,153.000002918243
292,180,46703,6,0,P|217:205|184:288,1,153.000002918243,4|0,0:0|0:0,0:0:0:0:
272,264,47660,1,0,0:0:0:0:
360,260,47980,2,0,L|412:104,1,153.000002918243,0|0,0:0|0:0,0:0:0:0:
428,40,48937,5,0,0:0:0:0:
356,64,49256,2,0,P|281:89|212:60,1,153.000002918243
128,96,50214,2,0,L|64:288,2,153.000002918243,0|0|4,0:0|0:0|0:0,0:0:0:0:
216,128,51809,6,0,P|252:184|256:288,1,153.000002918243,4|0,0:0|0:0,0:0:0:0:
312,324,52766,1,0,0:0:0:0:
388,308,53086,2,0,L|440:152,1,153.000002918243,0|0,0:0|0:0,0:0:0:0:
388,96,54043,6,0,P|288:100|240:128,1,153.000002918243,0|0,0:0|0:0,0:0:0:0:
160,160,55000,1,0,0:0:0:0:
76,196,55320,2,0,P|111:251|204:272,2,153.000002918243,0|0|0,0:0|0:0|0:0,0:0:0:0:
216,80,57235,6,0,P|300:128|304:144,2,76.5000014591217
164,156,58193,2,0,P|236:224|268:220,2,76.5000014591217
332,224,59469,6,2,P|348:228|384:236,2,38.2500007295609
256,176,60107,2,2,L|192:196,2,38.2500007295609
320,136,60746,2,2,L|372:156,3,38.2500007295609
260,307,62022,6,0,P|187:305|144:328,1,90,0|8,0:0|0:0,0:0:0:0:
92,268,62661,1,0,0:0:0:0:
160,208,62980,1,8,0:0:0:0:
72,184,63299,1,0,0:0:0:0:
140,128,63618,2,0,P|120:45|156:-16,2,90,8|0|8,0:0|0:0|0:0,0:0:0:0:
220,84,64576,6,0,L|296:160,1,90,0|8,0:0|0:0,0:0:0:0:
252,232,65214,2,0,L|176:160,1,90,0|8,0:0|0:0,0:0:0:0:
136,244,65852,1,0,0:0:0:0:
204,304,66171,1,8,0:0:0:0:
280,252,66491,2,0,P|320:168|276:72,1,180,0|4,0:0|0:0,0:0:0:0:
212,132,67448,6,0,L|104:160,2,90
272,196,68405,6,0,L|376:216,2,90
128,308,69682,6,0,P|116:244|124:214,1,90,0|0,0:0|0:0,0:0:0:0:
144,132,70320,1,0,0:0:0:0:
232,144,70640,2,0,B|284:156|284:156|308:236,2,90,0|0|0,0:0|0:0|0:0,0:0:0:0:
184,68,71597,1,0,0:0:0:0:
268,36,71916,1,0,0:0:0:0:
356,52,72235,5,4,0:0:0:0:
320,136,72555,2,0,P|300:200|316:240,2,90,8|0|8,0:0|0:0|0:0,0:0:0:0:
232,128,73512,5,0,0:0:0:0:
228,216,73831,2,0,P|212:280|176:320,2,90,8|0|8,0:0|0:0|0:0,0:0:0:0:
188,136,74789,6,0,L|92:80,1,90
104,180,75427,2,0,L|212:240,1,90
176,312,76065,2,0,L|56:244,1,90
168,212,76704,1,0,0:0:0:0:
252,248,77023,1,0,0:0:0:0:
204,76,77661,6,2,P|144:40|100:48,2,90
176,160,78618,2,0,P|220:196|264:196,2,90
328,60,79895,6,0,L|368:164,1,90
448,132,80533,2,0,P|424:224|392:256,1,90
352,264,81172,2,0,P|272:248|256:176,1,90
220,172,81810,2,0,P|180:216|188:280,1,90
88,224,92980,6,0,L|0:320,2,90,0|0|8,0:0|0:0|0:0,0:0:0:0:
152,160,93938,2,0,P|188:125|224:112,1,90,0|8,0:0|0:0,0:0:0:0:
244,200,94576,2,0,P|287:190|320:160,1,90,0|8,0:0|0:0,0:0:0:0:
404,128,95215,6,0,P|392:236|220:340,1,270,2|0,0:0|0:0,0:0:0:0:
184,336,96491,1,0,0:0:0:0:
228,260,96810,1,0,0:0:0:0:
172,188,97129,1,0,0:0:0:0:
85,193,97449,6,0,L|124:112,1,90
156,140,98087,2,0,L|194:58,1,90
228,89,98725,2,0,L|268:8,1,90
332,68,99364,1,0,0:0:0:0:
292,148,99683,1,0,0:0:0:0:
408,296,100321,6,0,L|256:284,1,90,0|0,0:0|0:0,0:0:0:0:
264,216,100959,2,0,P|237:246|236:328,1,90,0|0,0:0|0:0,0:0:0:0:
136,308,101598,2,2,B|98:295|98:295|76:192,1,90,2|2,0:0|0:0,0:0:0:0:
72,156,102236,1,2,0:0:0:0:
152,200,102555,1,2,0:0:0:0:
148,112,102874,6,0,P|228:52|348:104,1,180,4|8,0:0|0:0,0:0:0:0:
388,96,103832,2,0,P|436:36|460:28,2,90,0|8|0,0:0|0:0|0:0,0:0:0:0:
208,76,105428,6,0,L|136:140,1,90,0|8,0:0|0:0,0:0:0:0:
156,224,106066,2,0,L|244:152,1,90,0|8,0:0|0:0,0:0:0:0:
308,136,106704,2,0,P|300:64|244:28,2,90
320,224,107662,5,8,0:0:0:0:
284,308,107981,2,0,L|172:292,1,90,0|8,0:0|0:0,0:0:0:0:
156,212,108619,6,0,L|84:292,2,90,0|8|0,0:0|0:0|0:0,0:0:0:0:
216,144,109577,1,8,0:0:0:0:
280,80,109896,2,0,L|336:192,1,90,0|8,0:0|0:0,0:0:0:0:
380,224,110534,6,0,B|276:288|248:204|220:136|80:284,1,270
56,188,111811,2,0,P|124:80|228:84,1,180
212,136,112768,1,0,0:0:0:0:
272,80,113087,6,0,P|343:102|392:216,1,153.000002918243,4|0,0:3|0:3,0:3:0:0:
412,244,114044,1,0,0:0:0:0:
340,268,114364,2,0,L|172:224,1,153.000002918243,0|0,0:0|0:0,0:0:0:0:
132,180,115322,6,0,P|144:128|236:92,1,153.000002918243,0|0,0:0|0:0,0:0:0:0:
304,104,116279,1,0,0:0:0:0:
360,156,116598,2,0,P|387:215|332:284,2,153.000002918243,0|0|0,0:0|0:0|0:0,0:0:0:0:
264,184,118194,6,0,P|189:209|124:180,1,153.000002918243
60,136,119151,1,0,0:0:0:0:
16,200,119470,2,0,L|116:332,1,153.000002918243
184,316,120429,6,0,P|244:300|272:192,1,153.000002918243,0|0,0:0|0:0,0:0:0:0:
284,144,121386,1,0,0:0:0:0:
284,68,121704,2,0,P|368:76|412:144,2,153.000002918243,0|0|2,0:0|0:0|0:0,0:0:0:0:
204,92,123300,6,0,P|192:176|252:228,1,153.000002918243,2|0,0:0|0:0,0:0:0:0:
268,144,124257,1,0,0:0:0:0:
344,132,124577,2,0,L|412:276,1,153.000002918243,0|0,0:0|0:0,0:0:0:0:
332,264,125535,6,0,P|252:268|188:328,1,153.000002918243,0|0,0:0|0:0,0:0:0:0:
136,264,126492,1,0,0:0:0:0:
116,192,126811,2,0,P|192:168|240:104,2,153.000002918243,0|0|0,0:0|0:0|0:0,0:0:0:0:
260,240,128726,6,0,P|304:260|292:328,2,76.5000014591217
260,164,129683,6,0,P|216:144|228:76,2,76.5000014591217
196,304,130960,6,0,L|224:212,1,76.5000014591217
144,236,131598,2,0,L|176:140,1,76.5000014591217
108,116,132237,1,0,0:0:0:0:
184,100,132556,1,0,0:0:0:0:
260,84,132875,2,0,L|292:76,4,19.1250003647804,0|0|0|0|4,0:0|0:0|0:0|0:0|0:0,0:0:0:0:
348,60,133513,5,0,0:0:0:0:
380,144,133833,2,8,P|400:208|384:248,2,90,8|0|8,0:0|0:0|0:0,0:0:0:0:
304,192,134790,5,0,0:0:0:0:
216,200,135109,2,0,P|232:264|268:304,2,90,8|0|8,0:0|0:0|0:0,0:0:0:0:
292,152,136066,6,0,L|356:64,1,90,0|8,0:0|0:0,0:0:0:0:
260,48,136704,2,0,L|188:148,1,90,0|8,0:0|0:0,0:0:0:0:
228,208,137342,2,0,L|332:276,1,90,0|8,0:0|0:0,0:0:0:0:
392,236,137981,1,0,0:0:0:0:
348,156,138300,1,8,0:0:0:0:
196,252,138939,6,0,L|304:224,2,90,2|0|0,0:0|0:0|0:0,0:0:0:0:
180,164,139896,6,0,L|76:144,2,90,2|2|2,0:0|0:0|0:0,0:0:0:0:
60,296,141173,6,0,P|48:232|56:202,1,90,0|0,0:0|0:0,0:0:0:0:
136,240,141811,1,0,0:0:0:0:
204,180,142131,2,0,B|256:192|256:192|300:128,2,90,0|0|0,0:0|0:0|0:0,0:0:0:0:
144,112,143088,1,0,0:0:0:0:
216,60,143407,1,0,0:0:0:0:
304,84,143726,6,0,P|320:148|300:188,2,90,4|8|0,0:0|0:0|0:0,0:0:0:0:
228,132,144683,1,8,0:0:0:0:
229,218,145002,2,0,P|213:282|177:322,2,90,0|8|0,0:0|0:0|0:0,0:0:0:0:
228,132,145960,1,8,0:0:0:0:
140,108,146279,6,0,L|56:172,1,90,0|8,0:0|0:0,0:0:0:0:
148,204,146917,2,0,L|268:260,1,90,0|8,0:0|0:0,0:0:0:0:
136,288,147555,2,0,L|48:368,1,90,0|8,0:0|0:0,0:0:0:0:
48,260,148194,1,0,0:0:0:0:
108,192,148513,1,8,0:0:0:0:
284,228,149152,6,0,P|344:264|388:256,2,90,2|0|2,0:0|0:0|0:0,0:0:0:0:
336,156,150109,2,0,P|292:120|248:120,2,90,2|0|2,0:0|0:0|0:0,0:0:0:0:
172,84,151386,6,0,L|212:188,1,90
116,156,152024,2,0,P|92:248|124:284,1,90
180,240,152663,2,0,P|218:262|264:232,1,90
344,228,153301,2,0,L|412:148,1,90
400,72,153939,6,8,L|308:180,1,107.999996704102,0|8,0:0|0:0,0:0:0:0:
232,108,154578,2,0,L|268:232,1,107.999996704102,0|8,0:0|0:0,0:0:0:0:
208,304,155216,2,0,L|124:192,1,107.999996704102,0|8,0:0|0:0,0:0:0:0:
104,316,155854,2,0,L|0:240,1,107.999996704102,0|8,0:0|0:0,0:0:0:0:
36,144,156492,6,0,P|88:104|148:116,1,107.999996704102,0|8,0:0|0:0,0:0:0:0:
120,216,157131,2,0,P|160:272|224:284,1,107.999996704102,0|8,0:0|0:0,0:0:0:0:
276,216,157769,2,0,P|312:280|292:344,1,107.999996704102,0|8,0:0|0:0,0:0:0:0:
388,240,158407,2,0,P|380:180|452:128,1,107.999996704102,0|8,0:0|0:0,0:0:0:0:
368,40,159046,6,0,L|224:104,1,107.999996704102,4|8,0:0|0:0,0:0:0:0:
168,44,159684,2,0,P|120:100|136:172,1,107.999996704102,0|8,0:0|0:0,0:0:0:0:
228,136,160322,2,0,L|336:200,1,107.999996704102,0|8,0:0|0:0,0:0:0:0:
240,264,160961,2,0,P|176:288|108:244,1,107.999996704102,0|8,0:0|0:0,0:0:0:0:
240,264,161599,6,0,P|288:172|316:164,1,107.999996704102,0|8,0:0|0:0,0:0:0:0:
348,84,162237,2,0,L|388:220,1,107.999996704102,0|8,0:0|0:0,0:0:0:0:
292,124,162876,2,0,P|212:92|168:124,1,107.999996704102,0|8,0:0|0:0,0:0:0:0:
232,200,163514,2,0,L|132:292,1,107.999996704102,0|8,0:0|0:0,0:0:0:0:
160,196,164152,6,0,L|116:152,1,38.2500007295609
204,136,164631,2,0,P|280:192|296:244,1,114.750002188683
360,188,165429,6,0,L|340:128,1,38.2500007295609
348,76,165908,2,0,P|280:124|276:172,1,114.750002188683
204,124,166705,6,0,L|248:92,2,38.2500007295609,2|0|2,0:0|0:0|0:0,0:0:0:0:
144,168,167344,2,0,L|184:216,2,38.2500007295609,2|0|2,0:0|0:0|0:0,0:0:0:0:
104,108,167982,1,4,0:0:0:0:
164,44,178195,6,0,P|76:96|72:152,1,90,0|8,0:0|0:0,0:0:0:0:
164,120,178833,2,0,P|224:152|236:192,1,90,0|8,0:0|0:0,0:0:0:0:
152,208,179472,2,0,L|212:312,1,90,0|8,0:0|0:0,0:0:0:0:
288,292,180110,1,0,0:0:0:0:
328,212,180429,1,8,0:0:0:0:
288,132,180748,6,0,L|172:156,1,90,0|8,0:0|0:0,0:0:0:0:
132,88,181387,2,0,L|60:232,1,90,0|8,0:0|0:0,0:0:0:0:
124,252,182025,2,0,L|248:224,1,90,0|8,0:0|0:0,0:0:0:0:
152,164,182663,1,0,0:0:0:0:
180,76,182982,1,8,0:0:0:0:
244,140,183302,6,0,B|328:124|408:152|312:252|452:272,1,270
356,340,184578,2,0,B|200:264|120:296|120:204|208:192,1,270
208,160,185855,6,0,L|324:192,1,67.5000025749208,4|0,0:0|0:0,0:0:0:0:
340,196,186493,1,0,0:0:0:0:
408,208,186812,2,0,P|472:148|428:92,1,135.000005149842
392,120,187770,1,0,0:0:0:0:
416,56,188089,1,0,0:0:0:0:
348,64,188408,5,0,0:0:0:0:
112,124,189685,1,2,0:0:0:0:
256,192,190961,12,0,192876,0:0:0:0:
360,280,193514,5,0,0:0:0:0:
172,88,194791,1,0,0:0:0:0:
256,192,196068,12,0,197983,0:0:0:0:
200,244,198621,6,0,B|328:268|388:208|368:120|312:124|240:156|288:84,1,270.000010299683
156,80,200536,1,0,0:0:0:0:
176,144,200855,1,0,0:0:0:0:
256,192,201174,12,0,203089,0:0:0:0:
376,108,203727,6,0,B|236:64|152:128|272:224|176:204,1,270.000010299683
56,156,205642,1,0,0:0:0:0:
84,96,205962,1,0,0:0:0:0:
256,192,206281,12,0,208196,0:0:0:0:
300,188,208834,6,0,P|225:213|180:284,1,153.000002918243
160,344,209791,1,0,0:0:0:0:
96,304,210111,2,0,L|44:140,1,153.000002918243,0|0,0:0|0:0,0:0:0:0:
48,80,211068,6,0,P|92:44|184:80,1,153.000002918243,0|0,0:0|0:0,0:0:0:0:
240,116,212025,1,0,0:0:0:0:
208,188,212345,2,0,P|243:243|336:264,2,153.000002918243,0|0|0,0:0|0:0|0:0,0:0:0:0:
348,120,214260,6,0,P|408:192|436:184,2,76.5000014591217
272,132,215218,2,0,P|272:204|224:252,2,76.5000014591217
316,80,216494,6,0,L|293:153,1,76.5000014591217
368,148,217132,2,0,L|343:220,1,76.5000014591217
404,268,217770,1,0,0:0:0:0:
328,284,218089,1,0,0:0:0:0:
252,300,218409,1,0,0:0:0:0:
312,244,219366,6,0,P|332:308|316:348,2,90,4|0|8,0:0|0:0|0:0,0:0:0:0:
272,164,220323,5,0,0:0:0:0:
184,148,220642,2,0,P|200:212|236:252,2,90,8|0|8,0:0|0:0|0:0,0:0:0:0:
104,104,221599,6,0,L|51:176,1,90,0|8,0:0|0:0,0:0:0:0:
140,200,222238,2,0,L|80:288,1,90,0|8,0:0|0:0,0:0:0:0:
172,304,222877,2,0,L|288:284,1,90,0|8,0:0|0:0,0:0:0:0:
352,276,223514,1,0,0:0:0:0:
296,204,223833,1,8,0:0:0:0:
132,128,224473,6,0,L|80:16,2,90,2|0|2,0:0|0:0|0:0,0:0:0:0:
220,144,225430,6,0,L|264:232,2,90
368,248,226707,6,0,P|344:160|328:152,1,90
284,224,227345,2,0,P|260:168|284:112,1,90
312,64,227983,2,0,P|248:40|212:60,1,90
152,108,228622,1,0,0:0:0:0:
236,136,228941,1,0,0:0:0:0:
156,196,229260,5,4,0:0:0:0:
244,220,229579,2,0,P|324:248|352:296,2,90,8|0|8,0:0|0:0|0:0,0:0:0:0:
152,224,230537,1,0,0:0:0:0:
212,292,230856,2,0,P|164:304|80:308,2,90,8|0|8,0:0|0:0|0:0,0:0:0:0:
300,260,231813,6,0,L|376:176,1,90,0|8,0:0|0:0,0:0:0:0:
280,156,232451,2,8,L|364:60,1,90,0|8,0:0|0:0,0:0:0:0:
416,136,233090,2,0,L|492:192,1,90,0|8,0:0|0:0,0:0:0:0:
416,244,233728,1,0,0:0:0:0:
348,184,234047,1,8,0:0:0:0:
180,116,234685,6,0,P|120:80|100:40,2,90,2|0|2,0:0|0:0|0:0,0:0:0:0:
140,196,235642,2,0,P|184:232|192:288,2,90,2|0|2,0:0|0:0|0:0,0:0:0:0:
264,64,236920,6,0,L|304:168,1,90
384,140,237558,2,0,P|360:232|328:264,1,90
276,248,238197,2,0,P|196:232|208:160,1,90
148,160,238835,2,0,P|108:204|108:280,1,90
132,64,249686,6,0,L|216:160,1,107.999996704102,0|8,0:0|0:0,0:0:0:0:
96,164,250324,2,0,L|128:280,1,107.999996704102,0|8,0:0|0:0,0:0:0:0:
224,228,250963,2,0,L|328:320,1,107.999996704102,0|8,0:0|0:0,0:0:0:0:
336,196,251601,2,0,L|488:256,1,107.999996704102,0|8,0:0|0:0,0:0:0:0:
488,216,252239,6,0,L|387:176,1,107.999996704102,0|8,0:0|0:0,0:0:0:0:
356,279,252877,2,0,L|275:207,1,107.999996704102,0|8,0:0|0:0,0:0:0:0:
176,248,253516,2,0,L|147:143,1,107.999996704102,0|8,0:0|0:0,0:0:0:0:
254,125,254154,2,0,L|182:43,1,107.999996704102,0|8,0:0|0:0,0:0:0:0:
316,80,254793,6,0,L|212:132,1,107.999996704102,0|8,0:0|0:0,0:0:0:0:
320,172,255431,2,0,L|252:264,1,107.999996704102,0|8,0:0|0:0,0:0:0:0:
160,208,256069,1,0,0:0:0:0:
108,112,256388,1,8,0:0:0:0:
212,140,256707,1,0,0:0:0:0:
376,280,257346,6,0,L|416:160,1,107.999996704102
308,208,257984,2,0,L|344:96,1,107.999996704102,0|0,0:0|0:0,0:0:0:0:
232,116,258623,1,0,0:0:0:0:
140,176,258942,1,0,0:0:0:0:
228,240,259261,1,0,0:0:0:0:
