osu file format v14

[General]
AudioFilename: audio.mp3
AudioLeadIn: 0
PreviewTime: 133513
Countdown: 0
SampleSet: Soft
StackLeniency: 0.5
Mode: 0
LetterboxInBreaks: 0
WidescreenStoryboard: 1

[Editor]
DistanceSpacing: 1.7
BeatDivisor: 4
GridSize: 8
TimelineZoom: 1.4

[Metadata]
Title:Hachigatsu no Yoru
TitleUnicode:八月の夜
Artist:Silent Siren
ArtistUnicode:Silent Siren
Creator:Matsuyuki Ame
Version:Hard
Source:
Tags:rk657 l1ght_u light_u -hitomi sweets japanese jpop j-pop pop august night Yoshida Sumire Umemura Hinako Yamauchi Aina Kurosaka Yukako 吉田菫 梅村妃奈子 山内あいな 黒坂優香子 すぅ ひなんちゅ あいにゃん ゆかるん Suu Hinanchu Ainyan Yukarun
BeatmapID:3324410
BeatmapSetID:1615656

[Difficulty]
HPDrainRate:4.5
CircleSize:3.8
OverallDifficulty:7
ApproachRate:8
SliderMultiplier:1.4
SliderTickRate:1

[Events]
//Background and Video events
0,0,"bg.jpg",0,0
//Break Periods
2,59910,61513
2,188846,197789
//Storyboard Layer 0 (Background)
//Storyboard Layer 1 (Fail)
//Storyboard Layer 2 (Pass)
//Storyboard Layer 3 (Foreground)
//Storyboard Layer 4 (Overlay)
//Storyboard Sound Samples

[TimingPoints]
-290,319.148936170213,4,2,1,70,1,0
667,-166.666666666667,4,2,1,70,0,0
986,-100,4,2,1,70,0,0
21412,-111.111111111111,4,2,1,65,0,0
31305,-142.857142857143,4,2,1,65,0,0
31624,-105.263157894737,4,2,1,70,0,0
41837,-111.111111111111,4,2,2,60,0,0
59710,-111.111111111111,4,2,1,50,0,0
62263,-95.2380952380952,4,2,1,85,0,1
82688,-100,4,2,2,70,0,0
92901,-100,4,2,1,70,0,0
102795,-125,4,2,1,70,0,0
103114,-100,4,2,1,70,0,0
113327,-111.111111111111,4,2,2,60,0,0
132475,-111.111111111111,4,2,2,70,0,0
133752,-95.2380952380952,4,2,1,85,0,1
154178,-100,4,2,1,75,0,0
168220,-100,4,2,1,70,0,0
178433,-100,4,2,2,70,0,0
188007,-100,4,2,2,75,0,0
188327,-100,4,2,2,80,0,0
188646,-100,4,2,1,60,0,0
198858,-142.857142857143,4,2,1,60,0,0
209071,-111.111111111111,4,2,2,60,0,0
216731,-111.111111111111,4,2,1,60,0,0
218646,-111.111111111111,4,2,1,70,0,0
219603,-95.2380952380952,4,2,1,85,0,1
239710,-95.2380952380952,4,2,2,85,0,0
249922,-95.2380952380952,4,2,1,75,0,1
257582,-95.2380952380952,4,2,1,75,0,0

[Colours]
Combo1 : 120,200,230
Combo2 : 250,180,240
Combo3 : 160,230,150
Combo4 : 255,230,130

[HitObjects]
96,163,667,6,0,P|142:156|175:151,1,62.9999980773926,2|0,0:3|0:0,0:0:0:0:
199,134,986,6,0,P|185:199|173:282,2,140,6|8|0,3:2|0:0|3:2,0:0:0:0:
247,56,1784,1,2,0:3:0:0:
247,56,1944,2,0,P|293:66|322:71,1,70,8|2,0:0|0:3,0:0:0:0:
416,47,2263,6,0,P|361:63|341:151,1,140,0|8,3:2|0:0,0:0:0:0:
370,224,2741,1,2,0:3:0:0:
370,224,2901,2,0,P|355:262|351:300,1,70,2|2,3:2|0:3,0:0:0:0:
262,267,3220,2,0,P|277:229|281:191,1,70,10|2,0:0|0:3,0:0:0:0:
171,259,3539,6,0,B|100:274|140:319|56:337,2,140,2|8|0,3:2|0:0|3:2,0:0:0:0:
107,193,4337,1,2,0:3:0:0:
107,193,4497,2,0,P|98:152|86:114,1,70,8|2,0:0|0:3,0:0:0:0:
31,41,4816,6,0,P|107:47|171:52,1,140,2|8,3:2|0:0,0:0:0:0:
257,25,5295,1,2,0:3:0:0:
257,25,5454,2,0,P|297:48|300:68,1,70,0|2,3:2|0:3,0:0:0:0:
283,157,5773,2,0,P|322:152|370:149,1,70,8|2,0:0|0:3,0:0:0:0:
457,103,6092,6,0,B|429:135|429:135|442:183|456:246,1,140,2|8,3:2|0:0,0:0:0:0:
427,320,6571,1,2,0:3:0:0:
427,320,6731,2,0,P|464:313|504:307,1,70,0|2,3:2|0:3,0:0:0:0:
373,249,7050,2,0,P|336:242|296:236,1,70,8|2,0:0|0:3,0:0:0:0:
202,199,7369,6,0,P|207:242|221:348,2,140,0|8|2,3:2|0:0|3:2,0:0:0:0:
163,116,8167,1,2,0:3:0:0:
163,116,8327,2,0,P|124:124|90:131,1,70,10|2,0:0|0:3,0:0:0:0:
11,83,8646,6,0,P|50:115|63:217,1,140,2|8,3:2|0:0,0:0:0:0:
40,285,9124,2,0,B|103:320|103:320|161:274,1,140,2|2,0:0|0:3,0:0:0:0:
209,203,9603,2,0,L|292:216,1,70,8|2,0:0|0:3,0:0:0:0:
371,278,9922,6,0,P|409:207|478:203,1,140,2|8,3:2|0:0,0:0:0:0:
505,117,10401,1,2,0:0:0:0:
422,78,10561,2,0,L|426:121,2,35,8|8|0,0:0|0:0|3:2,0:0:0:0:
349,129,10880,1,8,0:0:0:0:
349,129,10960,1,8,0:0:0:0:
349,129,11039,1,0,3:2:0:0:
266,39,11199,6,0,B|218:48|218:48|185:83|185:83|121:93,2,140,6|8|0,3:2|0:0|3:2,0:0:0:0:
251,132,11997,1,2,0:3:0:0:
251,132,12156,2,0,L|243:209,1,70,8|2,0:0|0:3,0:0:0:0:
155,225,12475,6,0,P|219:229|259:298,1,140,0|8,3:2|0:0,0:0:0:0:
316,359,12954,1,2,0:3:0:0:
316,359,13114,2,0,P|361:354|393:354,1,70,2|2,3:2|0:3,0:0:0:0:
411,266,13433,2,0,P|365:270|334:271,1,70,10|2,0:0|0:3,0:0:0:0:
395,167,13752,6,0,B|481:185|439:220|516:237,2,140,2|8|0,3:2|0:0|3:2,0:0:0:0:
349,88,14550,1,2,0:3:0:0:
349,88,14710,2,0,P|341:47|336:12,1,70,8|2,0:0|0:3,0:0:0:0:
237,89,15029,6,0,P|159:99|94:104,1,140,2|8,3:2|0:0,0:0:0:0:
36,170,15507,1,2,0:3:0:0:
36,170,15667,2,0,P|47:211|52:243,1,70,0|2,3:2|0:3,0:0:0:0:
28,326,15986,2,0,P|80:325|102:313,1,70,8|2,0:0|0:3,0:0:0:0:
156,233,16305,6,0,P|181:289|262:307,1,140,2|8,3:2|0:0,0:0:0:0:
337,277,16784,1,2,0:3:0:0:
337,277,16944,2,0,P|377:280|411:285,1,70,0|2,3:2|0:3,0:0:0:0:
416,193,17263,2,0,P|376:190|342:185,1,70,8|2,0:0|0:3,0:0:0:0:
396,80,17582,6,0,P|458:77|492:145,1,140,2|8,3:2|0:0,0:0:0:0:
416,193,18061,1,2,0:3:0:0:
416,193,18220,2,0,B|421:267|462:248|472:327,1,140,2|8,3:2|0:0,0:0:0:0:
393,366,18699,1,2,0:3:0:0:
393,366,18858,6,0,P|343:359|308:356,1,70,2|2,3:2|0:3,0:0:0:0:
293,270,19178,2,0,P|243:277|208:280,1,70,8|2,0:0|0:3,0:0:0:0:
173,355,19497,2,0,P|123:348|88:345,1,70,0|2,3:2|0:3,0:0:0:0:
32,275,19816,1,10,0:0:0:0:
32,275,19975,6,0,B|39:200|39:200|42:199|42:199|50:115,1,140,2|2,0:3|0:3,0:0:0:0:
35,46,20454,2,0,P|85:63|121:62,1,70,8|2,0:0|0:3,0:0:0:0:
175,8,20773,1,0,3:2:0:0:
175,8,20933,1,2,0:3:0:0:
235,99,21092,2,0,L|280:90,3,35,8|8|8|8,0:0|0:0|0:0|0:0,0:0:0:0:
304,69,21412,6,0,P|354:78|438:90,1,125.999996154785,4|10,3:2|0:0,0:0:0:0:
506,113,21890,1,2,0:0:0:0:
466,185,22050,2,0,P|416:176|332:164,1,125.999996154785,2|10,3:2|0:0,0:0:0:0:
264,191,22528,1,2,0:0:0:0:
317,253,22688,6,0,P|308:307|305:336,1,62.9999980773926,2|2,3:2|3:2,0:0:0:0:
247,371,23007,2,0,P|296:349|374:371,1,125.999996154785,10|0,0:0|3:2,0:0:0:0:
445,374,23486,1,0,3:2:0:0:
478,293,23646,2,0,P|430:300|404:302,1,62.9999980773926,10|2,0:0|0:0,0:0:0:0:
332,213,23965,6,0,P|284:206|258:204,1,62.9999980773926,2|0,3:2|3:2,0:0:0:0:
217,141,24284,2,0,B|143:151|184:192|100:203,1,125.999996154785,8|2,0:0|3:2,0:0:0:0:
29,196,24763,1,0,3:2:0:0:
7,117,24922,2,0,P|5:78|1:33,1,62.9999980773926,8|2,0:0|0:0,0:0:0:0:
83,4,25241,6,0,P|131:9|152:33,1,62.9999980773926,2|2,3:2|3:2,0:0:0:0:
183,94,25561,1,10,0:0:0:0:
183,94,25720,1,2,0:0:0:0:
246,41,25880,2,0,P|279:62|382:72,1,125.999996154785,2|10,3:2|0:0,0:0:0:0:
442,53,26358,1,2,0:0:0:0:
500,142,26518,6,0,P|487:185|478:219,1,62.9999980773926,2|0,3:2|3:2,0:0:0:0:
486,284,26837,2,0,P|443:275|425:262,1,62.9999980773926,10|2,0:0|0:0,0:0:0:0:
378,199,27156,2,0,B|313:208|313:208|309:212|309:212|245:221,1,125.999996154785,2|8,3:2|0:0,0:0:0:0:
175,197,27635,1,2,0:0:0:0:
149,275,27795,6,0,P|154:319|157:345,1,62.9999980773926,2|0,3:2|3:2,0:0:0:0:
74,346,28114,2,0,P|68:295|65:269,1,62.9999980773926,10|0,0:0|0:0,0:0:0:0:
97,207,28433,2,0,B|66:137|128:142|93:66,1,125.999996154785,2|8,3:2|0:0,0:0:0:0:
62,12,28912,1,2,0:0:0:0:
167,28,29071,6,0,P|197:20|247:14,1,62.9999980773926,2|0,3:2|3:2,0:0:0:0:
309,1,29390,2,0,P|264:38|252:115,1,125.999996154785,8|2,0:0|3:2,0:0:0:0:
280,177,29869,1,0,3:2:0:0:
344,126,30029,1,8,0:0:0:0:
388,215,30188,1,2,0:0:0:0:
388,215,31146,5,0,3:2:0:0:
418,310,31305,2,0,P|369:301|334:298,1,73.4999977569581,14|0,0:0|0:0,0:0:0:0:
312,270,31624,6,0,B|230:278|271:320|185:326,2,132.999996448517,6|10|2,3:2|0:0|3:2,0:0:0:0:
379,215,32422,1,2,0:3:0:0:
318,153,32582,2,0,P|275:166|245:171,1,66.4999982242585,8|2,0:0|0:0,0:0:0:0:
206,103,32901,5,2,3:2:0:0:
206,103,33061,1,2,0:0:0:0:
148,39,33220,2,0,P|107:69|119:156,1,132.999996448517,10|0,0:0|3:2,0:0:0:0:
100,231,33699,1,2,0:3:0:0:
19,200,33858,2,0,P|24:246|26:277,1,66.4999982242585,8|2,0:0|0:0,0:0:0:0:
87,352,34178,6,0,P|121:326|212:309,1,132.999996448517,2|8,3:2|0:0,0:0:0:0:
281,352,34656,1,2,0:0:0:0:
322,275,34816,2,0,P|361:291|421:361,1,132.999996448517,2|8,3:2|0:0,0:0:0:0:
505,370,35295,1,2,0:0:0:0:
478,288,35454,6,0,P|484:251|489:213,1,66.4999982242585,2|2,3:2|0:3,0:0:0:0:
495,135,35773,2,0,P|454:134|410:138,1,66.4999982242585,10|2,0:0|0:3,0:0:0:0:
401,53,36092,2,0,P|360:54|316:50,1,66.4999982242585,2|2,3:2|0:3,0:0:0:0:
256,12,36412,2,0,P|288:63|293:105,1,99.7499973363877,10|0,0:0|0:0,0:0:0:0:
286,144,36731,6,0,P|227:137|196:133,1,66.4999982242585,2|2,3:2|0:3,0:0:0:0:
165,68,37050,2,0,P|128:81|113:111,1,66.4999982242585,10|2,0:0|0:3,0:0:0:0:
30,122,37369,2,0,P|22:160|41:188,1,66.4999982242585,2|2,3:2|0:3,0:0:0:0:
25,269,37688,2,0,P|54:294|88:292,1,66.4999982242585,10|2,0:0|0:3,0:0:0:0:
168,330,38007,6,0,P|165:289|162:253,1,66.4999982242585,2|2,3:2|0:3,0:0:0:0:
165,176,38327,2,0,P|206:180|232:204,1,66.4999982242585,10|2,0:0|0:3,0:0:0:0:
308,169,38646,2,0,P|325:206|317:241,1,66.4999982242585,2|2,3:2|0:3,0:0:0:0:
375,299,38965,2,0,P|351:332|317:343,1,66.4999982242585,10|2,0:0|0:3,0:0:0:0:
212,315,39284,6,0,B|166:329|166:329|141:362|141:362|91:376,2,132.999996448517,2|10|2,3:2|0:0|3:2,0:0:0:0:
294,341,40082,1,2,0:0:0:0:
279,256,40241,1,10,0:0:0:0:
279,256,40401,1,2,0:0:0:0:
383,301,40561,6,0,P|435:324|513:344,2,132.999996448517,2|10|2,3:2|0:0|3:2,0:0:0:0:
455,243,41358,1,8,0:0:0:0:
439,157,41518,1,8,0:0:0:0:
423,71,41678,1,8,0:0:0:0:
326,42,41837,6,0,L|338:123,1,62.9999980773926,4|0,3:2|3:2,0:0:0:0:
307,266,42316,2,0,B|231:256|274:213|181:199,1,125.999996154785,8|0,0:0|3:2,0:0:0:0:
138,151,42795,2,0,P|90:164|54:179,1,62.9999980773926,8|2,0:0|0:3,0:0:0:0:
23,253,43114,5,0,3:2:0:0:
23,253,43273,1,0,3:2:0:0:
161,349,43592,1,8,0:0:0:0:
161,349,43752,6,0,P|207:341|231:339,1,62.9999980773926,2|2,0:0|3:2,0:0:0:0:
294,296,44071,2,0,P|325:299|356:305,1,62.9999980773926,10|2,0:0|0:0,0:0:0:0:
428,344,44390,5,2,3:2:0:0:
428,344,44550,1,2,3:2:0:0:
480,280,44710,2,0,P|471:243|467:214,1,62.9999980773926,2|10,0:0|0:0,0:0:0:0:
452,137,45029,2,0,P|502:142|517:152,2,62.9999980773926,2|2|10,0:0|3:2|0:0,0:0:0:0:
384,183,45507,1,2,0:0:0:0:
328,122,45667,6,0,P|275:128|260:131,1,62.9999980773926,2|2,3:2|3:2,0:0:0:0:
197,93,45986,1,2,0:0:0:0:
197,93,46146,2,0,P|237:140|242:221,1,125.999996154785,8|0,0:0|3:2,0:0:0:0:
215,277,46624,2,0,P|170:271|144:267,1,62.9999980773926,8|2,0:0|0:3,0:0:0:0:
69,229,46944,6,0,P|67:200|59:149,1,62.9999980773926,0|0,3:2|3:2,0:0:0:0:
5,12,47422,2,0,B|85:4|50:53|144:44,1,125.999996154785,8|0,0:0|3:2,0:0:0:0:
198,14,47901,2,0,P|233:19|262:22,1,62.9999980773926,8|2,0:0|0:3,0:0:0:0:
358,56,48220,5,0,3:2:0:0:
358,56,48380,1,0,3:2:0:0:
385,221,48699,1,8,0:0:0:0:
385,221,48858,6,0,P|418:215|458:213,1,62.9999980773926,2|2,0:0|3:2,0:0:0:0:
437,130,49178,2,0,P|403:135|364:138,1,62.9999980773926,10|2,0:0|0:0,0:0:0:0:
309,188,49497,5,2,3:2:0:0:
309,188,49656,1,2,3:2:0:0:
237,147,49816,2,0,L|231:71,1,62.9999980773926,2|10,0:0|0:0,0:0:0:0:
170,29,50135,6,0,P|127:31|104:51,2,62.9999980773926,2|2|10,0:0|3:2|0:0,0:0:0:0:
232,84,50614,1,2,0:0:0:0:
291,10,50773,6,0,P|324:19|356:26,1,62.9999980773926,2|2,3:2|3:2,0:0:0:0:
433,16,51092,1,2,0:0:0:0:
433,16,51252,2,0,P|481:14|498:85,1,125.999996154785,0|0,3:2|3:2,0:0:0:0:
451,143,51731,2,0,P|465:204|475:253,1,94.499997116089,14|0,0:0|0:0,0:0:0:0:
471,276,52050,6,0,P|427:270|404:268,1,62.9999980773926,4|0,3:2|3:2,0:0:0:0:
278,168,52529,2,0,B|225:207|225:207|157:184,1,125.999996154785,8|0,0:0|3:2,0:0:0:0:
124,118,53007,2,0,P|79:128|55:133,1,62.9999980773926,8|2,0:0|0:3,0:0:0:0:
15,221,53327,5,0,3:2:0:0:
15,221,53486,1,0,3:2:0:0:
101,360,53805,1,8,0:0:0:0:
101,360,53965,6,0,P|103:320|105:289,1,62.9999980773926,2|2,0:0|3:2,0:0:0:0:
186,302,54284,2,0,P|183:341|182:373,1,62.9999980773926,10|2,0:0|0:0,0:0:0:0:
272,341,54603,5,2,3:2:0:0:
272,341,54763,1,2,3:2:0:0:
258,260,54922,2,0,P|289:265|329:271,1,62.9999980773926,2|10,0:0|0:0,0:0:0:0:
384,320,55241,6,0,P|374:354|368:381,2,62.9999980773926,2|2|10,0:0|3:2|0:0,0:0:0:0:
444,264,55720,1,2,0:0:0:0:
383,192,55880,6,0,L|370:111,1,62.9999980773926,2|2,3:2|3:2,0:0:0:0:
359,48,56199,1,2,0:0:0:0:
359,48,56358,2,0,P|306:26|249:72,1,125.999996154785,8|0,0:0|3:2,0:0:0:0:
248,143,56837,2,0,P|196:129|137:117,1,94.499997116089,10|0,0:0|0:0,0:0:0:0:
132,87,57156,6,0,P|140:35|146:9,2,62.9999980773926,2|2|2,3:2|3:2|0:0,0:0:0:0:
72,143,57635,1,10,0:0:0:0:
134,212,57795,2,0,P|140:242|144:274,1,62.9999980773926,2|2,0:0|3:2,0:0:0:0:
126,354,58114,2,0,P|176:344|198:342,1,62.9999980773926,10|2,0:0|0:0,0:0:0:0:
260,280,58433,5,2,3:2:0:0:
260,280,58592,2,0,B|318:293|293:322|358:330,1,94.499997116089,2|0,3:2|0:0,0:0:0:0:
379,313,58912,2,0,P|375:273|369:245,1,62.9999980773926,10|2,0:0|0:3,0:0:0:0:
363,168,59231,1,0,3:2:0:0:
454,247,59390,2,0,P|463:188|481:131,1,94.499997116089,8|0,0:0|0:0,0:0:0:0:
492,118,59710,5,10,0:0:0:0:
131,14,62263,6,0,B|137:97|186:68|190:153,1,146.999995513916,4|10,3:2|0:0,0:0:0:0:
161,235,62741,1,2,0:0:0:0:
161,235,62901,1,2,3:2:0:0:
86,174,63061,2,0,P|38:181|14:202,1,73.4999977569581,2|8,0:0|0:0,0:0:0:0:
87,299,63380,1,2,0:0:0:0:
161,235,63539,6,0,P|206:242|239:247,1,73.4999977569581,2|2,3:2|0:3,0:0:0:0:
315,296,63858,2,0,P|297:339|291:375,2,73.4999977569581,10|2|2,0:0|0:0|3:2,0:0:0:0:
408,273,64337,2,0,P|392:232|383:191,1,73.4999977569581,2|8,0:0|0:0,0:0:0:0:
453,136,64656,5,2,0:0:0:0:
453,136,64816,2,0,P|465:92|475:62,1,73.4999977569581,2|2,3:2|0:0,0:0:0:0:
401,3,65135,2,0,P|361:1|323:20,1,73.4999977569581,10|2,0:0|0:0,0:0:0:0:
301,105,65454,1,2,3:2:0:0:
217,57,65614,2,0,P|264:131|278:201,1,146.999995513916,2|2,0:0|0:0,0:0:0:0:
176,143,66092,6,0,P|134:140|86:136,1,73.4999977569581,2|2,3:2|0:0,0:0:0:0:
134,228,66412,1,10,0:0:0:0:
134,228,66571,1,2,0:0:0:0:
31,198,66731,2,0,P|44:240|50:283,1,73.4999977569581,2|2,3:2|0:3,0:0:0:0:
3,353,67050,2,0,P|49:306|129:330,1,146.999995513916,10|0,0:0|3:2,0:0:0:0:
211,380,67529,5,2,0:0:0:0:
211,380,67688,2,0,P|254:371|298:365,1,73.4999977569581,10|2,0:0|0:3,0:0:0:0:
318,277,68007,1,2,3:2:0:0:
318,277,68167,2,0,P|381:283|467:294,1,146.999995513916,2|2,0:0|0:0,0:0:0:0:
425,205,68646,6,0,P|434:167|444:130,2,73.4999977569581,2|2|10,3:2|0:3|0:0,0:0:0:0:
345,152,69124,2,0,P|328:74|303:3,1,146.999995513916,2|2,0:0|0:3,0:0:0:0:
238,78,69603,2,0,P|253:127|260:159,1,73.4999977569581,8|2,0:0|0:0,0:0:0:0:
219,248,69922,5,2,3:2:0:0:
219,248,70082,1,2,0:0:0:0:
134,203,70241,2,0,P|94:207|50:215,1,73.4999977569581,10|0,0:0|0:0,0:0:0:0:
87,119,70561,2,0,P|127:115|171:107,1,73.4999977569581,2|2,3:2|0:3,0:0:0:0:
172,15,70880,1,10,0:0:0:0:
70,37,71039,6,0,P|18:72|20:167,2,146.999995513916,2|2|2,0:0|0:0|0:0,0:0:0:0:
170,36,71837,2,0,P|163:82|158:124,1,73.4999977569581,2|2,3:2|0:3,0:0:0:0:
130,205,72156,1,8,0:0:0:0:
139,220,72236,1,8,0:0:0:0:
148,235,72316,1,0,3:2:0:0:
157,250,72396,1,0,3:2:0:0:
166,265,72475,6,0,B|192:286|201:300|201:300|296:283,1,146.999995513916,6|10,3:2|0:0,0:0:0:0:
380,234,72954,1,2,0:0:0:0:
380,234,73114,1,2,3:2:0:0:
397,336,73273,2,0,P|448:351|473:360,1,73.4999977569581,2|8,0:0|0:0,0:0:0:0:
479,262,73592,1,2,0:0:0:0:
381,243,73752,6,0,P|374:198|357:142,1,73.4999977569581,2|2,3:2|0:3,0:0:0:0:
388,77,74071,2,0,P|442:82|466:103,2,73.4999977569581,10|2|2,0:0|0:0|3:2,0:0:0:0:
300,115,74550,2,0,P|250:121|218:125,1,73.4999977569581,2|8,0:0|0:0,0:0:0:0:
147,54,74869,5,2,0:0:0:0:
147,54,75029,1,2,3:2:0:0:
76,134,75188,2,0,P|91:190|110:287,1,146.999995513916,2|2,0:0|0:0,0:0:0:0:
51,354,75667,2,0,P|111:310|192:328,1,146.999995513916,2|10,3:2|0:0,0:0:0:0:
253,380,76146,1,2,0:0:0:0:
297,295,76305,5,2,3:2:0:0:
297,295,76465,2,0,P|352:304|391:309,1,73.4999977569581,2|8,0:0|0:0,0:0:0:0:
448,360,76784,1,2,0:0:0:0:
496,277,76944,2,0,P|481:243|469:205,1,73.4999977569581,2|2,3:2|0:3,0:0:0:0:
375,171,77263,2,0,P|427:132|461:41,1,146.999995513916,10|0,0:0|3:2,0:0:0:0:
387,5,77741,5,2,0:0:0:0:
387,5,77901,2,0,L|308:13,1,73.4999977569581,10|2,0:0|0:3,0:0:0:0:
264,94,78220,1,2,3:2:0:0:
264,94,78380,2,0,B|206:99|206:99|170:79|170:79|117:83,1,146.999995513916,2|2,0:0|0:0,0:0:0:0:
27,75,78858,6,0,P|18:38|8:1,2,73.4999977569581,2|2|10,3:2|0:3|0:0,0:0:0:0:
77,156,79337,2,0,B|69:229|69:229|66:231|66:231|57:310,1,146.999995513916,2|2,0:0|0:3,0:0:0:0:
139,350,79816,2,0,L|150:247,1,73.4999977569581,8|2,0:0|0:0,0:0:0:0:
241,289,80135,6,0,L|230:392,2,73.4999977569581,2|2|10,3:2|0:0|0:0,0:0:0:0:
206,199,80614,2,0,P|265:208|294:213,1,73.4999977569581,2|0,0:0|3:2,0:0:0:0:
334,288,80933,2,0,P|370:282|406:276,1,73.4999977569581,2|8,0:0|0:0,0:0:0:0:
502,270,81252,1,2,0:0:0:0:
447,197,81412,5,2,3:2:0:0:
447,197,81571,1,2,0:0:0:0:
509,124,81731,1,14,0:0:0:0:
509,124,81890,1,2,0:0:0:0:
454,51,82050,2,0,P|425:54|402:57,3,36.749998878479,10|8|0|0,0:0|0:0|3:2|0:0,0:0:0:0:
376,79,82369,2,0,P|347:76|324:73,3,36.749998878479,2|0|2|0,3:2|3:2|3:2|3:2,0:0:0:0:
307,42,82688,6,0,P|222:48|151:56,2,140,6|8|0,3:2|0:0|3:2,0:0:0:0:
277,130,83486,1,2,0:3:0:0:
277,130,83646,2,0,P|261:181|255:205,1,70,8|2,0:0|0:3,0:0:0:0:
151,151,83965,6,0,P|173:224|189:297,1,140,0|8,3:2|0:0,0:0:0:0:
130,357,84444,1,2,0:3:0:0:
130,357,84603,2,0,P|86:361|57:373,1,70,2|2,3:2|0:3,0:0:0:0:
11,294,84922,2,0,P|25:259|64:253,1,70,10|2,0:0|0:3,0:0:0:0:
130,357,85241,6,0,B|211:378|194:301|288:321,2,140,2|8|0,3:2|0:0|3:2,0:0:0:0:
159,270,86039,1,2,0:3:0:0:
159,270,86199,2,0,P|180:227|207:217,1,70,8|2,0:0|0:3,0:0:0:0:
218,116,86518,6,0,P|266:148|366:159,1,140,2|8,3:2|0:0,0:0:0:0:
397,86,86997,1,2,0:3:0:0:
397,86,87156,2,0,P|434:96|470:108,1,70,0|2,3:2|0:3,0:0:0:0:
492,19,87475,2,0,P|455:9|419:-3,1,70,8|2,0:0|0:3,0:0:0:0:
297,49,87795,6,0,B|242:64|242:64|218:89|218:89|155:107,1,140,2|8,3:2|0:0,0:0:0:0:
101,44,88273,1,2,0:3:0:0:
101,44,88433,2,0,P|60:46|37:83,1,70,0|2,3:2|0:3,0:0:0:0:
8,150,88752,2,0,P|34:186|41:220,1,70,8|2,0:0|0:3,0:0:0:0:
7,305,89071,6,0,P|40:257|127:267,1,140,2|8,3:2|0:0,0:0:0:0:
167,339,89550,1,2,0:3:0:0:
167,339,89710,2,0,P|245:332|334:327,1,140,2|8,3:2|0:0,0:0:0:0:
390,361,90188,1,2,0:3:0:0:
390,361,90348,6,0,P|422:343|426:309,1,70,2|2,3:2|0:3,0:0:0:0:
502,262,90667,2,0,P|502:225|474:204,1,70,8|2,0:0|0:3,0:0:0:0:
493,115,90986,2,0,P|461:96|429:109,1,70,0|2,3:2|0:3,0:0:0:0:
366,170,91305,1,10,0:0:0:0:
366,170,91465,6,0,B|292:163|292:163|289:163|289:163|204:156,1,140,2|2,0:3|0:3,0:0:0:0:
143,121,91944,2,0,P|149:167|153:207,1,70,8|2,0:0|0:3,0:0:0:0:
106,269,92263,1,0,3:2:0:0:
106,269,92422,1,2,0:3:0:0:
183,328,92582,2,0,P|203:322|217:320,3,35,8|8|8|8,0:0|0:0|0:0|0:0,0:0:0:0:
250,289,92901,6,0,P|294:297|318:318,1,70,4|0,3:2|2:0,0:0:0:0:
380,374,93220,1,10,0:0:0:0:
380,374,93380,1,2,0:0:0:0:
463,312,93539,2,0,B|431:282|431:282|445:172,1,140,2|10,3:2|0:0,0:0:0:0:
484,105,94018,1,2,0:0:0:0:
404,60,94178,5,2,3:2:0:0:
404,60,94337,1,2,2:0:0:0:
351,134,94497,2,0,P|256:142|200:156,1,140,10|0,0:0|3:2,0:0:0:0:
129,188,94975,1,0,2:0:0:0:
76,113,95135,2,0,P|89:75|102:37,1,70,10|2,0:0|0:0,0:0:0:0:
2,152,95454,5,2,3:2:0:0:
2,152,95614,1,0,2:0:0:0:
51,228,95773,2,0,B|64:239|64:239|47:342|47:342|26:351,1,140,8|2,0:0|3:2,0:0:0:0:
105,297,96252,1,0,2:0:0:0:
160,369,96412,2,0,P|206:361|246:357,1,70,10|2,0:0|0:0,0:0:0:0:
316,383,96731,6,0,P|359:347|353:319,1,70,2|2,3:2|2:0,0:0:0:0:
315,263,97050,1,10,0:0:0:0:
315,263,97210,1,2,0:0:0:0:
427,283,97369,2,0,P|403:232|383:137,1,140,2|10,3:2|0:0,0:0:0:0:
453,91,97848,1,2,0:0:0:0:
384,24,98007,6,0,P|329:32|296:42,1,70,2|0,3:2|2:0,0:0:0:0:
256,107,98327,1,10,0:0:0:0:
256,107,98486,1,2,0:0:0:0:
217,24,98646,2,0,P|162:15|129:6,1,70,2|0,3:2|2:0,0:0:0:0:
84,76,98965,1,10,0:0:0:0:
84,76,99124,1,2,0:0:0:0:
160,149,99284,6,0,P|146:217|130:313,2,140,2|10|2,3:2|0:0|3:2,0:0:0:0:
73,177,100082,1,0,2:0:0:0:
73,177,100241,2,0,P|64:227|59:259,1,70,8|2,0:0|0:0,0:0:0:0:
76,349,100561,5,2,3:2:0:0:
76,349,100720,1,0,2:0:0:0:
149,295,100880,2,0,B|232:303|199:356|274:361,1,140,8|2,0:0|3:2,0:0:0:0:
354,337,101358,1,0,2:0:0:0:
285,259,101518,1,8,0:0:0:0:
285,259,101678,1,2,0:0:0:0:
285,259,102635,5,0,3:2:0:0:
377,219,102795,2,0,B|355:201|355:201|343:141,1,84,12|0,0:0|0:0,0:0:0:0:
350,101,103114,6,0,B|281:78|281:78|225:129,1,140,6|10,3:2|0:0,0:0:0:0:
216,212,103592,1,2,0:0:0:0:
136,166,103752,2,0,P|101:172|52:179,1,70,2|2,3:2|0:3,0:0:0:0:
34,264,104071,1,10,0:0:0:0:
34,264,104231,1,2,0:0:0:0:
88,336,104390,6,0,P|122:329|172:323,1,70,2|2,3:2|0:0,0:0:0:0:
221,259,104710,2,0,B|275:272|275:272|299:303|299:303|367:321,1,140,10|0,0:0|3:2,0:0:0:0:
406,379,105188,2,0,P|444:363|481:355,1,70,2|8,0:3|0:0,0:0:0:0:
506,272,105507,1,2,0:0:0:0:
403,229,105667,6,0,B|418:215|436:200|436:200|412:103,1,140,2|8,3:2|0:0,0:0:0:0:
388,18,106146,1,2,0:0:0:0:
315,72,106305,2,0,P|274:66|224:62,1,70,2|2,3:2|0:3,0:0:0:0:
236,154,106624,2,0,P|277:160|327:164,1,70,8|2,0:0|0:0,0:0:0:0:
327,268,106944,6,0,P|257:257|186:252,2,140,2|10|2,3:2|0:0|3:2,0:0:0:0:
415,247,107741,1,2,0:3:0:0:
435,335,107901,1,10,0:0:0:0:
435,335,108061,1,2,0:0:0:0:
316,365,108220,6,0,P|262:352|229:347,1,70,2|2,3:2|0:3,0:0:0:0:
162,383,108539,2,0,P|197:349|158:267,1,140,10|2,0:0|3:2,0:0:0:0:
83,260,109018,1,2,0:0:0:0:
83,260,109178,1,10,0:0:0:0:
18,187,109337,6,0,L|36:109,1,70,2|0,0:0|3:2,0:0:0:0:
35,27,109656,2,0,P|80:37|101:61,1,70,2|8,0:0|0:0,0:0:0:0:
120,140,109975,1,2,0:0:0:0:
194,86,110135,2,0,P|233:81|268:74,1,70,2|2,3:2|0:0,0:0:0:0:
279,165,110454,2,0,P|318:169|353:177,1,70,10|2,0:0|0:0,0:0:0:0:
436,131,110773,6,0,P|386:199|395:284,1,140,2|8,3:2|0:0,0:0:0:0:
431,330,111252,1,2,0:0:0:0:
342,352,111412,2,0,P|302:354|258:360,1,70,2|2,3:2|0:3,0:0:0:0:
184,383,111731,2,0,P|176:334|169:289,1,70,10|2,0:0|0:3,0:0:0:0:
202,230,112050,5,2,3:2:0:0:
202,230,112210,1,2,0:3:0:0:
82,258,112369,2,0,P|70:198|50:108,1,140,14|8,0:0|0:0,0:0:0:0:
111,38,112848,1,0,3:2:0:0:
111,38,113007,1,0,3:2:0:0:
180,97,113167,1,0,3:2:0:0:
263,31,113327,6,0,P|270:73|274:96,1,62.9999980773926,4|0,3:2|3:2,0:0:0:0:
251,255,113805,2,0,B|267:262|267:262|361:243|361:243|371:225,1,125.999996154785,8|0,0:0|3:2,0:0:0:0:
409,161,114284,2,0,P|452:178|464:219,1,62.9999980773926,8|2,0:0|0:3,0:0:0:0:
495,270,114603,5,0,3:2:0:0:
495,270,114763,1,0,3:2:0:0:
346,218,115082,1,8,0:0:0:0:
346,218,115241,6,0,P|300:225|271:232,1,62.9999980773926,2|2,0:0|3:2,0:0:0:0:
224,171,115561,2,0,P|178:164|149:157,1,62.9999980773926,10|2,0:0|0:0,0:0:0:0:
94,113,115880,5,2,3:2:0:0:
94,113,116039,1,2,3:2:0:0:
52,183,116199,2,0,P|64:218|74:257,1,62.9999980773926,2|10,0:0|0:0,0:0:0:0:
61,324,116518,6,0,P|22:309|-3:308,2,62.9999980773926,2|2|10,0:0|3:2|0:0,0:0:0:0:
118,382,116997,1,2,0:0:0:0:
165,315,117156,6,0,P|204:300|229:299,1,62.9999980773926,2|2,3:2|3:2,0:0:0:0:
294,351,117475,1,2,0:0:0:0:
294,351,117635,2,0,P|261:274|292:227,1,125.999996154785,8|0,0:0|3:2,0:0:0:0:
335,183,118114,2,0,L|408:200,1,62.9999980773926,8|2,0:0|0:3,0:0:0:0:
483,233,118433,6,0,P|477:196|471:159,1,62.9999980773926,0|0,3:2|3:2,0:0:0:0:
389,29,118912,2,0,P|362:81|275:76,1,125.999996154785,8|0,0:0|3:2,0:0:0:0:
244,31,119390,2,0,L|171:40,1,62.9999980773926,8|2,0:0|0:3,0:0:0:0:
105,70,119710,5,0,3:2:0:0:
105,70,119869,1,0,3:2:0:0:
18,209,120188,1,8,0:0:0:0:
18,209,120348,6,0,P|26:257|29:284,1,62.9999980773926,2|2,0:0|3:2,0:0:0:0:
108,258,120667,2,0,P|100:210|97:183,1,62.9999980773926,10|2,0:0|0:0,0:0:0:0:
166,150,120986,5,2,3:2:0:0:
166,150,121146,1,2,3:2:0:0:
218,212,121305,2,0,P|252:216|284:246,1,62.9999980773926,2|10,0:0|0:0,0:0:0:0:
285,313,121624,6,0,P|277:345|271:380,2,62.9999980773926,2|2|10,0:0|3:2|0:0,0:0:0:0:
353,267,122103,1,2,0:0:0:0:
406,329,122263,6,0,P|446:317|471:315,1,62.9999980773926,2|2,3:2|3:2,0:0:0:0:
487,235,122582,1,2,0:0:0:0:
487,235,122741,2,0,P|470:180|450:104,1,125.999996154785,0|0,3:2|3:2,0:0:0:0:
468,27,123220,2,0,P|432:68|376:75,1,94.499997116089,14|0,0:0|0:0,0:0:0:0:
363,50,123539,6,0,P|325:47|292:46,1,62.9999980773926,4|0,3:2|3:2,0:0:0:0:
140,5,124018,2,0,B|169:33|169:33|151:126,1,125.999996154785,8|0,0:0|3:2,0:0:0:0:
87,166,124497,2,0,P|99:210|106:240,1,62.9999980773926,8|2,0:0|0:3,0:0:0:0:
104,308,124816,5,0,3:2:0:0:
104,308,124975,1,0,3:2:0:0:
254,374,125295,1,8,0:0:0:0:
254,374,125454,6,0,P|293:368|321:368,1,62.9999980773926,2|2,0:0|3:2,0:0:0:0:
391,334,125773,2,0,P|379:290|369:256,1,62.9999980773926,10|2,0:0|0:0,0:0:0:0:
318,220,126092,5,2,3:2:0:0:
318,220,126252,1,2,3:2:0:0:
393,188,126412,2,0,P|405:144|415:110,1,62.9999980773926,2|10,0:0|0:0,0:0:0:0:
438,50,126731,6,0,P|475:69|486:102,2,62.9999980773926,2|2|10,0:0|3:2|0:0,0:0:0:0:
363,16,127210,1,2,0:0:0:0:
313,80,127369,6,0,P|270:82|238:86,1,62.9999980773926,2|2,3:2|3:2,0:0:0:0:
179,42,127688,1,2,0:0:0:0:
179,42,127848,2,0,B|131:57|131:57|112:90|112:90|68:105,1,125.999996154785,8|0,0:0|3:2,0:0:0:0:
26,167,128327,2,0,P|42:217|62:269,1,94.499997116089,10|0,0:0|0:0,0:0:0:0:
63,296,128646,6,0,P|26:308|0:318,2,62.9999980773926,2|2|2,3:2|3:2|0:0,0:0:0:0:
124,349,129124,1,10,0:0:0:0:
188,298,129284,2,0,P|228:303|267:314,1,62.9999980773926,2|2,0:0|3:2,0:0:0:0:
298,375,129603,2,0,P|338:369|377:359,1,62.9999980773926,10|2,0:0|0:0,0:0:0:0:
332,291,129922,5,2,3:2:0:0:
332,291,130082,2,0,L|313:174,1,94.499997116089,2|0,3:2|0:0,0:0:0:0:
312,156,130401,2,0,P|274:161|246:167,1,62.9999980773926,10|2,0:0|0:3,0:0:0:0:
203,234,130720,1,0,3:2:0:0:
129,168,130880,2,0,P|147:237|159:288,1,94.499997116089,8|0,0:0|0:0,0:0:0:0:
156,300,131199,5,10,0:0:0:0:
330,71,132475,5,2,3:2:0:0:
330,71,132635,1,10,0:0:0:0:
233,88,132795,1,2,3:2:0:0:
233,88,132954,1,10,0:0:0:0:
301,163,133114,2,0,L|304:216,3,31.4999990386963,8|0|0|0,0:0|3:2|3:2|3:2,0:0:0:0:
306,241,133433,1,4,3:2:0:0:
137,330,133752,6,0,B|177:295|177:295|155:181,1,146.999995513916,6|10,3:2|0:0,0:0:0:0:
77,163,134231,1,2,0:0:0:0:
77,163,134390,1,2,3:2:0:0:
90,68,134550,2,0,L|172:81,1,73.4999977569581,2|8,0:0|0:0,0:0:0:0:
238,137,134869,1,2,0:0:0:0:
315,60,135029,6,0,P|355:97|353:119,1,73.4999977569581,2|2,3:2|0:3,0:0:0:0:
402,194,135348,2,0,P|451:177|483:172,2,73.4999977569581,10|2|2,0:0|0:0|3:2,0:0:0:0:
352,276,135827,2,0,P|303:259|271:254,1,73.4999977569581,2|8,0:0|0:0,0:0:0:0:
176,189,136146,5,2,0:0:0:0:
121,267,136305,1,2,3:2:0:0:
36,221,136465,2,0,P|84:295|110:375,1,146.999995513916,2|2,0:0|0:0,0:0:0:0:
195,378,136944,5,2,3:2:0:0:
195,378,137103,1,2,0:0:0:0:
253,301,137263,1,10,0:0:0:0:
253,301,137422,1,2,0:0:0:0:
333,374,137582,6,0,B|414:365|414:365|449:330|416:294,1,146.999995513916,2|10,3:2|0:0,0:0:0:0:
367,229,138061,1,2,0:0:0:0:
444,171,138220,2,0,P|479:190|512:189,1,73.4999977569581,2|2,3:2|0:3,0:0:0:0:
428,71,138539,2,0,P|361:62|313:138,1,146.999995513916,10|0,0:0|3:2,0:0:0:0:
240,191,139018,5,2,0:0:0:0:
240,191,139178,2,0,P|181:180|155:175,1,73.4999977569581,10|2,0:0|0:3,0:0:0:0:
108,109,139497,1,2,3:2:0:0:
108,109,139656,2,0,B|2:126|2:126|33:134|52:161,1,146.999995513916,2|2,0:0|0:0,0:0:0:0:
25,239,140135,6,0,P|8:297|1:325,2,73.4999977569581,2|2|10,3:2|0:3|0:0,0:0:0:0:
97,308,140614,2,0,B|164:347|164:347|229:285,1,146.999995513916,2|2,0:0|0:3,0:0:0:0:
250,210,141092,2,0,P|297:235|303:264,1,73.4999977569581,8|2,0:0|0:0,0:0:0:0:
335,354,141412,5,2,3:2:0:0:
335,354,141571,1,2,0:0:0:0:
406,290,141731,2,0,P|451:295|488:300,1,73.4999977569581,10|2,0:0|0:0,0:0:0:0:
486,203,142050,2,0,P|441:198|404:193,1,73.4999977569581,2|2,3:2|0:3,0:0:0:0:
353,119,142369,1,10,0:0:0:0:
423,43,142529,6,0,P|462:109|520:93,2,146.999995513916,2|2|2,0:0|0:0|0:0,0:0:0:0:
331,14,143327,2,0,B|292:20|288:20|288:20|239:29,1,73.4999977569581,2|2,3:2|0:3,0:0:0:0:
144,2,143646,1,8,0:0:0:0:
127,9,143725,1,8,0:0:0:0:
110,17,143805,1,0,3:2:0:0:
93,25,143885,1,0,3:2:0:0:
76,33,143965,6,0,P|93:95|120:200,1,146.999995513916,6|10,3:2|0:0,0:0:0:0:
56,251,144444,1,2,0:0:0:0:
56,251,144603,1,2,3:2:0:0:
129,312,144763,2,0,P|172:290|209:286,1,73.4999977569581,2|8,0:0|0:0,0:0:0:0:
264,218,145082,1,2,0:0:0:0:
306,303,145241,6,0,L|394:331,1,73.4999977569581,2|2,3:2|0:3,0:0:0:0:
466,292,145561,2,0,P|493:341|474:368,2,73.4999977569581,10|2|2,0:0|0:0|3:2,0:0:0:0:
391,232,146039,2,0,P|401:190|408:136,1,73.4999977569581,2|8,0:0|0:0,0:0:0:0:
457,71,146358,5,2,0:0:0:0:
457,71,146518,1,2,3:2:0:0:
373,23,146678,2,0,B|311:35|311:35|295:60|295:60|233:72,1,146.999995513916,2|2,0:0|0:0,0:0:0:0:
157,17,147156,2,0,P|106:51|138:142,1,146.999995513916,2|10,3:2|0:0,0:0:0:0:
175,202,147635,1,2,0:0:0:0:
90,264,147795,5,2,3:2:0:0:
90,264,147954,2,0,P|49:257|13:255,1,73.4999977569581,2|8,0:0|0:0,0:0:0:0:
134,350,148273,1,2,0:0:0:0:
208,289,148433,2,0,P|237:317|292:316,1,73.4999977569581,2|2,3:2|0:3,0:0:0:0:
352,369,148752,2,0,P|313:314|288:216,1,146.999995513916,10|0,0:0|3:2,0:0:0:0:
330,153,149231,5,2,0:0:0:0:
330,153,149390,2,0,P|372:159|407:166,1,73.4999977569581,10|2,0:0|0:3,0:0:0:0:
452,84,149710,1,2,3:2:0:0:
452,84,149869,2,0,P|382:75|296:57,1,146.999995513916,2|2,0:0|0:0,0:0:0:0:
202,14,150348,6,0,P|220:66|223:108,2,73.4999977569581,2|2|10,3:2|0:0|0:0,0:0:0:0:
103,3,150827,2,0,P|120:56|143:163,1,146.999995513916,2|2,0:0|0:3,0:0:0:0:
189,226,151305,2,0,P|224:233|262:189,1,73.4999977569581,8|2,0:0|0:0,0:0:0:0:
341,162,151624,6,0,P|349:118|363:77,2,73.4999977569581,2|2|10,3:2|0:0|0:0,0:0:0:0:
420,215,152103,2,0,P|470:232|481:263,1,73.4999977569581,2|0,0:0|3:2,0:0:0:0:
408,313,152422,2,0,P|361:301|316:294,1,73.4999977569581,2|8,0:0|0:0,0:0:0:0:
251,253,152741,1,2,0:0:0:0:
198,333,152901,5,2,3:2:0:0:
198,333,153061,1,2,0:0:0:0:
119,278,153220,1,14,0:0:0:0:
119,278,153380,1,2,0:0:0:0:
34,321,153539,2,0,L|46:366,2,36.749998878479,10|8|0,0:0|0:0|3:2,0:0:0:0:
0,230,153858,2,0,L|9:181,3,36.749998878479,2|0|2|0,3:2|3:2|3:2|3:2,0:0:0:0:
28,149,154178,6,0,P|76:158|151:170,1,105,4|0,3:2|0:0,0:0:0:0:
169,136,154497,2,0,P|161:102|148:54,1,70,8|0,0:0|0:0,0:0:0:0:
232,11,154816,2,0,P|280:35|276:72,1,70,2|0,3:2|0:0,0:0:0:0:
280,144,155135,2,0,P|326:136|364:136,1,70,10|0,0:0|0:0,0:0:0:0:
453,80,155454,6,0,P|429:161|421:209,1,105,2|0,3:2|0:0,0:0:0:0:
444,226,155773,2,0,P|491:214|522:207,1,70,10|0,0:0|0:0,0:0:0:0:
409,305,156092,2,0,P|362:280|354:244,1,70,2|0,3:2|0:0,0:0:0:0:
261,212,156412,1,8,0:0:0:0:
209,286,156571,1,2,0:0:0:0:
116,225,156731,6,0,P|51:232|21:272,1,105,0|0,3:2|0:0,0:0:0:0:
40,306,157050,2,0,P|58:349|78:392,1,70,8|0,0:0|0:0,0:0:0:0:
170,384,157369,2,0,P|208:356|206:320,1,70,2|0,3:2|0:0,0:0:0:0:
209,286,157608,1,2,0:0:0:0:
209,286,157688,2,0,L|290:310,1,70,10|0,0:0|0:0,0:0:0:0:
401,378,158007,6,0,P|385:328|371:295,1,70,2|0,3:2|0:0,0:0:0:0:
475,292,158327,2,0,P|491:242|505:209,1,70,10|0,0:0|0:0,0:0:0:0:
395,125,158646,2,0,P|350:130|318:167,1,70,2|0,3:2|0:0,0:0:0:0:
433,204,158965,2,0,P|478:226|506:223,1,70,10|0,0:0|0:0,0:0:0:0:
408,111,159284,6,0,L|424:-4,1,105,6|0,3:2|0:0,0:0:0:0:
373,1,159603,2,0,P|318:16|282:28,1,70,10|0,0:0|0:0,0:0:0:0:
266,109,159922,2,0,P|231:89|177:76,1,70,2|0,3:2|0:0,0:0:0:0:
122,23,160241,2,0,P|76:49|72:72,1,70,10|0,0:0|0:0,0:0:0:0:
0,149,160561,6,0,P|28:175|76:251,1,105,2|0,3:2|0:0,0:0:0:0:
106,257,160880,2,0,P|73:317|65:332,1,70,10|0,0:0|0:0,0:0:0:0:
161,377,161199,2,0,P|204:370|212:335,1,70,0|0,3:2|0:0,0:0:0:0:
236,250,161518,1,10,0:0:0:0:
315,294,161678,1,0,0:0:0:0:
366,205,161837,6,0,P|409:215|479:240,1,105,0|0,3:2|0:0,0:0:0:0:
503,201,162156,2,0,P|497:166|489:132,1,70,8|0,0:0|0:0,0:0:0:0:
430,53,162475,2,0,P|395:66|386:105,1,70,0|0,3:2|0:0,0:0:0:0:
366,205,162795,1,10,0:0:0:0:
366,205,162954,1,2,0:0:0:0:
276,131,163114,6,0,B|221:138|221:138|218:140|218:140|157:148,1,105,0|0,3:2|0:0,0:0:0:0:
133,116,163433,2,0,P|139:78|144:34,1,70,8|2,0:0|0:0,0:0:0:0:
45,36,163752,2,0,P|38:74|34:118,1,70,2|2,3:2|0:0,0:0:0:0:
76,194,164071,2,0,L|62:307,1,105,8|0,0:0|0:0,0:0:0:0:
60,350,164390,5,0,3:2:0:0:
60,350,164550,1,0,3:2:0:0:
200,234,164869,2,0,B|242:215|276:251|260:248|287:290|337:273,1,140,8|0,0:0|3:2,0:0:0:0:
408,310,165348,2,0,P|469:279|460:238,1,105,12|0,0:0|0:0,0:0:0:0:
448,210,165667,5,2,3:2:0:0:
448,210,165827,2,0,L|460:135,1,70,2|0,3:2|0:0,0:0:0:0:
457,23,166146,1,10,0:0:0:0:
383,76,166305,1,2,0:0:0:0:
301,32,166465,2,0,L|223:51,1,70,2|8,3:2|0:0,0:0:0:0:
138,41,166784,1,2,0:0:0:0:
187,144,166944,6,0,L|230:151,4,35,8|8|0|0|0,0:0|0:0|3:2|3:2|3:2,0:0:0:0:
126,211,167422,2,0,L|83:218,4,35,8|8|0|0|0,0:0|0:0|3:2|3:2|3:2,0:0:0:0:
200,272,167901,1,8,0:0:0:0:
197,289,167980,1,8,0:0:0:0:
194,306,168060,1,8,0:0:0:0:
191,323,168140,1,8,0:0:0:0:
188,343,168220,6,0,P|252:354|307:295,2,140,6|8|0,3:2|0:0|3:2,0:0:0:0:
205,256,169018,1,2,0:3:0:0:
205,256,169178,2,0,L|220:181,1,70,8|2,0:0|0:3,0:0:0:0:
111,287,169497,6,0,P|97:222|78:134,1,140,0|8,3:2|0:0,0:0:0:0:
95,63,169975,1,2,0:3:0:0:
95,63,170135,2,0,P|141:63|157:79,1,70,2|2,3:2|0:3,0:0:0:0:
240,155,170454,2,0,L|160:180,1,70,10|2,0:0|0:3,0:0:0:0:
257,63,170773,6,0,B|337:83|304:121|376:138,2,140,2|8|0,3:2|0:0|3:2,0:0:0:0:
240,155,171571,1,2,0:3:0:0:
240,155,171731,2,0,L|259:229,1,70,8|2,0:0|0:3,0:0:0:0:
313,324,172050,6,0,P|355:271|449:273,1,140,2|8,3:2|0:0,0:0:0:0:
464,358,172529,1,2,0:3:0:0:
464,358,172688,2,0,L|385:341,1,70,0|2,3:2|0:3,0:0:0:0:
420,255,173007,2,0,L|499:272,1,70,8|2,0:0|0:3,0:0:0:0:
394,155,173327,6,0,P|384:91|369:5,1,140,2|8,3:2|0:0,0:0:0:0:
287,66,173805,1,2,0:3:0:0:
287,66,173965,2,0,P|267:112|275:128,1,70,0|2,3:2|0:3,0:0:0:0:
200,180,174284,2,0,P|229:220|247:221,1,70,8|2,0:0|0:3,0:0:0:0:
143,109,174603,6,0,P|65:125|8:153,2,140,0|8|2,3:2|0:0|3:2,0:0:0:0:
200,180,175401,1,2,0:3:0:0:
200,180,175561,2,0,P|186:228|158:240,1,70,10|2,0:0|0:3,0:0:0:0:
68,207,175880,6,0,P|117:241|160:314,1,140,2|8,3:2|0:0,0:0:0:0:
227,367,176358,2,0,B|306:345|266:312|341:292,1,140,2|2,0:0|0:3,0:0:0:0:
413,346,176837,2,0,P|455:357|477:398,1,70,8|2,0:0|0:3,0:0:0:0:
468,255,177156,6,0,P|433:202|418:108,1,140,2|12,3:2|0:0,0:0:0:0:
470,54,177635,1,2,0:0:0:0:
390,9,177795,1,8,0:0:0:0:
390,9,177874,1,8,0:0:0:0:
390,9,177954,2,0,L|320:25,1,70,0|0,3:2|3:2,0:0:0:0:
232,42,178273,1,0,3:2:0:0:
298,150,178433,6,0,P|308:197|321:226,2,70,6|2|8,3:2|0:0|0:0,0:0:0:0:
202,125,178912,1,2,0:0:0:0:
202,125,179071,2,0,B|121:140|161:190|84:204,1,140,2|10,3:2|0:0,0:0:0:0:
7,145,179550,1,2,0:0:0:0:
153,36,179869,6,0,P|111:56|102:85,1,70,2|8,0:0|0:0,0:0:0:0:
112,172,180188,2,0,P|118:206|124:240,1,70,2|0,0:0|3:2,0:0:0:0:
84,330,180507,1,2,0:0:0:0:
173,370,180667,2,0,P|216:350|218:314,1,70,10|2,0:0|0:3,0:0:0:0:
284,241,180986,6,0,P|249:235|215:231,2,70,2|2|8,3:2|0:0|0:0,0:0:0:0:
338,329,181465,1,2,0:0:0:0:
338,329,181624,2,0,P|379:256|438:246,1,140,2|10,3:2|0:0,0:0:0:0:
511,174,182103,1,2,0:0:0:0:
368,60,182422,6,0,L|392:147,1,70,2|8,0:0|0:0,0:0:0:0:
359,244,182741,2,0,P|399:229|437:220,1,70,2|0,0:0|3:2,0:0:0:0:
306,172,183061,1,2,0:0:0:0:
228,231,183220,2,0,P|185:250|178:290,1,70,10|2,0:0|0:3,0:0:0:0:
120,384,183539,6,0,P|72:341|-22:338,2,140,6|8|2,3:2|0:0|3:2,0:0:0:0:
206,337,184337,1,2,0:3:0:0:
170,245,184497,2,0,L|81:264,1,70,8|2,0:0|0:0,0:0:0:0:
29,169,184816,5,2,3:2:0:0:
29,169,184975,1,2,0:0:0:0:
117,83,185135,2,0,L|278:105,1,140,14|10,0:0|0:0,0:0:0:0:
378,72,185614,5,0,3:2:0:0:
356,162,185773,1,0,3:2:0:0:
356,162,185933,1,0,3:2:0:0:
296,257,186092,6,0,P|370:245|468:231,1,140,4|2,3:2|0:3,0:0:0:0:
512,190,186571,1,0,3:2:0:0:
451,310,186731,2,0,P|381:320|312:331,1,140,12|0,0:0|0:0,0:0:0:0:
230,370,187210,6,0,P|152:328|170:268,1,140,2|0,3:2|3:2,0:0:0:0:
217,205,187688,1,14,0:0:0:0:
217,205,188007,5,2,3:2:0:0:
169,127,188167,1,8,0:0:0:0:
78,115,188327,1,10,0:0:0:0:
10,175,188486,1,8,0:0:0:0:
39,246,188646,5,4,3:2:0:0:
256,192,198539,5,8,0:0:0:0:
192,120,198858,6,0,P|140:64|65:86,2,146.999995513916,4|8|8,3:2|0:0|0:0,0:0:0:0:
320,120,200135,6,0,P|372:64|447:86,2,146.999995513916,4|8|10,3:2|0:0|0:0,0:0:0:0:
256,192,201412,6,0,L|256:355,2,146.999995513916,6|10|10,3:2|0:0|0:0,0:0:0:0:
256,96,202688,5,2,3:2:0:0:
256,192,203007,1,2,3:2:0:0:
256,192,203167,1,8,0:0:0:0:
256,192,203327,1,0,3:2:0:0:
256,288,203646,1,10,0:0:0:0:
176,256,203965,6,0,B|98:268|132:323|48:336,2,146.999995513916,4|8|8,3:2|0:0|0:0,0:0:0:0:
336,256,205241,6,0,B|414:268|380:323|464:336,2,146.999995513916,4|8|10,3:2|0:0|0:0,0:0:0:0:
256,192,206518,6,0,L|256:29,2,146.999995513916,6|10|10,3:2|0:0|0:0,0:0:0:0:
256,288,207795,5,2,3:2:0:0:
256,192,208114,1,2,3:2:0:0:
256,192,208274,1,8,0:0:0:0:
256,192,208434,1,0,3:2:0:0:
256,96,208752,1,10,0:0:0:0:
141,156,209071,6,0,L|70:146,1,62.9999980773926,4|0,3:2|3:2,0:0:0:0:
198,34,209550,2,0,B|272:47|243:84|308:92,1,125.999996154785,8|0,0:0|3:2,0:0:0:0:
378,53,210029,2,0,P|416:39|428:12,1,62.9999980773926,8|2,0:0|0:3,0:0:0:0:
496,72,210348,5,0,3:2:0:0:
496,72,210507,1,0,3:2:0:0:
432,223,210827,1,8,0:0:0:0:
432,223,210986,6,0,P|425:249|420:286,1,62.9999980773926,2|2,0:0|3:2,0:0:0:0:
339,270,211305,2,0,P|346:244|351:207,1,62.9999980773926,10|2,0:0|0:0,0:0:0:0:
292,158,211625,5,2,3:2:0:0:
292,158,211784,1,2,3:2:0:0:
221,200,211944,2,0,L|137:217,1,62.9999980773926,2|10,0:0|0:0,0:0:0:0:
93,162,212263,6,0,P|108:120|136:110,2,62.9999980773926,2|2|10,0:0|3:2|0:0,0:0:0:0:
46,229,212742,1,2,0:0:0:0:
100,289,212901,6,0,L|81:365,1,62.9999980773926,2|2,3:2|3:2,0:0:0:0:
162,377,213220,1,2,0:0:0:0:
162,377,213380,2,0,P|249:335|296:336,1,125.999996154785,8|0,0:0|3:2,0:0:0:0:
350,368,213858,2,0,P|315:336|328:282,1,94.499997116089,10|0,0:0|0:0,0:0:0:0:
340,256,214178,6,0,P|388:275|413:286,2,62.9999980773926,6|2|2,3:2|3:2|0:0,0:0:0:0:
299,180,214657,1,10,0:0:0:0:
373,146,214816,2,0,P|368:113|356:82,1,62.9999980773926,2|2,0:0|3:2,0:0:0:0:
297,28,215135,2,0,P|254:44|218:55,1,62.9999980773926,10|2,0:0|0:0,0:0:0:0:
146,16,215454,5,2,3:2:0:0:
146,16,215614,2,0,B|91:34|116:56|54:83,1,94.499997116089,2|0,3:2|0:0,0:0:0:0:
35,89,215933,2,0,L|68:170,1,62.9999980773926,10|2,0:0|0:3,0:0:0:0:
43,228,216253,1,0,3:2:0:0:
149,257,216412,2,0,P|197:245|246:238,1,94.499997116089,8|0,0:0|0:0,0:0:0:0:
282,241,216731,5,10,0:0:0:0:
377,48,218646,5,0,3:2:0:0:
373,64,218725,1,0,3:2:0:0:
369,80,218805,1,8,0:0:0:0:
365,96,218885,1,8,0:0:0:0:
361,112,218965,2,0,L|347:166,4,31.4999990386963,0|0|10|8|2,3:2|3:2|0:0|0:0|3:2,0:0:0:0:
394,309,219603,5,14,0:0:0:0:
326,240,219763,1,2,0:0:0:0:
295,330,219922,1,2,3:2:0:0:
227,261,220082,2,0,P|162:280|137:287,1,73.4999977569581,2|8,0:0|0:0,0:0:0:0:
60,277,220401,1,2,0:0:0:0:
89,185,220561,6,0,P|135:173|157:199,1,73.4999977569581,2|2,3:2|0:3,0:0:0:0:
207,101,220880,2,0,P|192:59|184:29,2,73.4999977569581,10|2|2,0:0|0:0|3:2,0:0:0:0:
273,168,221358,2,0,P|319:180|341:154,1,73.4999977569581,2|8,0:0|0:0,0:0:0:0:
389,40,221678,5,2,0:0:0:0:
389,40,221837,2,0,P|345:51|298:59,1,73.4999977569581,2|2,3:2|0:0,0:0:0:0:
357,151,222156,2,0,P|401:140|448:132,1,73.4999977569581,10|2,0:0|0:0,0:0:0:0:
486,254,222475,1,2,3:2:0:0:
393,228,222635,2,0,P|444:273|479:348,1,146.999995513916,2|2,0:0|0:0,0:0:0:0:
358,330,223114,6,0,P|315:318|265:314,1,73.4999977569581,2|2,3:2|0:0,0:0:0:0:
198,353,223433,1,10,0:0:0:0:
198,353,223592,1,2,0:0:0:0:
142,274,223752,2,0,P|169:245|204:255,1,73.4999977569581,2|2,3:2|0:3,0:0:0:0:
150,153,224071,2,0,P|78:187|14:209,1,146.999995513916,10|0,0:0|3:2,0:0:0:0:
61,101,224550,5,2,0:0:0:0:
61,101,224710,2,0,P|68:61|111:49,1,73.4999977569581,10|2,0:0|0:3,0:0:0:0:
150,153,225029,1,2,3:2:0:0:
150,153,225188,2,0,P|237:168|310:182,1,146.999995513916,2|2,0:0|0:0,0:0:0:0:
355,104,225667,6,0,L|342:17,2,73.4999977569581,2|2|10,3:2|0:3|0:0,0:0:0:0:
450,110,226146,2,0,L|421:283,1,146.999995513916,2|2,0:0|0:3,0:0:0:0:
418,349,226624,2,0,P|370:322|334:329,1,73.4999977569581,8|2,0:0|0:0,0:0:0:0:
264,250,226944,5,2,3:2:0:0:
264,250,227103,1,2,0:0:0:0:
184,302,227263,2,0,L|200:383,1,73.4999977569581,10|0,0:0|0:0,0:0:0:0:
278,322,227582,2,0,L|262:241,1,73.4999977569581,2|2,3:2|0:3,0:0:0:0:
226,161,227901,1,10,0:0:0:0:
341,193,228061,6,0,L|375:361,2,146.999995513916,2|2|2,0:0|0:0|0:0,0:0:0:0:
277,122,228858,2,0,P|236:135|229:178,1,73.4999977569581,2|2,3:2|0:3,0:0:0:0:
170,256,229178,1,8,0:0:0:0:
152,253,229257,1,8,0:0:0:0:
133,250,229337,1,0,3:2:0:0:
114,247,229417,1,0,3:2:0:0:
95,244,229497,6,0,B|87:188|87:188|55:162|55:162|47:97,1,146.999995513916,6|10,3:2|0:0,0:0:0:0:
96,30,229975,1,2,0:0:0:0:
96,30,230135,1,2,3:2:0:0:
152,107,230295,2,0,P|193:89|226:80,1,73.4999977569581,2|8,0:0|0:0,0:0:0:0:
300,28,230614,1,2,0:0:0:0:
319,121,230773,6,0,P|369:152|389:174,1,73.4999977569581,2|2,3:2|0:3,0:0:0:0:
332,245,231092,2,0,P|281:227|250:225,2,73.4999977569581,10|2|2,0:0|0:0|3:2,0:0:0:0:
381,326,231571,2,0,L|470:301,1,73.4999977569581,2|8,0:0|0:0,0:0:0:0:
339,237,231890,5,2,0:0:0:0:
339,237,232050,1,2,3:2:0:0:
277,310,232210,2,0,P|200:320|108:345,1,146.999995513916,2|2,0:0|0:0,0:0:0:0:
63,254,232688,2,0,P|93:186|167:189,1,146.999995513916,2|10,3:2|0:0,0:0:0:0:
206,265,233167,1,2,0:0:0:0:
269,193,233327,5,2,3:2:0:0:
269,193,233486,1,2,0:0:0:0:
211,123,233646,1,10,0:0:0:0:
211,123,233805,1,2,0:0:0:0:
289,44,233965,2,0,P|335:53|370:60,1,73.4999977569581,2|2,3:2|0:3,0:0:0:0:
465,20,234284,2,0,P|406:56|396:149,1,146.999995513916,10|0,0:0|3:2,0:0:0:0:
430,230,234763,5,2,0:0:0:0:
430,230,234922,2,0,P|484:222|521:215,1,73.4999977569581,10|2,0:0|0:3,0:0:0:0:
410,317,235241,1,2,3:2:0:0:
410,317,235401,2,0,B|333:303|365:259|286:246,1,146.999995513916,2|2,0:0|0:0,0:0:0:0:
191,312,235880,6,0,P|200:364|202:393,2,73.4999977569581,2|2|10,3:2|0:3|0:0,0:0:0:0:
83,289,236358,2,0,P|106:226|185:220,1,146.999995513916,2|2,0:0|0:3,0:0:0:0:
244,128,236837,2,0,P|229:87|215:43,1,73.4999977569581,8|2,0:0|0:0,0:0:0:0:
119,6,237156,6,0,P|82:23|67:72,2,73.4999977569581,2|2|10,3:2|0:0|0:0,0:0:0:0:
217,41,237635,2,0,P|261:34|299:27,1,73.4999977569581,2|0,0:0|3:2,0:0:0:0:
314,136,237954,2,0,P|270:143|232:150,1,73.4999977569581,2|8,0:0|0:0,0:0:0:0:
184,288,238273,5,2,0:0:0:0:
261,232,238433,2,0,P|307:250|326:329,1,110.249996635437,2|0,3:2|0:0,0:0:0:0:
334,350,238752,2,0,P|373:343|407:335,1,73.4999977569581,14|2,0:0|0:0,0:0:0:0:
471,265,239071,2,0,P|464:247|457:224,3,36.749998878479,10|8|0|0,0:0|0:0|3:2|0:0,0:0:0:0:
422,199,239390,2,0,P|428:181|436:158,3,36.749998878479,2|0|2|0,3:2|3:2|3:2|3:2,0:0:0:0:
416,119,239710,6,0,P|426:57|505:19,2,146.999995513916,4|8|0,3:2|0:0|3:2,0:0:0:0:
339,173,240507,1,2,0:3:0:0:
339,173,240667,2,0,P|288:178|244:192,1,73.4999977569581,8|2,0:0|0:3,0:0:0:0:
208,107,240986,6,0,B|121:134|174:178|71:209,1,146.999995513916,0|8,3:2|0:0,0:0:0:0:
39,274,241465,1,2,0:3:0:0:
39,274,241624,6,0,P|51:326|54:354,1,73.4999977569581,2|2,3:2|0:0,0:0:0:0:
149,348,241944,2,0,P|137:296|134:268,1,73.4999977569581,10|2,0:0|0:0,0:0:0:0:
230,276,242263,2,0,P|242:328|245:356,1,73.4999977569581,2|2,3:2|0:0,0:0:0:0:
340,350,242583,2,0,P|328:298|325:270,1,73.4999977569581,10|2,0:0|0:0,0:0:0:0:
388,206,242901,6,0,P|435:211|464:218,1,73.4999977569581,2|2,3:2|0:0,0:0:0:0:
472,122,243220,2,0,P|425:117|396:110,1,73.4999977569581,10|2,0:0|0:0,0:0:0:0:
326,27,243539,5,2,3:2:0:0:
326,27,243699,1,2,0:0:0:0:
247,80,243858,2,0,P|166:88|70:112,1,146.999995513916,10|0,0:0|3:2,0:0:0:0:
60,224,244337,1,2,0:3:0:0:
142,175,244497,2,0,P|179:166|225:160,1,73.4999977569581,8|2,0:0|0:3,0:0:0:0:
301,231,244816,6,0,P|237:252|229:340,2,146.999995513916,0|8|0,3:2|0:0|3:2,0:0:0:0:
363,303,245614,1,2,0:3:0:0:
363,303,245773,2,0,P|420:289|445:288,1,73.4999977569581,8|2,0:0|0:3,0:0:0:0:
500,218,246092,6,0,B|455:189|455:189|486:81,1,146.999995513916,0|8,3:2|0:0,0:0:0:0:
426,20,246571,1,2,0:3:0:0:
426,20,246731,6,0,P|378:25|351:29,1,73.4999977569581,2|2,3:2|0:0,0:0:0:0:
367,123,247050,2,0,P|415:118|442:114,1,73.4999977569581,10|2,0:0|0:0,0:0:0:0:
452,209,247369,2,0,P|404:214|377:218,1,73.4999977569581,2|2,3:2|0:0,0:0:0:0:
393,312,247688,2,0,P|441:307|468:303,1,73.4999977569581,10|2,0:0|0:0,0:0:0:0:
347,384,248007,6,0,P|305:355|296:318,1,73.4999977569581,2|2,3:2|0:0,0:0:0:0:
298,239,248327,2,0,P|253:238|220:256,1,73.4999977569581,10|2,0:0|0:0,0:0:0:0:
190,349,248646,6,0,P|134:354|55:369,1,110.249996635437,2|0,3:2|0:0,0:0:0:0:
34,352,248965,2,0,L|50:271,1,73.4999977569581,14|0,0:0|0:0,0:0:0:0:
55,157,249284,2,0,L|35:121,2,36.749998878479,8|8|0,0:0|0:0|3:2,0:0:0:0:
124,236,249603,1,2,3:2:0:0:
128,218,249683,1,0,3:2:0:0:
133,200,249763,1,0,3:2:0:0:
139,182,249842,1,0,3:2:0:0:
146,165,249922,6,0,P|206:149|277:144,1,110.249996635437,4|0,3:2|0:0,0:0:0:0:
284,107,250241,2,0,P|276:72|244:18,1,73.4999977569581,8|0,0:0|0:0,0:0:0:0:
378,119,250561,2,0,P|351:160|335:202,1,73.4999977569581,0|0,3:2|0:0,0:0:0:0:
457,88,250880,2,0,P|430:52|397:37,1,73.4999977569581,8|0,0:0|0:0,0:0:0:0:
453,184,251199,6,0,P|468:249|481:306,1,110.249996635437,0|0,3:2|0:0,0:0:0:0:
464,337,251518,2,0,P|404:316|382:312,1,73.4999977569581,8|0,0:0|0:0,0:0:0:0:
325,230,251837,5,2,3:2:0:0:
325,230,251997,1,2,0:0:0:0:
292,327,252156,2,0,P|248:332|216:337,1,73.4999977569581,10|2,0:0|0:0,0:0:0:0:
203,235,252475,5,2,3:2:0:0:
203,235,252635,1,2,0:0:0:0:
118,298,252795,2,0,P|85:271|78:228,1,73.4999977569581,10|2,0:0|0:0,0:0:0:0:
134,143,253114,5,2,3:2:0:0:
134,143,253273,1,2,0:0:0:0:
31,150,253433,2,0,P|45:113|56:72,1,73.4999977569581,10|2,0:0|0:0,0:0:0:0:
158,12,253752,5,2,3:2:0:0:
158,12,253912,1,2,0:0:0:0:
224,80,254071,2,0,B|304:69|271:18|353:10,1,146.999995513916,10|0,0:0|3:2,0:0:0:0:
437,44,254550,1,0,0:0:0:0:
357,97,254710,2,0,P|369:154|381:224,1,110.249996635437,10|0,0:0|0:0,0:0:0:0:
396,249,255029,6,0,P|445:236|483:236,1,73.4999977569581,6|2,3:2|0:0,0:0:0:0:
485,329,255348,2,0,P|436:342|398:342,1,73.4999977569581,10|2,0:0|0:0,0:0:0:0:
308,291,255667,1,2,3:2:0:0:
308,291,255827,1,2,0:0:0:0:
246,373,255986,2,0,P|214:354|176:344,1,73.4999977569581,10|2,0:0|0:0,0:0:0:0:
89,303,256305,5,2,3:2:0:0:
89,303,256465,1,2,0:0:0:0:
182,233,256624,2,0,P|169:192|140:107,1,110.249996635437,12|0,0:0|0:0,0:0:0:0:
122,86,256944,2,0,P|141:69|167:58,2,36.749998878479,8|8|0,0:0|0:0|3:2,0:0:0:0:
222,0,257263,2,0,P|246:9|266:13,3,36.749998878479,0|0|0|0,3:2|3:2|3:2|3:2,0:0:0:0:
300,30,257582,5,6,3:2:0:0:
