osu file format v14

[General]
AudioFilename: audio.mp3
AudioLeadIn: 0
PreviewTime: 62174
Countdown: 0
SampleSet: Soft
StackLeniency: 0.7
Mode: 0
LetterboxInBreaks: 0
WidescreenStoryboard: 1

[Editor]
Bookmarks: 11199,21463,30364,41814,46979,52085,57192,59805,72530,82743,87850,92956,98062,100616
DistanceSpacing: 1
BeatDivisor: 4
GridSize: 16
TimelineZoom: 2.1

[Metadata]
Title:Hachigatsu no Yoru
TitleUnicode:八月の夜
Artist:Silent Siren
ArtistUnicode:Silent Siren
Creator:Kisses
Version:August
Source:
Tags:JPop Sylphi Underflow MrSergio Yoshida Sumire Umemura Hinako Yamauchi Aina Kurosaka Yukako 吉田菫 梅村妃奈子 山内あいな 黒坂優香子
BeatmapID:995837
BeatmapSetID:431708

[Difficulty]
HPDrainRate:6.5
CircleSize:4
OverallDifficulty:9
ApproachRate:9.3
SliderMultiplier:1.8
SliderTickRate:1

[Events]
//Background and Video events
0,0,"2016-04-11-824707.jpg",0,0
//Break Periods
//Storyboard Layer 0 (Background)
//Storyboard Layer 1 (Fail)
//Storyboard Layer 2 (Pass)
//Storyboard Layer 3 (Foreground)
//Storyboard Sound Samples

[TimingPoints]
-239,319.148936170213,4,2,1,70,1,0
718,-200,4,2,1,70,0,0
957,-100,4,2,1,5,0,0
1037,-100,4,2,1,70,0,0
3511,-100,4,2,1,5,0,0
3590,-100,4,2,1,70,0,0
10213,-100,4,2,1,5,0,0
10292,-100,4,2,1,70,0,0
13724,-100,4,2,1,5,0,0
13803,-100,4,2,1,70,0,0
21463,-100,4,2,1,50,0,0
30399,-133.333333333333,4,2,1,30,0,0
30638,-133.333333333333,4,2,1,5,0,0
30718,-133.333333333333,4,2,1,30,0,0
30957,-133.333333333333,4,2,1,5,0,0
31037,-133.333333333333,4,2,1,30,0,0
31357,-133.333333333333,4,2,1,70,0,0
31596,-133.333333333333,4,2,1,5,0,0
31676,-100,4,2,1,70,0,0
37021,-100,4,2,1,5,0,0
37101,-100,4,2,1,70,0,0
37340,-100,4,2,1,5,0,0
37420,-100,4,2,1,70,0,0
37979,-100,4,2,1,5,0,0
38058,-100,4,2,1,70,0,0
38298,-100,4,2,1,5,0,0
38378,-100,4,2,1,70,0,0
59781,319.148936170213,4,2,1,70,1,0
59781,-133.333333333333,4,2,1,70,0,0
59940,-133.333333333333,4,2,1,30,0,0
61695,-100,4,2,1,50,0,0
62334,-200,4,2,1,50,0,0
62653,-83.3333333333333,4,2,1,70,0,1
82759,-83.3333333333333,4,2,1,70,0,0
100632,-133.333333333333,4,2,1,70,0,0
100791,-133.333333333333,4,2,1,30,0,0

[Colours]
Combo1 : 225,11,48
Combo2 : 155,40,123
Combo3 : 255,55,155
Combo4 : 86,228,197

[HitObjects]
223,175,718,6,0,P|226:208|232:241,1,67.5
293,288,1038,6,0,B|219:256|183:327|108:301,1,180,6|8,0:0|0:0,0:0:0:0:
131,153,1516,1,0,0:0:0:0:
348,109,1676,2,0,P|341:158|321:204,1,90,2|2,0:0|0:0,0:0:0:0:
442,368,1995,2,0,P|428:329|423:280,1,90,8|0,0:0|0:0,0:0:0:0:
463,102,2314,5,2,0:0:0:0:
318,221,2474,1,0,0:0:0:0:
214,42,2633,2,0,P|263:38|317:36,1,90,8|0,0:0|0:0,0:0:0:0:
164,174,2952,1,2,0:0:0:0:
90,39,3112,1,2,0:0:0:0:
12,223,3272,2,0,B|-4:129|-4:129|8:67,1,135,8|0,0:0|0:0,0:0:0:0:
90,39,3591,6,0,P|105:84|98:132,1,90,2|0,0:0|0:0,0:0:0:0:
0,353,3909,2,0,P|-5:308|10:266,1,90,8|0,0:0|0:0,0:0:0:0:
230,317,4229,1,2,0:0:0:0:
16,237,4389,1,2,0:0:0:0:
238,281,4548,1,8,0:0:0:0:
20,204,4708,1,0,0:0:0:0:
20,85,4867,6,0,L|22:174,1,90,2|0,0:0|0:0,0:0:0:0:
252,160,5186,2,0,L|251:71,1,90,8|0,0:0|0:0,0:0:0:0:
474,61,5506,1,2,0:0:0:0:
251,37,5665,1,2,0:0:0:0:
475,27,5825,1,8,0:0:0:0:
251,0,5984,1,0,0:0:0:0:
463,205,6144,6,0,B|447:229|415:243|384:240|354:227|354:227|371:257|363:297,1,180,2|8,0:0|0:0,0:0:0:0:
275,271,6623,1,0,0:0:0:0:
459,379,6782,2,0,P|485:338|490:274,1,90,2|2,0:0|0:0,0:0:0:0:
433,68,7101,2,0,P|407:104|396:148,1,90,8|0,0:0|0:0,0:0:0:0:
158,26,7420,6,0,P|214:79|315:56,1,180,2|8,0:0|0:0,0:0:0:0:
445,27,7899,1,0,0:0:0:0:
478,182,8059,2,0,P|439:163|390:148,1,90,2|2,0:0|0:0,0:0:0:0:
144,140,8378,2,0,P|184:159|242:173,1,90,8|0,0:0|0:0,0:0:0:0:
474,309,8697,6,0,P|380:311|284:325,1,180,2|8,0:0|0:0,0:0:0:0:
111,213,9176,2,0,P|94:260|85:299,1,90,0|2,0:0|0:0,0:0:0:0:
196,363,9495,1,2,0:0:0:0:
276,206,9654,2,0,P|286:256|292:308,1,90,8|0,0:0|0:0,0:0:0:0:
505,227,9974,6,0,P|438:239|394:185,1,135,2|0,0:0|0:0,0:0:0:0:
390,158,10293,1,8,0:0:0:0:
462,62,10452,1,0,0:0:0:0:
268,76,10612,5,8,0:3:0:0:
213,76,10692,1,8,0:3:0:0:
167,50,10771,2,0,P|161:25|157:-15,1,45,8|8,0:3|0:3,0:0:0:0:
60,172,10931,1,8,0:3:0:0:
110,153,11011,1,8,0:3:0:0:
164,153,11091,1,8,0:3:0:0:
207,184,11170,1,8,0:3:0:0:
232,231,11250,6,0,P|223:285|208:343,1,90,6|0,0:0|0:0,0:0:0:0:
15,272,11569,2,0,P|64:267|118:258,1,90,8|0,0:0|0:0,0:0:0:0:
230,115,11889,1,2,0:0:0:0:
57,91,12048,1,2,0:0:0:0:
232,231,12208,1,8,0:0:0:0:
304,65,12367,1,0,0:0:0:0:
85,173,12527,6,0,P|96:216|103:260,1,90,2|0,0:0|0:0,0:0:0:0:
322,330,12846,2,0,P|273:338|219:352,1,90,8|0,0:0|0:0,0:0:0:0:
23,308,13165,1,2,0:0:0:0:
203,251,13325,1,2,0:0:0:0:
104,39,13484,2,0,P|91:116|84:181,1,135,8|0,0:0|0:0,0:0:0:0:
113,257,13803,6,0,P|160:252|216:250,1,90,2|0,0:0|0:0,0:0:0:0:
425,329,14122,2,0,P|378:334|322:336,1,90,8|0,0:0|0:0,0:0:0:0:
252,135,14442,1,2,0:0:0:0:
296,343,14601,1,2,0:0:0:0:
281,125,14761,1,8,0:0:0:0:
260,348,14920,1,0,0:0:0:0:
313,119,15080,6,0,P|322:76|337:27,1,90,2|0,0:0|0:0,0:0:0:0:
233,244,15399,2,0,P|227:200|218:156,1,90,8|0,0:0|0:0,0:0:0:0:
446,182,15718,1,2,0:0:0:0:
244,280,15878,1,2,0:0:0:0:
453,221,16038,1,8,0:0:0:0:
213,130,16197,1,0,0:0:0:0:
463,2,16357,6,0,P|452:97|445:195,1,180,2|8,0:0|0:0,0:0:0:0:
333,98,16835,1,0,0:0:0:0:
258,288,16995,2,0,P|244:243|233:192,1,90,2|2,0:0|0:0,0:0:0:0:
45,312,17314,2,0,P|55:268|71:214,1,90,8|0,0:0|0:0,0:0:0:0:
245,39,17633,6,0,P|185:100|91:84,1,180,2|8,0:0|0:0,0:0:0:0:
152,7,18112,1,0,0:0:0:0:
339,132,18272,2,0,P|385:127|431:120,1,90,2|2,0:0|0:0,0:0:0:0:
207,205,18591,2,0,P|165:195|108:186,1,90,8|0,0:0|0:0,0:0:0:0:
279,45,18910,5,2,0:0:0:0:
300,215,19069,1,0,0:0:0:0:
506,111,19229,1,8,0:0:0:0:
454,265,19389,1,0,0:0:0:0:
382,50,19548,2,0,P|368:98|346:143,1,90,2|2,0:0|0:0,0:0:0:0:
211,46,19867,1,8,0:0:0:0:
229,192,20027,1,0,0:0:0:0:
0,132,20186,6,0,P|48:125|105:121,1,90,2|0,0:0|0:0,0:0:0:0:
255,111,20506,1,8,0:0:0:0:
187,269,20665,1,0,0:0:0:0:
414,240,20824,2,0,P|366:233|308:229,1,90,2|2,0:0|0:0,0:0:0:0:
255,111,21143,1,8,0:0:0:0:
303,84,21224,1,8,0:0:0:0:
356,78,21303,1,8,0:0:0:0:
407,95,21383,1,8,0:0:0:0:
446,134,21463,6,0,P|443:86|436:23,1,90,6|0,0:0|0:0,0:0:0:0:
331,11,21782,2,0,P|286:10|231:25,1,90,8|0,0:0|0:0,0:0:0:0:
141,59,22100,2,0,P|225:70|254:161,1,180,2|8,0:0|0:0,0:0:0:0:
341,87,22580,1,0,0:0:0:0:
171,137,22739,6,0,P|124:140|67:149,2,90,2|0|8,0:0|0:0|0:0,0:0:0:0:
265,239,23218,1,0,0:0:0:0:
341,87,23378,2,0,P|425:114|487:53,1,180,2|0,0:0|0:0,0:0:0:0:
405,32,23856,1,0,0:0:0:0:
247,59,24016,6,0,P|254:150|267:254,1,180,2|8,0:0|0:0,0:0:0:0:
297,341,24495,1,0,0:0:0:0:
438,269,24655,2,0,P|454:182|477:87,1,180,2|8,0:0|0:0,0:0:0:0:
504,0,25133,1,0,0:0:0:0:
297,7,25293,5,2,0:0:0:0:
381,69,25452,1,0,0:0:0:0:
222,94,25612,1,8,0:0:0:0:
310,179,25772,1,0,0:0:0:0:
200,255,25931,2,0,P|191:302|186:348,1,90,2|0,0:0|0:0,0:0:0:0:
87,269,26250,2,0,P|83:226|75:175,1,90,8|0,0:0|0:0,0:0:0:0:
182,109,26569,6,0,P|232:111|278:137,1,90,2|0,0:0|0:0,0:0:0:0:
361,197,26889,1,8,0:0:0:0:
386,92,27048,1,0,0:0:0:0:
205,203,27208,2,0,B|159:234|117:234|117:234|89:198|32:200,1,180,2|8,0:0|0:0,0:0:0:0:
37,307,27686,1,0,0:0:0:0:
189,302,27846,6,0,P|242:304|305:317,1,90,2|0,0:0|0:0,0:0:0:0:
388,326,28165,2,0,P|342:336|289:338,1,90,8|0,0:0|0:0,0:0:0:0:
258,191,28484,2,0,P|349:211|395:284,1,180,2|8,0:0|0:0,0:0:0:0:
278,310,28963,1,0,0:0:0:0:
123,244,29123,6,0,P|106:157|94:58,1,180,2|8,0:0|0:0,0:0:0:0:
199,15,29601,1,0,0:0:0:0:
339,102,29761,2,0,P|312:189|291:277,1,180,2|8,0:0|0:0,0:0:0:0:
190,315,30240,1,2,0:2:0:0:
196,187,30399,6,0,P|154:171|93:188,1,101.250003862381
61,240,30718,2,0,L|66:125,1,101.250003862381
67,86,31038,1,0,0:0:0:0:
196,187,31197,5,2,0:0:0:0:
363,90,31357,2,0,P|350:141|343:191,1,101.250003862381,12|0,0:0|0:0,0:0:0:0:
356,216,31676,6,0,P|403:202|469:201,1,90,6|0,0:2|0:0,0:0:0:0:
289,21,31995,2,0,P|265:58|261:105,1,90,8|0,0:0|0:0,0:0:0:0:
444,119,32314,1,2,0:0:0:0:
277,188,32474,1,0,0:0:0:0:
431,261,32633,2,0,P|423:309|402:350,1,90,8|0,0:0|0:0,0:0:0:0:
194,353,32952,6,0,P|242:346|306:342,1,90,2|0,0:0|0:0,0:0:0:0:
490,207,33272,2,0,P|401:224|334:154,1,180,8|2,0:0|0:0,0:0:0:0:
313,73,33750,1,0,0:0:0:0:
470,24,33910,2,0,P|449:69|433:121,1,90,8|0,0:0|0:0,0:0:0:0:
334,251,34229,6,0,P|328:160|311:64,1,180,2|8,0:0|0:0,0:0:0:0:
198,77,34708,1,0,0:0:0:0:
227,256,34867,2,0,B|190:266|154:249|154:249|117:257|117:257|83:240|35:251,1,180,2|8,0:0|0:0,0:0:0:0:
68,339,35346,1,0,0:0:0:0:
197,76,35506,6,0,P|199:122|206:177,1,90,2|0,0:0|0:0,0:0:0:0:
341,16,35824,2,0,P|318:59|305:98,1,90,8|0,0:0|0:0,0:0:0:0:
507,84,36143,2,0,P|461:82|405:95,1,90,2|0,0:0|0:0,0:0:0:0:
475,203,36463,1,8,0:0:0:0:
475,203,36623,1,0,0:0:0:0:
312,353,36782,6,0,P|379:337|453:347,1,135,2|0,0:0|0:0,0:0:0:0:
475,203,37101,2,0,P|428:250|347:245,1,135,8|0,0:0|0:0,0:0:0:0:
303,148,37420,2,0,P|355:154|397:169,1,90,2|0,0:0|0:0,0:0:0:0:
229,287,37739,6,0,P|163:289|92:297,1,135,8|0,0:0|0:0,0:0:0:0:
2,300,38059,2,0,P|52:306|20:255,1,135,2|0,0:0|0:0,0:0:0:0:
118,191,38378,2,0,P|166:195|207:204,1,90,8|0,0:0|0:0,0:0:0:0:
380,279,38697,6,0,P|394:238|395:189,1,90,2|0,0:0|0:0,0:0:0:0:
226,28,39016,2,0,P|210:74|211:131,1,90,8|0,0:0|0:0,0:0:0:0:
423,357,39335,6,0,P|372:368|329:352,1,90,2|0,0:0|0:0,0:0:0:0:
103,280,39655,2,0,P|150:275|203:291,1,90,8|0,0:0|0:0,0:0:0:0:
380,279,39974,1,2,0:0:0:0:
206,202,40133,1,0,0:0:0:0:
336,357,40293,1,8,0:0:0:0:
424,198,40452,1,0,0:0:0:0:
237,123,40612,6,0,P|223:79|223:36,1,90,2|0,0:0|0:0,0:0:0:0:
369,87,40931,2,0,P|368:41|379:-4,1,90,8|0,0:0|0:0,0:0:0:0:
495,144,41250,1,10,0:0:0:0:
363,338,41410,1,10,0:0:0:0:
369,87,41569,1,10,0:0:0:0:
466,332,41729,1,10,0:0:0:0:
210,149,41888,5,6,0:0:0:0:
210,149,42048,2,0,L|216:258,1,90,2|0,0:0|0:0,0:0:0:0:
466,332,42367,2,0,L|269:320,1,180,8|2,0:0|0:0,0:0:0:0:
184,372,42846,1,8,0:0:0:0:
47,292,43006,1,2,0:0:0:0:
47,292,43085,1,2,0:0:0:0:
47,292,43165,5,2,0:0:0:0:
195,244,43325,2,0,L|204:129,1,90,2|0,0:0|0:0,0:0:0:0:
329,56,43644,1,8,0:0:0:0:
453,193,43803,5,0,0:0:0:0:
415,61,43963,1,2,0:0:0:0:
380,212,44123,5,8,0:0:0:0:
333,66,44282,1,0,0:0:0:0:
312,248,44442,5,2,0:0:0:0:
254,89,44601,1,0,0:0:0:0:
249,298,44761,5,0,0:0:0:0:
183,124,44920,1,8,0:0:0:0:
177,338,45080,6,0,P|168:293|171:249,1,90,0|2,0:0|0:0,0:0:0:0:
278,143,45399,2,0,P|289:100|285:44,1,90,8|0,0:0|0:0,0:0:0:0:
98,5,45718,5,2,0:0:0:0:
183,173,45878,1,2,0:0:0:0:
0,157,46038,1,0,0:0:0:0:
195,67,46197,2,0,P|239:65|284:64,1,90,8|0,0:0|0:0,0:0:0:0:
447,64,46516,1,2,0:0:0:0:
272,176,46676,2,0,P|227:174|182:172,1,90,8|0,0:0|0:0,0:0:0:0:
13,287,46995,5,2,0:0:0:0:
13,287,47155,2,0,L|112:284,1,90,2|0,0:0|0:0,0:0:0:0:
165,40,47474,2,0,P|159:144|154:222,1,180,8|2,0:0|0:0,0:0:0:0:
294,335,47952,2,0,P|345:336|391:310,1,90,8|2,0:0|0:0,0:0:0:0:
406,299,48192,1,2,0:0:0:0:
432,266,48272,5,2,0:0:0:0:
328,139,48431,2,0,L|321:246,1,90,2|0,0:0|0:0,0:0:0:0:
181,319,48750,1,8,0:0:0:0:
118,135,48910,5,0,0:0:0:0:
1,276,49069,1,2,0:0:0:0:
157,160,49229,5,8,0:0:0:0:
109,340,49389,1,0,0:0:0:0:
208,165,49548,5,2,0:0:0:0:
246,343,49708,1,2,0:0:0:0:
258,145,49867,5,0,0:0:0:0:
375,280,50027,1,8,0:0:0:0:
291,115,50186,6,0,P|338:102|388:104,1,90,0|2,0:0|0:0,0:0:0:0:
512,250,50506,2,0,P|470:268|416:274,1,90,8|0,0:0|0:0,0:0:0:0:
274,209,50825,6,0,L|279:329,1,90,2|2,0:0|0:0,0:0:0:0:
140,353,51144,1,0,0:0:0:0:
27,222,51303,2,0,L|41:102,1,90,12|0,0:3|0:0,0:0:0:0:
180,78,51623,1,2,0:0:0:0:
332,216,51782,2,0,B|243:239|243:239|187:230,1,135,12|0,0:0|0:0,0:0:0:0:
153,219,52101,5,6,0:0:0:0:
15,136,52261,2,0,P|62:133|113:132,1,90,2|0,0:0|0:0,0:0:0:0:
401,197,52580,2,0,P|311:192|206:189,1,180,8|2,0:0|0:0,0:0:0:0:
52,244,53059,1,8,0:0:0:0:
4,44,53218,1,2,0:0:0:0:
4,44,53298,1,2,0:0:0:0:
4,44,53378,5,2,0:0:0:0:
162,112,53538,2,0,L|264:108,1,90,2|0,0:0|0:0,0:0:0:0:
445,112,53857,1,8,0:0:0:0:
304,287,54016,5,0,0:0:0:0:
478,354,54176,1,2,0:0:0:0:
313,205,54335,5,8,0:0:0:0:
503,230,54495,1,0,0:0:0:0:
296,127,54655,5,2,0:0:0:0:
496,106,54814,1,2,0:0:0:0:
254,56,54974,5,0,0:0:0:0:
459,0,55133,1,8,0:0:0:0:
296,127,55293,5,0,0:0:0:0:
496,106,55452,1,2,0:0:0:0:
339,200,55612,5,8,0:0:0:0:
509,218,55772,1,0,0:0:0:0:
376,274,55931,5,2,0:0:0:0:
376,274,56090,2,0,L|387:379,1,90,2|0,0:0|0:0,0:0:0:0:
182,381,56410,2,0,L|293:371,1,90,8|0,0:0|0:0,0:0:0:0:
385,363,56729,1,2,0:0:0:0:
225,264,56889,2,0,L|130:270,1,90,8|0,0:0|0:0,0:0:0:0:
13,108,57208,5,2,0:0:0:0:
13,108,57367,2,0,L|137:117,1,90,2|0,0:0|0:0,0:0:0:0:
363,34,57686,2,0,P|271:45|166:55,1,180,8|2,0:0|0:0,0:0:0:0:
310,149,58165,2,0,P|361:154|408:162,1,90,8|2,0:0|0:0,0:0:0:0:
430,166,58405,1,2,0:0:0:0:
460,176,58484,5,2,0:0:0:0:
339,319,58644,2,0,P|294:323|249:325,1,90,2|0,0:0|0:0,0:0:0:0:
61,213,58963,2,0,P|161:200|239:219,1,180,8|2,0:0|0:0,0:0:0:0:
414,175,59442,2,0,L|403:323,1,135,8|0,0:0|0:0,0:0:0:0:
357,327,59781,6,0,P|354:293|349:239,2,67.5000025749208,12|0|0,0:0|0:0|0:0,0:0:0:0:
244,304,60259,2,0,P|241:340|235:397,2,67.5000025749208
149,310,60738,2,0,L|143:222,1,67.5000025749208
143,147,61057,5,0,0:0:0:0:
232,115,61217,1,0,0:0:0:0:
308,169,61376,2,0,P|342:185|388:186,1,67.5000025749208
483,54,61695,5,8,0:3:0:0:
442,83,61775,1,8,0:3:0:0:
393,92,61855,1,8,0:3:0:0:
345,79,61935,1,8,0:3:0:0:
307,46,62015,1,8,0:3:0:0:
262,25,62094,1,8,0:3:0:0:
212,21,62174,1,8,0:3:0:0:
166,41,62254,1,8,0:3:0:0:
128,72,62334,6,0,P|95:78|52:79,1,67.5
1,87,62653,6,0,P|63:103|105:142,1,107.999996704102,12|0,0:0|0:0,0:0:0:0:
197,254,62972,1,2,0:0:0:0:
397,158,63132,2,0,P|459:167|522:188,1,107.999996704102,0|8,0:0|0:0,0:0:0:0:
460,336,63451,1,0,0:0:0:0:
278,210,63610,6,0,P|223:223|152:225,1,107.999996704102,2|0,0:0|0:0,0:0:0:0:
19,81,63929,2,0,P|81:81|138:95,1,107.999996704102,8|0,0:0|0:0,0:0:0:0:
289,134,64249,1,2,0:0:0:0:
446,47,64408,2,0,P|424:105|413:171,1,107.999996704102,0|8,0:0|0:0,0:0:0:0:
355,353,64727,1,0,0:0:0:0:
355,353,64807,1,0,0:0:0:0:
355,353,64887,5,2,0:0:0:0:
262,180,65046,1,0,0:0:0:0:
185,321,65206,1,8,0:0:0:0:
425,264,65366,1,0,0:0:0:0:
425,264,65445,1,0,0:0:0:0:
425,264,65525,1,2,0:0:0:0:
299,135,65685,2,0,P|243:136|188:141,1,107.999996704102,0|8,0:0|0:0,0:0:0:0:
62,238,66004,1,0,0:0:0:0:
255,343,66163,6,0,P|313:343|354:301,1,107.999996704102,2|0,0:0|0:0,0:0:0:0:
395,131,66483,1,8,0:0:0:0:
273,249,66642,1,0,0:0:0:0:
107,106,66802,2,0,P|53:105|-19:113,1,107.999996704102,2|0,0:0|0:0,0:0:0:0:
313,160,67121,2,0,P|368:166|422:164,1,107.999996704102,8|0,0:0|0:0,0:0:0:0:
269,78,67440,5,2,0:0:0:0:
144,180,67600,1,0,0:0:0:0:
261,0,67759,2,0,P|319:17|347:71,1,107.999996704102,8|0,0:0|0:0,0:0:0:0:
348,221,68078,1,2,0:0:0:0:
175,108,68238,2,0,P|123:103|75:137,1,107.999996704102,0|8,0:0|0:0,0:0:0:0:
110,320,68557,1,0,0:0:0:0:
317,272,68717,6,0,P|327:212|308:166,1,107.999996704102,2|0,0:0|0:0,0:0:0:0:
214,56,69036,1,8,0:0:0:0:
125,213,69195,2,0,L|248:225,1,107.999996704102,0|2,0:0|0:0,0:0:0:0:
466,286,69515,1,0,0:0:0:0:
276,351,69674,1,8,0:0:0:0:
383,180,69834,1,0,0:0:0:0:
383,180,69913,1,0,0:0:0:0:
383,180,69993,6,0,P|444:203|500:187,1,107.999996704102,2|0,0:0|0:0,0:0:0:0:
329,46,70312,1,8,0:0:0:0:
373,278,70472,1,0,0:0:0:0:
447,87,70632,1,2,0:0:0:0:
264,163,70791,1,0,0:0:0:0:
490,279,70951,1,8,0:0:0:0:
264,332,71110,2,0,P|208:331|150:307,1,107.999996704102,0|2,0:0|0:0,0:0:0:0:
0,127,71429,6,0,P|51:119|119:127,1,107.999996704102,0|8,0:0|0:0,0:0:0:0:
264,163,71749,1,0,0:0:0:0:
101,42,71908,2,0,P|155:48|215:38,1,107.999996704102,2|0,0:0|0:0,0:0:0:0:
407,3,72228,1,8,0:0:0:0:
441,36,72308,1,8,0:0:0:0:
453,82,72387,1,8,0:0:0:0:
436,127,72467,1,8,0:0:0:0:
397,155,72546,6,0,P|342:156|275:161,1,107.999996704102,6|0,0:0|0:0,0:0:0:0:
62,146,72866,1,8,0:0:0:0:
190,232,73025,1,0,0:0:0:0:
252,13,73185,1,2,0:0:0:0:
126,109,73344,2,0,P|70:102|0:96,1,107.999996704102,0|8,0:0|0:0,0:0:0:0:
57,266,73663,1,0,0:0:0:0:
247,152,73823,6,0,P|296:147|369:142,1,107.999996704102,2|0,0:0|0:0,0:0:0:0:
512,219,74142,1,8,0:0:0:0:
393,295,74302,1,0,0:0:0:0:
426,69,74461,1,2,0:0:0:0:
298,228,74621,1,0,0:0:0:0:
250,55,74781,1,8,0:0:0:0:
505,146,74940,1,0,0:0:0:0:
505,146,75020,1,0,0:0:0:0:
505,146,75100,5,2,0:0:0:0:
438,0,75259,1,0,0:0:0:0:
318,206,75419,1,8,0:0:0:0:
141,44,75578,1,0,0:0:0:0:
141,44,75658,1,0,0:0:0:0:
141,44,75738,2,0,P|82:46|20:53,1,107.999996704102,2|0,0:0|0:0,0:0:0:0:
99,211,76057,1,8,0:0:0:0:
185,109,76217,1,0,0:0:0:0:
299,320,76376,5,2,0:0:0:0:
337,184,76536,1,0,0:0:0:0:
152,320,76695,1,8,0:0:0:0:
109,135,76855,1,0,0:0:0:0:
312,226,77015,2,0,P|368:217|422:216,1,107.999996704102,2|0,0:0|0:3,0:0:0:0:
152,320,77334,2,0,P|91:315|27:297,1,107.999996704102,8|0,0:0|0:0,0:0:0:0:
171,139,77653,5,2,0:0:0:0:
237,280,77812,1,0,0:0:0:0:
366,194,77972,2,0,P|425:203|485:215,1,107.999996704102,8|0,0:0|0:0,0:0:0:0:
512,81,78291,1,2,0:0:0:0:
276,103,78451,2,0,P|338:100|412:95,1,107.999996704102,0|8,0:0|0:0,0:0:0:0:
314,261,78770,1,0,0:0:0:0:
245,74,78929,6,0,P|191:68|112:62,1,107.999996704102,2|0,0:0|0:0,0:0:0:0:
42,177,79249,1,8,0:0:0:0:
272,153,79408,2,0,P|217:156|150:166,1,107.999996704102,0|2,0:0|0:0,0:0:0:0:
76,305,79727,1,0,0:0:0:0:
243,275,79887,1,8,0:0:0:0:
183,28,80046,1,0,0:0:0:0:
183,28,80126,1,0,0:0:0:0:
183,28,80206,5,2,0:0:0:0:
122,192,80366,1,0,0:0:0:0:
349,159,80525,1,8,0:0:0:0:
224,64,80685,2,0,P|166:57|99:68,1,107.999996704102,0|2,0:0|0:0,0:0:0:0:
297,205,81004,2,0,P|306:154|326:96,1,107.999996704102,0|8,0:0|0:0,0:0:0:0:
423,149,81323,1,0,0:0:0:0:
184,240,81483,5,2,0:0:0:0:
117,62,81642,1,0,0:0:0:0:
297,205,81802,1,12,0:0:0:0:
64,165,81961,1,0,0:0:0:0:
270,58,82121,5,8,0:3:0:0:
305,98,82201,1,8,0:3:0:0:
306,151,82281,2,0,P|301:183|291:230,1,53.9999983520508,8|8,0:3|0:3,0:0:0:0:
472,257,82440,1,8,0:3:0:0:
448,208,82520,1,8,0:3:0:0:
448,153,82600,1,8,0:3:0:0:
471,104,82679,1,8,0:3:0:0:
503,64,82759,6,0,P|452:74|396:58,1,107.999996704102,4|0,0:0|0:0,0:0:0:0:
176,24,83078,2,0,P|225:9|283:20,1,107.999996704102,8|0,0:0|0:0,0:0:0:0:
438,263,83398,2,0,L|447:126,1,107.999996704102,2|2,0:0|0:0,0:0:0:0:
277,271,83717,2,0,L|280:390,1,107.999996704102,8|0,0:0|0:0,0:0:0:0:
24,255,84036,6,0,P|77:266|143:250,1,107.999996704102,2|0,0:0|0:0,0:0:0:0:
335,183,84355,2,0,P|287:168|217:189,1,107.999996704102,8|0,0:0|0:0,0:0:0:0:
58,338,84674,5,2,0:0:0:0:
77,146,84834,1,2,0:0:0:0:
204,296,84993,5,8,0:0:0:0:
159,105,85153,1,0,0:0:0:0:
301,236,85312,5,2,0:0:0:0:
236,61,85472,1,0,0:0:0:0:
397,169,85632,5,8,0:0:0:0:
327,20,85791,1,0,0:0:0:0:
202,170,85951,6,0,P|144:181|89:152,1,107.999996704102,2|2,0:0|0:0,0:0:0:0:
363,88,86270,2,0,P|424:91|475:132,1,107.999996704102,8|0,0:0|0:0,0:0:0:0:
390,341,86589,6,0,P|393:287|395:233,1,107.999996704102,2|0,0:0|0:0,0:0:0:0:
246,41,86908,2,0,P|249:100|252:168,1,107.999996704102,8|0,0:0|0:0,0:0:0:0:
272,351,87227,1,2,0:0:0:0:
123,255,87387,1,2,0:0:0:0:
314,206,87546,2,0,P|268:186|194:184,1,107.999996704102,8|0,0:0|0:0,0:0:0:0:
0,87,87866,6,0,P|89:113|217:71,1,215.999993408203,2|8,0:0|0:0,0:0:0:0:
337,17,88344,1,0,0:0:0:0:
456,162,88504,2,0,P|453:220|450:288,1,107.999996704102,2|2,0:0|0:0,0:0:0:0:
347,106,88823,2,0,P|350:163|352:233,1,107.999996704102,8|0,0:0|0:0,0:0:0:0:
113,291,89142,6,0,P|211:334|336:304,1,215.999993408203,2|8,0:0|0:0,0:0:0:0:
234,172,89621,1,0,0:0:0:0:
429,81,89781,5,2,0:0:0:0:
457,281,89940,1,2,0:0:0:0:
352,41,90100,5,8,0:0:0:0:
375,266,90259,1,0,0:0:0:0:
260,10,90419,5,2,0:0:0:0:
296,245,90578,1,0,0:0:0:0:
168,9,90738,5,8,0:0:0:0:
210,228,90898,1,0,0:0:0:0:
364,131,91057,6,0,P|313:135|241:140,1,107.999996704102,2|2,0:0|0:0,0:0:0:0:
512,255,91376,2,0,P|460:252|389:248,1,107.999996704102,8|0,0:0|0:0,0:0:0:0:
160,198,91695,6,0,P|145:141|163:84,1,107.999996704102,2|0,0:0|0:0,0:0:0:0:
309,220,92015,2,0,P|313:279|284:329,1,107.999996704102,12|0,0:0|0:0,0:0:0:0:
84,162,92334,1,8,0:3:0:0:
120,185,92413,1,8,0:3:0:0:
160,198,92493,1,8,0:3:0:0:
202,197,92573,1,8,0:3:0:0:
240,176,92653,1,8,0:3:0:0:
276,149,92733,1,8,0:3:0:0:
317,140,92812,1,8,0:3:0:0:
356,157,92892,1,8,0:3:0:0:
384,190,92972,6,0,P|445:184|513:187,1,107.999996704102,6|0,0:0|0:0,0:0:0:0:
181,95,93291,2,0,P|126:90|63:68,1,107.999996704102,12|0,0:0|0:0,0:0:0:0:
268,271,93610,2,0,P|336:279|380:317,1,107.999996704102,6|0,0:0|0:0,0:0:0:0:
487,93,93929,2,0,P|429:97|364:114,1,107.999996704102,12|0,0:0|0:0,0:0:0:0:
179,315,94249,6,0,L|189:179,1,107.999996704102,6|0,0:0|0:0,0:0:0:0:
325,12,94568,2,0,L|333:127,1,107.999996704102,12|0,0:0|0:0,0:0:0:0:
479,336,94887,5,4,0:0:0:0:
437,166,95046,1,0,0:0:0:0:
400,361,95206,5,12,0:0:0:0:
406,159,95366,1,0,0:0:0:0:
305,347,95525,5,6,0:0:0:0:
343,122,95685,1,0,0:0:0:0:
231,310,95844,5,12,0:0:0:0:
256,75,96004,1,0,0:0:0:0:
177,292,96163,5,6,0:0:0:0:
163,76,96323,1,0,0:0:0:0:
93,308,96483,5,12,0:0:0:0:
58,108,96642,1,0,0:0:0:0:
21,343,96802,6,0,P|84:333|142:340,1,107.999996704102,6|0,0:0|0:0,0:0:0:0:
365,348,97121,2,0,P|311:362|256:355,1,107.999996704102,12|0,0:0|0:0,0:0:0:0:
172,237,97440,1,6,0:0:0:0:
285,141,97600,1,0,0:0:0:0:
439,248,97759,2,0,P|383:258|332:254,1,107.999996704102,12|0,0:0|0:0,0:0:0:0:
98,191,98078,6,0,L|222:187,1,107.999996704102,4|0,0:0|0:0,0:0:0:0:
474,103,98398,2,0,P|422:90|356:87,1,107.999996704102,8|0,0:0|0:0,0:0:0:0:
236,254,98717,2,0,L|243:116,1,107.999996704102,2|2,0:0|0:0,0:0:0:0:
36,226,99036,2,0,P|29:284|53:337,1,107.999996704102,8|0,0:0|0:0,0:0:0:0:
236,379,99355,6,0,B|264:372|286:377|286:377|316:339|361:325|412:330|443:372,1,215.999993408203,2|12,0:0|0:0,0:0:0:0:
362,211,99834,1,0,0:0:0:0:
458,57,99993,1,8,0:0:0:0:
430,90,100073,1,8,0:0:0:0:
429,133,100153,1,8,0:0:0:0:
454,167,100233,1,8,0:0:0:0:
463,209,100312,1,8,0:0:0:0:
454,251,100392,1,8,0:0:0:0:
428,286,100472,1,8,0:0:0:0:
407,324,100552,1,8,0:0:0:0:
432,359,100632,6,0,P|465:356|516:351,2,67.5000025749208,12|0|0,0:0|0:0|0:0,0:0:0:0:
362,211,101110,2,0,P|326:209|279:207,2,67.5000025749208
287,347,101589,2,0,P|253:352|216:355,1,67.5000025749208
95,134,101908,5,0,0:0:0:0:
129,328,102068,1,0,0:0:0:0:
209,184,102227,1,0,0:0:0:0:
46,273,102387,1,0,0:0:0:0:
